osu file format v14

[General]
AudioFilename: audio.mp3
AudioLeadIn: 0
PreviewTime: 37726
Countdown: 0
SampleSet: Soft
StackLeniency: 0.7
Mode: 0
LetterboxInBreaks: 0
WidescreenStoryboard: 1

[Editor]
DistanceSpacing: 1
BeatDivisor: 4
GridSize: 32
TimelineZoom: 1

[Metadata]
Title:Hito ni Yasashiku (TV Size)
TitleUnicode:人にやさしく (TV Size)
Artist:THE ROLLING GIRLS
ArtistUnicode:THE ROLLING GIRLS
Creator:Kanui
Version:Normal
Source:ローリング☆ガールズ
Tags:Rolling☆Girls rolling*girls anime opening japanese rock jrock j-rock female vocals be kind to people 小澤亜李 Ari Ozawa 日高里菜 Rina Hidaka 種田梨沙 Risa Taneda 花守ゆみり Yumiri Hanamori 小坂 結季奈 Yukina Kosaka 森友 望未 Nozomi Moritomo 響 逢衣 Ai Hibiki 御園 千綾 Chiaya Misono
BeatmapID:4249822
BeatmapSetID:2037623

[Difficulty]
HPDrainRate:4
CircleSize:3
OverallDifficulty:5
ApproachRate:6
SliderMultiplier:1.1
SliderTickRate:1

[Events]
//Background and Video events
0,0,"bg.jpg",0,0
Video,130,"video.mp4"
//Break Periods
//Storyboard Layer 0 (Background)
//Storyboard Layer 1 (Fail)
//Storyboard Layer 2 (Pass)
//Storyboard Layer 3 (Foreground)
//Storyboard Layer 4 (Overlay)
//Storyboard Sound Samples

[TimingPoints]
-1338,320.855614973262,4,2,1,50,1,0
3153,-111.111111111111,4,2,1,65,0,0
3795,-100,4,2,1,80,0,0
37164,-111.111111111111,4,2,1,65,0,0
39089,-111.111111111111,4,2,1,50,0,0
39250,-111.111111111111,4,2,1,65,0,0
39731,-100,4,2,1,80,0,0
75667,384.615384615385,4,2,1,65,1,0
76436,358.208955223881,4,2,1,65,1,0
77152,372.670807453416,4,2,1,65,1,0
77897,350.877192982456,4,2,1,65,1,0
78598,386.473429951691,4,2,1,65,1,0
79370,427.046263345196,4,2,1,65,1,0

[Colours]
Combo1 : 244,236,198
Combo2 : 155,208,239
Combo3 : 210,158,197
Combo4 : 132,186,177

[HitObjects]
15,238,907,5,2,0:0:0:0:
176,143,1549,5,2,0:0:0:0:
336,241,2191,5,2,0:0:0:0:
497,146,2833,5,2,0:0:0:0:
435,68,3153,6,0,L|385:75,1,49.4999984893799,8|0,0:0|0:0,0:0:0:0:
342,97,3474,2,0,L|292:90,1,49.4999984893799,8|0,0:0|0:0,0:0:0:0:
243,64,3795,6,0,B|198:74|198:74|186:90|186:90|137:101,1,110,4|8,1:2|0:0,0:0:0:0:
34,82,4437,2,0,B|44:116|50:161,1,55,0|0,1:2|1:0,0:0:0:0:
59,189,4758,1,8,0:0:0:0:
154,243,5079,2,0,B|149:274|146:302,1,55,0|0,1:2|0:0,0:0:0:0:
139,351,5399,2,0,B|192:379|259:363,1,110,8|0,0:0|1:2,0:0:0:0:
301,349,5881,1,0,1:0:0:0:
301,349,6041,1,8,0:0:0:0:
380,273,6362,6,0,B|438:265|438:265|504:286,2,110,0|8|0,1:2|0:0|1:0,0:0:0:0:
343,231,7164,1,0,1:0:0:0:
343,231,7325,2,0,L|353:161,1,55,8|0,0:0|0:0,0:0:0:0:
360,122,7645,1,0,1:0:0:0:
266,63,7966,2,0,B|217:99|155:81,1,110,8|0,0:0|1:0,0:0:0:0:
112,72,8448,1,0,1:0:0:0:
112,72,8608,1,8,0:0:0:0:
55,166,8929,6,0,L|-8:158,2,55,2|0|8,1:2|3:2|0:0,0:0:0:0:
102,204,9410,1,2,0:2:0:0:
102,204,9571,2,0,L|171:197,1,55,0|0,1:0|1:0,0:0:0:0:
211,194,9891,1,10,0:2:0:0:
311,238,10212,2,0,B|306:272|307:302,1,55,2|0,1:2|1:0,0:0:0:0:
300,347,10533,2,0,B|242:328|176:356,1,110,8|0,0:2|1:0,0:0:0:0:
145,375,11014,1,0,1:2:0:0:
145,375,11175,2,0,B|113:367|82:369,1,55,8|8,0:2|0:0,0:0:0:0:
35,361,11496,5,4,1:2:0:0:
8,254,11817,1,8,0:0:0:0:
105,204,12137,2,0,B|117:167|117:137,1,55,0|0,1:0|1:0,0:0:0:0:
83,105,12458,2,0,B|71:68|71:38,1,55,8|0,0:0|0:0,0:0:0:0:
113,15,12779,2,0,B|162:4|176:45|223:37,1,110,0|8,1:0|0:0,0:0:0:0:
326,14,13421,2,0,B|335:49|316:81,1,55,0|0,1:0|1:0,0:0:0:0:
328,122,13742,2,0,B|302:147|264:146,1,55,8|0,0:0|3:0,0:0:0:0:
224,142,14063,5,4,1:2:0:0:
175,240,14383,1,8,0:0:0:0:
261,309,14704,2,0,L|250:370,2,55,0|0|8,1:0|1:0|0:0,0:0:0:0:
308,280,15186,2,0,L|432:262,1,110,2|0,0:0|1:0,0:0:0:0:
471,258,15667,1,12,0:0:0:0:
507,154,15988,2,0,B|498:115|497:87,1,55,0|8,1:0|0:0,0:0:0:0:
489,45,16309,2,0,B|450:54|422:55,1,55,8|8,1:2|0:0,0:0:0:0:
380,62,16629,5,4,1:2:0:0:
293,129,16950,1,8,0:2:0:0:
201,67,17271,2,0,L|139:61,1,55,0|0,1:0|1:0,0:0:0:0:
91,54,17592,1,8,0:0:0:0:
33,147,17913,2,0,L|43:217,1,55,0|0,1:0|1:0,0:0:0:0:
53,255,18234,1,8,0:0:0:0:
53,255,18394,2,0,B|101:237|170:237,1,110,0|0,1:0|1:0,0:0:0:0:
216,237,18875,1,12,0:0:0:0:
321,191,19196,5,12,0:0:0:0:
362,292,19517,1,8,0:0:0:0:
257,339,19838,2,0,L|195:331,1,55,8|0,0:0|1:0,0:0:0:0:
156,315,20159,1,8,0:0:0:0:
156,315,20319,2,0,B|90:318|34:345,1,110,4|4,1:2|0:3,0:0:0:0:
3,353,20801,1,8,0:0:0:0:
39,249,21121,2,0,B|48:195|48:195|21:130,1,110,0|0,1:0|1:0,0:0:0:0:
4,99,21603,1,8,0:0:0:0:
4,99,21763,5,4,1:2:0:0:
92,33,22084,1,8,0:2:0:0:
170,110,22405,2,0,B|157:169,1,55,0|0,1:0|1:0,0:0:0:0:
147,217,22726,1,8,0:0:0:0:
214,303,23047,2,0,B|282:292,1,55,0|0,1:0|1:0,0:0:0:0:
322,284,23367,1,8,0:0:0:0:
414,344,23688,2,0,B|434:322|440:287,1,55,0|0,1:0|1:0,0:0:0:0:
479,258,24009,2,0,B|472:226|443:206,1,55,12|0,0:0|0:0,0:0:0:0:
406,178,24330,6,0,B|362:175|362:175|341:187|341:187|284:183,1,110,12|8,0:0|0:0,0:0:0:0:
249,176,24811,1,0,1:0:0:0:
249,176,24972,1,8,0:0:0:0:
150,219,25293,1,8,0:0:0:0:
150,219,25453,2,0,B|147:159|136:94,1,110,4|4,1:2|0:3,0:0:0:0:
134,54,25934,1,8,0:0:0:0:
232,3,26255,2,0,L|296:14,1,55,8|8,0:0|0:0,0:0:0:0:
333,41,26576,2,0,L|387:31,1,55,8|8,0:0|0:0,0:0:0:0:
441,22,26897,5,0,1:0:0:0:
403,125,27218,2,0,B|356:160|293:143,1,110,12|0,0:0|1:0,0:0:0:0:
251,128,27699,1,0,1:0:0:0:
251,128,27859,1,8,0:0:0:0:
151,174,28180,2,0,B|162:238|173:308,1,110,0|8,1:0|0:0,0:0:0:0:
180,336,28661,1,0,0:0:0:0:
180,336,28822,2,0,B|244:325|314:314,1,110,0|8,1:0|0:0,0:0:0:0:
395,346,29464,5,0,1:0:0:0:
483,281,29784,2,0,L|470:227,1,55,8|0,0:0|0:0,0:0:0:0:
457,173,30105,2,0,B|408:158|398:191|335:173,1,110,0|8,1:0|0:0,0:0:0:0:
250,125,30747,2,0,B|181:131|116:149,1,110,0|8,1:0|0:0,0:0:0:0:
90,141,31228,1,0,0:0:0:0:
90,141,31389,2,0,B|57:89|82:24,1,110,0|8,1:0|0:0,0:0:0:0:
186,15,32030,6,0,L|261:26,1,55,0|0,1:0|1:0,0:0:0:0:
293,37,32351,2,0,L|408:20,1,110,8|0,0:0|1:0,0:0:0:0:
456,14,32833,1,0,1:0:0:0:
456,14,32993,1,8,0:0:0:0:
498,115,33314,2,0,B|516:172|487:232,1,110,0|8,1:0|0:0,0:0:0:0:
404,290,33956,2,0,L|346:281,1,55,0|0,1:0|1:0,0:0:0:0:
293,270,34276,1,8,0:0:0:0:
216,190,34597,6,0,L|149:199,1,55,0|0,1:0|1:0,0:0:0:0:
106,200,34918,2,0,B|87:263|113:325,1,110,8|0,0:0|1:0,0:0:0:0:
138,360,35399,1,0,1:0:0:0:
138,360,35560,1,8,0:0:0:0:
232,303,35881,1,8,0:0:0:0:
232,303,36041,2,0,L|355:319,2,110,0|0|0,1:0|1:0|1:0,0:0:0:0:
203,255,36843,2,0,B|190:200|190:200|213:140,1,110,8|4,0:0|1:2,0:0:0:0:
383,30,39250,5,0,1:0:0:0:
383,30,39410,2,0,L|391:97,1,49.4999984893799,8|0,0:0|0:0,0:0:0:0:
396,133,39731,6,0,B|350:171|281:152,1,110,4|8,1:2|0:0,0:0:0:0:
202,90,40373,2,0,L|131:103,1,55,0|0,1:0|1:0,0:0:0:0:
93,111,40694,1,8,0:0:0:0:
20,193,41014,2,0,L|31:255,1,55,0|0,1:0|0:0,0:0:0:0:
43,300,41335,2,0,B|99:285|167:278,1,110,8|0,0:0|1:0,0:0:0:0:
209,275,41817,1,0,1:0:0:0:
209,275,41977,1,8,0:0:0:0:
291,202,42298,6,0,B|336:258|302:328,2,110,0|8|0,1:0|0:0|1:0,0:0:0:0:
255,167,43100,1,0,1:0:0:0:
255,167,43260,2,0,L|267:96,1,55,8|0,0:0|0:0,0:0:0:0:
275,58,43581,1,0,1:0:0:0:
377,18,43902,2,0,B|393:132,1,110,8|0,0:0|1:0,0:0:0:0:
404,185,44383,1,0,1:0:0:0:
404,185,44544,1,8,0:0:0:0:
313,248,44865,6,0,B|267:242|267:242|250:250|250:250|204:245,1,110,0|8,1:0|0:0,0:0:0:0:
129,165,45506,2,0,B|87:180|50:181,1,55,0|0,1:0|1:0,0:0:0:0:
21,189,45827,1,8,0:0:0:0:
3,297,46148,2,0,B|28:296|61:307,1,55,0|0,1:0|1:0,0:0:0:0:
107,335,46469,2,0,B|151:292|229:309,1,110,12|0,0:0|1:0,0:0:0:0:
267,320,46950,1,8,0:0:0:0:
267,320,47111,2,0,L|274:261,1,55,8|8,0:0|0:0,0:0:0:0:
283,211,47432,5,4,1:2:0:0:
208,130,47752,1,8,0:0:0:0:
275,43,48073,2,0,L|330:56,1,55,0|0,1:0|1:0,0:0:0:0:
376,82,48394,2,0,L|438:69,1,55,8|0,0:0|3:0,0:0:0:0:
484,62,48715,2,0,B|517:114|501:184,1,110,4|8,1:2|0:0,0:0:0:0:
424,243,49357,2,0,B|397:235|357:232,1,55,0|0,1:0|1:0,0:0:0:0:
328,196,49678,2,0,B|300:198|273:206,1,55,8|0,0:0|0:0,0:0:0:0:
222,224,49998,5,4,1:2:0:0:
148,142,50319,1,8,0:0:0:0:
53,199,50640,2,0,L|-3:190,2,55,0|0|8,1:0|1:0|0:0,0:0:0:0:
96,233,51121,2,0,L|83:366,1,110,2|8,0:0|0:0,0:0:0:0:
189,379,51763,2,0,B|239:349|310:364,1,110,8|8,0:0|0:0,0:0:0:0:
350,367,52244,2,0,B|341:300,1,55,8|8,0:0|0:0,0:0:0:0:
334,257,52565,5,4,1:2:0:0:
398,168,52886,1,8,0:0:0:0:
494,220,53207,2,0,L|501:160,1,55,0|0,1:0|1:0,0:0:0:0:
507,110,53528,1,8,0:0:0:0:
444,19,53849,2,0,L|380:33,1,55,0|0,1:0|1:0,0:0:0:0:
338,55,54170,1,8,0:0:0:0:
338,55,54330,2,0,B|277:55|214:43,1,110,0|0,1:0|1:0,0:0:0:0:
174,32,54811,1,12,0:0:0:0:
98,112,55132,5,12,0:0:0:0:
165,199,55453,1,8,0:0:0:0:
267,159,55774,2,0,B|296:165|334:167,1,55,8|0,0:0|1:0,0:0:0:0:
379,180,56095,1,8,0:0:0:0:
379,180,56255,2,0,B|361:240|356:293,1,110,4|0,1:2|1:0,0:0:0:0:
349,345,56736,1,8,0:0:0:0:
349,345,56897,1,4,1:2:0:0:
253,302,57218,1,0,1:0:0:0:
253,302,57378,2,0,L|185:312,1,55,8|8,0:0|0:0,0:0:0:0:
143,316,57699,5,4,1:2:0:0:
52,253,58020,2,0,B|36:196|70:125,1,110,12|0,0:0|1:0,0:0:0:0:
81,94,58501,1,0,1:0:0:0:
81,94,58661,1,8,0:0:0:0:
169,29,58982,2,0,B|206:40|238:38,1,55,0|0,1:0|1:0,0:0:0:0:
277,47,59303,1,8,0:0:0:0:
353,126,59624,2,0,B|422:117,1,55,0|0,1:0|1:0,0:0:0:0:
462,120,59945,2,0,B|471:189,1,55,12|0,0:0|0:0,0:0:0:0:
474,229,60266,6,0,B|427:226|427:226|411:235|411:235|356:232,1,110,12|12,0:0|0:0,0:0:0:0:
311,228,60747,1,0,1:0:0:0:
311,228,60907,1,8,0:0:0:0:
219,166,61228,1,8,0:0:0:0:
219,166,61389,2,0,B|209:280,1,110,4|0,1:2|1:0,0:0:0:0:
206,330,61870,1,8,0:0:0:0:
103,369,62191,2,0,B|72:351|62:320,1,55,8|8,0:0|0:0,0:0:0:0:
37,282,62512,2,0,B|37:246|58:221,1,55,8|8,0:0|0:0,0:0:0:0:
82,183,62833,5,0,1:0:0:0:
24,89,63153,2,0,L|149:71,1,110,12|0,0:0|1:0,0:0:0:0:
191,68,63635,1,0,1:0:0:0:
191,68,63795,1,8,0:0:0:0:
283,7,64116,2,0,B|317:60|287:117,1,110,0|8,1:0|0:0,0:0:0:0:
259,158,64597,1,0,0:0:0:0:
259,158,64758,2,0,B|225:211|255:268,1,110,0|8,1:0|0:0,0:0:0:0:
348,315,65399,5,0,1:0:0:0:
451,278,65720,2,0,L|457:217,1,55,8|0,0:0|0:0,0:0:0:0:
462,168,66041,2,0,B|413:156|411:190|339:177,1,110,0|8,1:0|0:0,0:0:0:0:
244,187,66683,2,0,B|228:56,1,110,0|8,1:0|0:0,0:0:0:0:
224,22,67164,1,0,0:0:0:0:
224,22,67325,2,0,L|102:37,1,110,0|8,1:0|0:0,0:0:0:0:
42,118,67966,6,0,L|50:193,1,55,0|0,1:0|1:0,0:0:0:0:
56,227,68287,2,0,B|116:241|171:213,1,110,8|0,0:0|1:0,0:0:0:0:
214,194,68768,1,0,1:0:0:0:
214,194,68929,1,8,0:0:0:0:
301,127,69250,2,0,B|364:148|420:145,1,110,0|8,1:0|0:0,0:0:0:0:
499,208,69891,2,0,L|490:274,1,55,0|0,1:0|1:0,0:0:0:0:
484,317,70212,1,8,0:0:0:0:
379,351,70533,6,0,B|316:338,1,55,0|0,1:0|1:0,0:0:0:0:
270,330,70854,2,0,B|294:276|276:201,1,110,8|0,0:0|1:0,0:0:0:0:
267,173,71335,1,0,1:0:0:0:
267,173,71496,1,8,0:0:0:0:
359,111,71817,1,8,0:0:0:0:
359,111,71977,2,0,L|482:125,2,110,0|0|0,1:0|1:0|1:0,0:0:0:0:
318,73,72779,1,8,0:0:0:0:
221,20,73100,6,0,B|171:29|149:30,1,55,4|0,1:2|1:0,0:0:0:0:
112,40,73421,2,0,B|131:103|132:172,1,110,8|0,0:2|1:0,0:0:0:0:
142,206,73902,1,0,1:0:0:0:
142,206,74063,1,8,0:0:0:0:
232,267,74383,2,0,B|283:237|339:254,1,110,8|8,0:0|0:0,0:0:0:0:
396,269,74865,1,8,0:0:0:0:
396,269,75025,2,0,L|403:206,1,55,8|8,0:0|0:0,0:0:0:0:
409,159,75346,2,0,L|416:96,1,55,8|8,0:0|0:0,0:0:0:0:
421,52,75667,6,0,B|314:87|194:97,1,220,4|4,1:2|1:2,0:0:0:0:
245,382,77152,2,0,B|268:271|319:162,1,220,4|4,1:2|1:2,0:0:0:0:
47,64,78598,2,0,B|130:139|199:238,1,220,4|4,1:2|1:2,0:0:0:0:
256,192,79583,12,4,86202,1:2:0:0:
