osu file format v14

[General]
AudioFilename: audio.mp3
AudioLeadIn: 0
PreviewTime: 37726
Countdown: 0
SampleSet: Soft
StackLeniency: 0.7
Mode: 0
LetterboxInBreaks: 0
WidescreenStoryboard: 0

[Editor]
DistanceSpacing: 1.1
BeatDivisor: 4
GridSize: 32
TimelineZoom: 1

[Metadata]
Title:Hito ni Yasashiku (TV Size)
TitleUnicode:人にやさしく (TV Size)
Artist:THE ROLLING GIRLS
ArtistUnicode:THE ROLLING GIRLS
Creator:Kanui
Version:Insane
Source:ローリング☆ガールズ
Tags:Rolling☆Girls rolling*girls anime opening japanese rock jrock j-rock female vocals be kind to people 小澤亜李 Ari Ozawa 日高里菜 Rina Hidaka 種田梨沙 Risa Taneda 花守ゆみり Yumiri Hanamori 小坂 結季奈 Yukina Kosaka 森友 望未 Nozomi Moritomo 響 逢衣 Ai Hibiki 御園 千綾 Chiaya Misono
BeatmapID:4249821
BeatmapSetID:2037623

[Difficulty]
HPDrainRate:6
CircleSize:4
OverallDifficulty:8
ApproachRate:9
SliderMultiplier:1.6
SliderTickRate:1

[Events]
//Background and Video events
0,0,"bg.jpg",0,0
Video,130,"video.mp4"
//Break Periods
//Storyboard Layer 0 (Background)
//Storyboard Layer 1 (Fail)
//Storyboard Layer 2 (Pass)
//Storyboard Layer 3 (Foreground)
//Storyboard Layer 4 (Overlay)
//Storyboard Sound Samples

[TimingPoints]
-1338,320.855614973262,4,2,1,50,1,0
907,-200,4,2,1,50,0,0
3153,-200,4,2,1,65,0,0
3795,-100,4,2,1,80,0,0
36843,-83.3333333333333,4,2,1,80,0,0
37164,-133.333333333333,4,2,1,65,0,0
39089,-133.333333333333,4,2,1,50,0,0
39250,-133.333333333333,4,2,1,65,0,0
39731,-100,4,2,1,80,0,0
75667,384.615384615385,4,2,1,65,1,0
76436,358.208955223881,4,2,1,65,1,0
77152,372.670807453416,4,2,1,65,1,0
77897,350.877192982456,4,2,1,65,1,0
78598,386.473429951691,4,2,1,65,1,0
79370,427.046263345196,4,2,1,65,1,0

[Colours]
Combo1 : 244,236,198
Combo2 : 155,208,239
Combo3 : 210,158,197
Combo4 : 132,186,177

[HitObjects]
19,322,907,5,2,0:0:0:0:
123,208,1549,5,2,0:0:0:0:
274,173,2191,5,2,0:0:0:0:
425,205,2833,5,2,0:0:0:0:
425,205,3153,6,0,L|431:165,1,40,8|0,0:0|0:0,0:0:0:0:
356,79,3474,2,0,L|362:118,1,40,8|0,0:0|0:0,0:0:0:0:
493,248,3795,6,0,B|418:231|324:230,1,160,4|8,1:2|0:0,0:0:0:0:
256,219,4276,1,0,0:0:0:0:
302,335,4437,1,0,1:2:0:0:
215,371,4597,1,0,1:0:0:0:
164,250,4758,2,0,B|166:210|161:168,1,80,8|0,0:0|0:0,0:0:0:0:
281,15,5079,6,0,B|336:61|311:135,1,120,0|0,1:2|0:0,0:0:0:0:
314,122,5399,2,0,L|233:111,1,80,8|0,0:0|0:0,0:0:0:0:
307,239,5720,2,0,L|402:221,1,80,0|0,1:2|1:0,0:0:0:0:
508,93,6041,2,0,L|497:176,1,80,8|0,0:0|0:0,0:0:0:0:
456,327,6362,6,0,B|376:346|376:346|292:319,2,160,0|8|0,1:2|0:0|1:0,0:0:0:0:
512,260,7164,1,0,1:0:0:0:
340,145,7325,2,0,B|346:187|354:228,1,80,8|0,0:0|0:0,0:0:0:0:
178,175,7645,6,0,B|189:88|190:8,1,160,0|8,1:0|0:0,0:0:0:0:
311,157,8127,1,0,0:0:0:0:
154,254,8287,2,0,B|86:241|43:238,1,80,0|0,1:0|1:0,0:0:0:0:
287,373,8608,2,0,B|344:348|397:394|455:365,1,160,8|2,0:0|1:2,0:0:0:0:
509,308,9089,5,0,3:2:0:0:
464,231,9250,1,8,0:0:0:0:
380,203,9410,1,2,0:2:0:0:
293,222,9571,1,0,1:0:0:0:
229,282,9731,1,0,1:0:0:0:
143,299,9891,1,10,0:2:0:0:
59,270,10052,1,0,3:0:0:0:
12,195,10212,6,0,B|26:138|27:84,1,80,2|0,1:2|1:0,0:0:0:0:
185,217,10533,2,0,B|188:289|212:401,1,160,8|0,0:2|1:0,0:0:0:0:
325,193,11014,1,0,1:2:0:0:
419,342,11175,1,8,0:2:0:0:
499,152,11335,1,8,0:0:0:0:
499,152,11416,1,8,0:0:0:0:
499,152,11496,6,0,B|444:145|444:145|398:156|398:156|314:142,1,160,4|8,1:2|0:0,0:0:0:0:
341,146,11977,1,0,0:0:0:0:
182,49,12137,1,0,1:0:0:0:
216,153,12298,1,0,1:0:0:0:
279,0,12458,2,0,B|287:42|283:83,1,80,8|0,0:0|0:0,0:0:0:0:
97,229,12779,6,0,B|57:154|95:67,1,160,0|8,1:0|0:0,0:0:0:0:
91,74,13260,1,0,0:0:0:0:
221,228,13421,1,0,1:0:0:0:
295,151,13581,1,0,1:0:0:0:
344,322,13742,1,8,0:0:0:0:
208,278,13902,1,0,3:0:0:0:
408,218,14063,6,0,B|455:289|426:376,1,160,4|8,1:2|0:0,0:0:0:0:
67,262,14704,1,0,1:0:0:0:
26,358,14865,1,0,1:0:0:0:
132,311,15025,1,8,0:0:0:0:
0,217,15186,6,0,L|12:117,1,80,2|0,0:0|1:0,0:0:0:0:
23,57,15506,1,0,1:0:0:0:
227,25,15667,2,0,B|190:63|180:122|208:175,1,160,12|0,0:0|1:0,0:0:0:0:
260,280,16148,1,8,0:0:0:0:
301,267,16228,1,8,0:0:0:0:
344,276,16309,1,8,1:2:0:0:
383,256,16389,1,8,0:0:0:0:
425,266,16469,1,8,0:0:0:0:
464,246,16549,1,8,0:0:0:0:
507,253,16629,6,0,L|515:197,3,40,4|0|2|0,1:2|0:0|0:0|0:0,0:0:0:0:
444,172,16950,2,0,L|437:120,3,40,8|0|2|0,0:2|0:0|0:0|0:0,0:0:0:0:
508,66,17271,2,0,L|426:54,1,80,0|0,1:0|1:0,0:0:0:0:
298,1,17592,2,0,B|285:39|285:39|300:87,1,80,8|0,0:0|0:0,0:0:0:0:
283,241,17913,5,0,1:0:0:0:
356,192,18073,1,0,1:0:0:0:
223,147,18234,1,8,0:0:0:0:
207,285,18394,2,0,B|129:321|41:279,1,160,0|0,1:0|1:0,0:0:0:0:
346,354,18875,2,0,B|374:318|363:264,1,80,12|0,0:0|1:0,0:0:0:0:
307,67,19196,5,12,0:0:0:0:
307,67,19517,2,0,L|400:54,1,80,8|0,0:0|1:0,0:0:0:0:
229,14,19838,1,8,0:0:0:0:
166,195,19998,1,0,1:0:0:0:
0,123,20159,1,8,0:0:0:0:
277,153,20319,6,0,L|461:129,1,160,4|4,1:2|0:3,0:0:0:0:
246,231,20801,1,8,0:0:0:0:
75,158,20961,2,0,L|82:204,2,40,8|8|0,0:0|0:0|1:0,0:0:0:0:
14,294,21282,1,8,0:0:0:0:
14,294,21362,1,8,0:0:0:0:
14,294,21442,1,0,1:0:0:0:
170,198,21603,2,0,L|158:255,1,40,8|8,0:0|0:0,0:0:0:0:
242,375,21763,6,0,L|290:363,3,40,4|0|2|0,1:2|0:0|0:0|0:0,0:0:0:0:
366,307,22084,2,0,L|327:297,3,40,8|0|2|0,0:2|0:0|0:0|0:0,0:0:0:0:
261,243,22405,2,0,B|236:205|255:151,1,80,0|0,1:0|1:0,0:0:0:0:
332,108,22726,2,0,B|357:146|338:200,1,80,8|0,0:0|0:0,0:0:0:0:
238,326,23047,5,0,1:0:0:0:
341,278,23207,1,0,1:0:0:0:
172,192,23367,2,0,B|69:176,1,80,8|0,0:0|0:0,0:0:0:0:
206,98,23688,1,0,1:0:0:0:
261,243,23849,1,0,1:0:0:0:
413,104,24009,2,0,L|504:119,1,80,12|0,0:0|0:0,0:0:0:0:
268,26,24330,6,0,B|222:-7|156:-3|103:63,1,160,12|8,0:0|0:0,0:0:0:0:
356,204,24811,1,0,1:0:0:0:
227,138,24972,1,8,0:0:0:0:
351,64,25132,1,0,1:0:0:0:
230,288,25293,1,8,0:0:0:0:
58,229,25453,6,0,B|144:234|219:258,1,160,4|4,1:2|0:3,0:0:0:0:
334,349,25934,1,8,0:0:0:0:
450,299,26095,1,8,0:0:0:0:
450,299,26175,1,8,0:0:0:0:
450,299,26255,1,8,0:0:0:0:
298,228,26416,1,8,0:0:0:0:
479,126,26576,1,8,0:0:0:0:
256,29,26736,1,8,0:0:0:0:
256,29,26897,6,0,B|245:71|241:119,1,80,0|0,1:0|1:0,0:0:0:0:
38,191,27218,2,0,B|77:168|124:179|151:213,1,120,12|0,0:0|0:0,0:0:0:0:
147,208,27539,1,0,1:0:0:0:
215,131,27699,1,0,1:0:0:0:
80,270,27859,2,0,B|83:306|94:348,1,80,8|0,0:0|0:0,0:0:0:0:
259,223,28180,6,0,B|345:215,1,80,0|0,1:0|1:0,0:0:0:0:
188,304,28501,1,8,0:0:0:0:
188,304,28661,1,0,0:0:0:0:
116,101,28822,2,0,B|108:180,1,80,0|0,1:0|1:0,0:0:0:0:
310,296,29143,2,0,B|294:220|302:127,1,160,8|0,0:0|1:0,0:0:0:0:
485,152,29624,5,0,1:0:0:0:
415,25,29784,2,0,B|392:57|396:101,1,80,8|0,0:0|0:0,0:0:0:0:
437,246,30105,2,0,B|420:209|381:190,1,80,0|0,1:0|1:0,0:0:0:0:
225,157,30426,2,0,B|264:161|300:136,1,80,8|0,0:0|0:0,0:0:0:0:
349,284,30747,6,0,L|209:262,1,120,0|0,1:0|0:0,0:0:0:0:
230,265,31068,1,8,0:0:0:0:
89,201,31228,1,0,0:0:0:0:
123,366,31389,2,0,L|129:282,1,80,0|0,1:0|1:0,0:0:0:0:
150,127,31710,2,0,B|205:198,1,80,8|0,0:0|0:0,0:0:0:0:
11,284,32030,6,0,L|-8:190,1,80,0|0,1:0|1:0,0:0:0:0:
126,45,32351,2,0,L|224:32,1,80,8|0,0:0|0:0,0:0:0:0:
188,211,32672,1,0,1:0:0:0:
251,129,32833,1,0,1:0:0:0:
381,234,32993,2,0,B|370:173|370:173|383:137|383:137|371:66,1,160,8|0,0:0|1:0,0:0:0:0:
246,30,33474,5,0,1:0:0:0:
188,211,33635,2,0,B|144:223|98:190,1,80,8|0,0:0|0:0,0:0:0:0:
251,129,33956,2,0,B|295:117|341:150,1,80,0|0,1:0|1:0,0:0:0:0:
482,260,34276,2,0,B|487:221|485:168,1,80,8|0,0:0|0:0,0:0:0:0:
313,367,34597,5,0,1:0:0:0:
374,279,34758,1,0,1:0:0:0:
228,199,34918,2,0,B|217:259|217:328,1,120,8|0,0:0|0:0,0:0:0:0:
217,318,35239,1,0,1:0:0:0:
126,231,35399,1,0,1:0:0:0:
314,115,35560,2,0,B|326:160|328:222,1,80,8|0,0:0|0:0,0:0:0:0:
175,15,35881,5,8,0:0:0:0:
175,15,36041,1,0,1:0:0:0:
88,37,36362,1,0,1:0:0:0:
1,59,36683,1,0,1:0:0:0:
118,121,36843,6,0,B|151:127|151:127|165:120|165:120|240:155|293:90,1,191.999994140625,8|4,0:0|1:2,0:0:0:0:
256,192,37244,12,0,39089,0:0:0:0:
297,135,39250,6,0,L|287:210,1,60.0000022888184,0|8,1:0|0:0,0:0:0:0:
297,209,39731,6,0,B|209:193|228:240|137:223,1,160,4|8,1:2|0:0,0:0:0:0:
75,192,40212,1,0,0:0:0:0:
32,331,40373,1,0,1:0:0:0:
174,307,40533,1,0,1:0:0:0:
0,230,40694,2,0,B|-17:185|6:133,1,80,8|0,0:0|0:0,0:0:0:0:
132,16,41014,6,0,B|143:138,1,120,0|0,1:0|0:0,0:0:0:0:
142,135,41335,2,0,B|190:141|239:156,1,80,8|0,0:0|0:0,0:0:0:0:
343,36,41656,2,0,B|313:74|275:109,1,80,0|0,1:0|1:0,0:0:0:0:
328,259,41977,2,0,B|309:213|297:164,1,80,8|0,0:0|0:0,0:0:0:0:
456,78,42298,6,0,B|513:103|521:182|462:216,1,160,0|8,1:0|0:0,0:0:0:0:
314,278,42779,1,0,0:0:0:0:
361,355,42940,2,0,B|408:368|461:369,1,80,0|0,1:0|1:0,0:0:0:0:
224,285,43260,2,0,B|192:285|145:298,1,80,8|0,0:0|0:0,0:0:0:0:
25,365,43581,6,0,B|46:306|3:258|26:197,1,160,0|8,1:0|0:0,0:0:0:0:
156,129,44063,1,0,3:0:0:0:
156,129,44143,1,0,3:0:0:0:
156,129,44223,2,0,B|158:170|157:208,1,80,0|0,1:0|1:0,0:0:0:0:
331,105,44544,2,0,B|327:62|331:19,1,80,8|0,0:0|0:0,0:0:0:0:
393,171,44865,5,0,1:0:0:0:
246,116,45025,1,0,1:0:0:0:
371,253,45186,2,0,B|411:263|411:263|456:239,1,80,8|0,0:0|0:0,0:0:0:0:
491,75,45506,2,0,B|451:65|451:65|406:89,1,80,0|0,1:0|1:0,0:0:0:0:
291,289,45827,2,0,L|279:199,1,80,8|0,0:0|0:0,0:0:0:0:
134,24,46148,5,0,1:0:0:0:
216,159,46309,1,0,1:0:0:0:
0,107,46469,2,0,B|62:98|62:98|102:108|102:108|185:94,1,160,12|0,0:0|1:0,0:0:0:0:
341,62,46950,2,0,L|349:117,1,40,8|0,0:0|0:0,0:0:0:0:
309,253,47111,2,0,L|245:238,1,40,8|0,0:0|0:0,0:0:0:0:
84,200,47271,1,8,0:0:0:0:
84,200,47351,1,8,0:0:0:0:
84,200,47432,6,0,B|42:231|33:311|86:358,2,160,4|8|0,1:2|0:0|1:0,0:0:0:0:
253,354,48234,1,0,1:0:0:0:
154,276,48394,1,8,0:0:0:0:
206,160,48555,1,0,3:0:0:0:
333,167,48715,6,0,B|493:142,1,160,4|8,1:2|0:0,0:0:0:0:
491,142,49196,1,0,0:0:0:0:
310,81,49357,1,0,1:0:0:0:
357,266,49517,1,0,1:0:0:0:
254,219,49678,2,0,B|243:172|250:118,1,80,8|0,0:0|0:0,0:0:0:0:
461,233,49998,6,0,B|492:259|499:309|472:346,1,120,4|0,1:2|0:0,0:0:0:0:
474,342,50319,2,0,B|434:346|383:357,1,80,8|0,0:0|0:0,0:0:0:0:
156,308,50640,1,0,1:0:0:0:
234,383,50801,1,0,1:0:0:0:
265,280,50961,2,0,B|269:240|280:189,1,80,8|0,0:0|0:0,0:0:0:0:
298,20,51282,5,0,1:0:0:0:
369,108,51442,2,0,L|362:68,2,40,8|8|0,0:0|0:0|1:0,0:0:0:0:
226,65,51763,1,8,0:0:0:0:
226,65,51843,1,8,0:0:0:0:
226,65,51924,1,0,1:0:0:0:
438,163,52084,2,0,L|452:111,1,40,8|8,0:0|0:0,0:0:0:0:
480,27,52244,1,8,0:0:0:0:
512,231,52405,1,8,0:0:0:0:
308,175,52565,6,0,L|263:186,3,40,4|0|2|0,1:2|0:0|0:0|0:0,0:0:0:0:
210,232,52886,2,0,L|171:222,3,40,8|0|2|0,0:0|0:0|0:0|0:0,0:0:0:0:
282,286,53207,2,0,B|296:334|263:386,1,80,0|0,1:0|1:0,0:0:0:0:
85,250,53528,2,0,B|74:198|110:149,1,80,8|0,0:0|0:0,0:0:0:0:
303,273,53849,5,0,1:0:0:0:
201,152,54009,1,0,1:0:0:0:
155,303,54170,1,8,0:0:0:0:
327,258,54330,2,0,B|509:277,1,160,0|0,1:0|1:0,0:0:0:0:
241,371,54811,2,0,B|134:389,1,80,12|0,0:0|1:0,0:0:0:0:
0,224,55132,5,12,0:0:0:0:
0,224,55453,2,0,L|17:320,1,80,8|0,0:0|1:0,0:0:0:0:
192,206,55774,1,8,0:0:0:0:
114,317,55934,1,0,1:0:0:0:
39,137,56095,1,8,0:0:0:0:
97,347,56255,6,0,L|118:153,1,160,4|0,1:2|1:0,0:0:0:0:
311,250,56736,1,8,0:0:0:0:
262,85,56897,2,0,B|222:58|168:67|143:109,1,120,4|0,1:2|0:0,0:0:0:0:
153,96,57218,1,0,1:0:0:0:
264,169,57378,1,8,0:0:0:0:
303,173,57458,1,8,0:0:0:0:
343,178,57538,1,8,0:0:0:0:
383,183,57618,1,8,0:0:0:0:
422,188,57699,6,0,L|413:246,3,40,4|0|2|0,1:2|0:0|1:2|0:0,0:0:0:0:
499,157,58020,2,0,B|524:91|478:33,1,120,12|0,0:0|0:0,0:0:0:0:
485,42,58341,2,0,B|444:51|395:52,1,80,0|0,1:0|1:0,0:0:0:0:
494,234,58661,2,0,B|503:275|504:324,1,80,8|0,0:0|0:0,0:0:0:0:
349,198,58982,5,0,1:0:0:0:
419,276,59143,1,0,1:0:0:0:
264,381,59303,2,0,B|255:340|254:291,1,80,8|4,0:0|0:3,0:0:0:0:
254,301,59544,1,4,0:3:0:0:
254,301,59624,2,0,L|349:290,1,80,0|0,1:0|1:0,0:0:0:0:
155,191,59945,2,0,B|74:200,1,80,12|0,0:0|0:0,0:0:0:0:
221,12,60266,6,0,B|244:51|298:57|336:39,1,120,12|0,0:0|0:0,0:0:0:0:
327,42,60587,2,0,B|321:83|318:123,1,80,12|0,0:0|1:0,0:0:0:0:
139,70,60907,1,8,0:0:0:0:
139,70,60988,1,8,0:0:0:0:
139,70,61068,1,0,1:0:0:0:
259,203,61228,1,8,0:0:0:0:
43,292,61389,5,4,1:2:0:0:
43,292,61710,1,0,1:0:0:0:
80,384,61870,1,8,0:0:0:0:
158,225,62030,1,8,0:0:0:0:
158,225,62111,1,8,0:0:0:0:
158,225,62191,1,8,0:0:0:0:
216,358,62351,1,8,0:0:0:0:
299,127,62512,1,8,0:0:0:0:
382,329,62672,1,8,0:0:0:0:
382,329,62833,6,0,L|392:246,1,80,0|0,1:0|1:0,0:0:0:0:
231,69,63153,2,0,B|194:131|235:190,1,120,12|0,0:0|0:0,0:0:0:0:
230,182,63474,1,0,1:0:0:0:
343,56,63635,1,0,1:0:0:0:
501,183,63795,2,0,B|461:181|422:170,1,80,8|0,0:0|0:0,0:0:0:0:
215,276,64116,6,0,B|254:265|294:263,1,80,0|0,1:0|1:0,0:0:0:0:
72,142,64437,1,8,0:0:0:0:
72,142,64597,1,0,0:0:0:0:
54,308,64758,2,0,P|49:269|41:226,1,80,0|0,1:0|1:0,0:0:0:0:
105,48,65079,2,0,B|184:100|149:209,1,160,8|0,0:0|1:0,0:0:0:0:
290,143,65560,5,0,1:0:0:0:
251,0,65720,2,0,B|228:32|232:76,1,80,8|0,0:0|0:0,0:0:0:0:
453,107,66041,2,0,B|436:70|397:51,1,80,0|0,1:0|1:0,0:0:0:0:
273,228,66362,2,0,B|312:232|348:207,1,80,8|0,0:0|0:0,0:0:0:0:
215,331,66683,6,0,B|157:335|82:320,1,120,0|0,1:0|0:0,0:0:0:0:
95,322,67004,1,8,0:0:0:0:
178,207,67164,1,0,0:0:0:0:
319,384,67325,2,0,B|331:337|321:277,1,80,0|0,1:0|1:0,0:0:0:0:
267,148,67645,2,0,B|264:180|273:228,1,80,8|0,0:0|0:0,0:0:0:0:
418,214,67966,6,0,B|466:205|521:209,1,80,0|0,1:0|1:0,0:0:0:0:
349,32,68287,2,0,B|301:41|246:38,1,80,8|0,0:0|0:0,0:0:0:0:
383,124,68608,1,0,1:0:0:0:
383,124,68769,1,0,1:0:0:0:
189,186,68929,2,0,B|110:163|110:209|25:185,1,160,8|0,0:0|1:0,0:0:0:0:
152,269,69410,5,0,1:0:0:0:
69,104,69571,2,0,B|77:14,1,80,8|0,0:0|0:0,0:0:0:0:
260,150,69891,1,0,1:0:0:0:
260,150,70052,1,0,1:0:0:0:
417,25,70212,2,0,B|425:115,1,80,8|0,0:0|0:0,0:0:0:0:
508,218,70533,5,0,1:0:0:0:
422,237,70694,1,0,1:0:0:0:
352,184,70854,2,0,B|315:163|262:175,1,80,8|0,0:0|0:0,0:0:0:0:
29,334,71175,1,0,1:0:0:0:
140,351,71336,1,0,1:0:0:0:
220,273,71496,2,0,B|257:252|310:264,1,80,8|0,0:0|0:0,0:0:0:0:
180,75,71817,5,8,0:0:0:0:
180,75,71977,1,0,1:0:0:0:
164,153,72298,1,0,1:0:0:0:
148,231,72619,1,0,1:0:0:0:
247,164,72779,6,0,B|308:178|308:178|384:157,1,120,8|0,0:0|0:2,0:0:0:0:
400,154,73100,6,0,B|403:206|411:260,1,80,4|0,1:2|1:0,0:0:0:0:
298,372,73421,2,0,B|295:320|287:266,1,80,8|8,0:2|0:0,0:0:0:0:
290,292,73661,1,8,0:0:0:0:
290,292,73742,1,0,1:0:0:0:
165,153,73902,1,0,1:0:0:0:
79,254,74063,2,0,L|164:240,1,80,8|0,0:0|0:0,0:0:0:0:
291,31,74383,5,8,0:0:0:0:
411,182,74544,1,8,0:0:0:0:
374,66,74704,1,8,0:0:0:0:
281,212,74865,1,8,0:0:0:0:
332,140,75025,5,8,0:0:0:0:
194,53,75186,1,8,0:0:0:0:
157,240,75346,1,8,0:0:0:0:
374,66,75506,1,8,0:0:0:0:
411,324,75667,5,4,1:2:0:0:
68,134,76436,5,4,1:2:0:0:
411,12,77152,5,4,1:2:0:0:
130,229,77897,5,4,1:2:0:0:
502,353,78598,5,4,1:2:0:0:
256,192,79370,5,4,1:2:0:0:
256,192,79476,12,4,86202,1:2:0:0:
