osu file format v14

[General]
AudioFilename: audio.mp3
AudioLeadIn: 0
PreviewTime: 37726
Countdown: 0
SampleSet: Soft
StackLeniency: 0.7
Mode: 0
LetterboxInBreaks: 0
WidescreenStoryboard: 1

[Editor]
DistanceSpacing: 1.4
BeatDivisor: 4
GridSize: 32
TimelineZoom: 1

[Metadata]
Title:Hito ni Yasashiku (TV Size)
TitleUnicode:人にやさしく (TV Size)
Artist:THE ROLLING GIRLS
ArtistUnicode:THE ROLLING GIRLS
Creator:Kanui
Version:Hard
Source:ローリング☆ガールズ
Tags:Rolling☆Girls rolling*girls anime opening japanese rock jrock j-rock female vocals be kind to people 小澤亜李 Ari Ozawa 日高里菜 Rina Hidaka 種田梨沙 Risa Taneda 花守ゆみり Yumiri Hanamori 小坂 結季奈 Yukina Kosaka 森友 望未 Nozomi Moritomo 響 逢衣 Ai Hibiki 御園 千綾 Chiaya Misono
BeatmapID:4249820
BeatmapSetID:2037623

[Difficulty]
HPDrainRate:5
CircleSize:3.6
OverallDifficulty:7
ApproachRate:8
SliderMultiplier:1.4
SliderTickRate:1

[Events]
//Background and Video events
0,0,"bg.jpg",0,0
Video,130,"video.mp4"
//Break Periods
//Storyboard Layer 0 (Background)
//Storyboard Layer 1 (Fail)
//Storyboard Layer 2 (Pass)
//Storyboard Layer 3 (Foreground)
//Storyboard Layer 4 (Overlay)
//Storyboard Sound Samples

[TimingPoints]
-1338,320.855614973262,4,2,1,50,1,0
907,-166.666666666667,4,2,1,50,0,0
3153,-125,4,2,1,65,0,0
3795,-100,4,2,1,80,0,0
37164,-125,4,2,1,65,0,0
39089,-125,4,2,1,50,0,0
39250,-125,4,2,1,65,0,0
39731,-100,4,2,1,80,0,0
75667,384.615384615385,4,2,1,65,1,0
76436,358.208955223881,4,2,1,65,1,0
77152,372.670807453416,4,2,1,65,1,0
77897,350.877192982456,4,2,1,65,1,0
78598,386.473429951691,4,2,1,65,1,0
79370,427.046263345196,4,2,1,65,1,0

[Colours]
Combo1 : 244,236,198
Combo2 : 155,208,239
Combo3 : 210,158,197
Combo4 : 132,186,177

[HitObjects]
9,119,907,5,2,0:0:0:0:
166,158,1549,5,2,0:0:0:0:
323,198,2191,5,2,0:0:0:0:
480,237,2833,5,2,0:0:0:0:
480,237,3153,6,0,L|489:297,1,56,8|0,0:0|0:0,0:0:0:0:
407,346,3474,2,0,L|398:286,1,56,8|0,0:0|0:0,0:0:0:0:
323,198,3795,6,0,B|281:169|215:178|184:228,2,140,4|8|0,1:2|0:0|1:2,0:0:0:0:
372,112,4597,1,0,1:0:0:0:
306,38,4758,2,0,B|231:50,1,70,8|0,0:0|0:0,0:0:0:0:
144,15,5079,6,0,B|126:55|152:107,1,70,0|0,1:2|0:0,0:0:0:0:
178,174,5399,2,0,B|127:167|127:167|92:177|92:177|24:167,1,140,8|0,0:0|1:2,0:0:0:0:
0,259,5881,1,0,1:0:0:0:
55,339,6041,2,0,B|137:324,1,70,8|0,0:0|0:0,0:0:0:0:
219,361,6362,6,0,B|257:325|314:325|356:355,2,140,0|8|0,1:2|0:0|1:0,0:0:0:0:
150,285,7164,1,0,1:0:0:0:
222,216,7325,2,0,B|229:176|226:137,1,70,8|0,0:0|0:0,0:0:0:0:
159,74,7645,6,0,B|103:60|85:106|14:93,2,140,0|8|0,1:0|0:0|1:0,0:0:0:0:
240,17,8448,1,0,1:0:0:0:
323,68,8608,2,0,B|324:111|334:155,1,70,8|0,0:0|0:0,0:0:0:0:
406,201,8929,6,0,B|444:207|444:207|477:185,2,70,2|0|8,1:2|3:2|0:0,0:0:0:0:
321,250,9410,2,0,L|247:234,1,70,2|0,0:2|1:0,0:0:0:0:
180,168,9731,1,0,1:0:0:0:
95,216,9891,2,0,L|109:289,1,70,10|0,0:2|3:0,0:0:0:0:
172,358,10212,6,0,B|204:332|263:343,1,70,2|0,1:2|1:0,0:0:0:0:
333,363,10533,2,0,B|376:336|372:266|334:240,1,140,8|0,0:2|1:0,0:0:0:0:
254,186,11014,1,0,1:2:0:0:
298,98,11175,2,0,B|288:58|286:13,1,70,8|8,0:2|0:0,0:0:0:0:
246,19,11416,1,8,0:0:0:0:
246,19,11496,6,0,B|179:38|98:31,2,140,4|8|0,1:2|0:0|1:0,0:0:0:0:
343,6,12298,1,0,1:0:0:0:
411,76,12458,2,0,B|454:76|491:83,1,70,8|0,0:0|0:0,0:0:0:0:
505,176,12779,6,0,B|470:219|403:217|363:177,1,140,0|8,1:0|0:0,0:0:0:0:
295,135,13260,1,0,0:0:0:0:
225,205,13421,2,0,B|228:251|239:300,1,70,0|0,1:0|1:0,0:0:0:0:
129,185,13742,2,0,B|134:161|137:115,1,70,8|0,0:0|3:0,0:0:0:0:
28,69,14063,6,0,B|-23:131|12:218,1,140,4|8,1:2|0:0,0:0:0:0:
145,339,14704,2,0,L|153:261,2,70,0|0|8,1:0|1:0|0:0,0:0:0:0:
234,383,15186,6,0,B|270:368|312:366,1,70,2|0,0:0|1:0,0:0:0:0:
399,376,15506,1,0,1:0:0:0:
482,290,15667,2,0,B|470:238|470:238|477:207|477:207|465:146,1,140,12|0,0:0|1:0,0:0:0:0:
385,77,16148,1,8,0:0:0:0:
385,77,16228,1,8,0:0:0:0:
385,77,16309,2,0,L|378:136,3,35,8|8|8|8,1:2|0:0|0:0|0:0,0:0:0:0:
346,146,16629,6,0,B|290:135|278:182|208:171,1,140,4|8,1:2|0:2,0:0:0:0:
41,71,17271,1,0,1:0:0:0:
103,0,17432,1,0,1:0:0:0:
199,12,17592,2,0,B|187:55|183:96,1,70,8|0,0:0|0:0,0:0:0:0:
119,153,17913,6,0,B|118:202|127:245,1,70,0|0,1:0|1:0,0:0:0:0:
197,287,18234,1,8,0:0:0:0:
263,215,18394,2,0,B|319:167|415:190,1,140,0|0,1:0|1:0,0:0:0:0:
478,237,18875,2,0,L|466:314,1,70,12|0,0:0|1:0,0:0:0:0:
371,378,19196,5,12,0:0:0:0:
197,287,19517,2,0,B|157:299|103:300,1,70,8|0,0:0|1:0,0:0:0:0:
44,247,19838,2,0,B|32:207|31:153,1,70,8|0,0:0|1:0,0:0:0:0:
61,84,20158,1,8,0:0:0:0:
165,25,20319,6,0,B|213:45|223:104|186:146,1,140,4|4,1:2|0:3,0:0:0:0:
254,217,20801,1,8,0:0:0:0:
325,150,20961,2,0,L|320:114,2,35,8|8|0,0:0|0:0|1:0,0:0:0:0:
424,193,21282,1,8,0:0:0:0:
424,193,21362,1,8,0:0:0:0:
424,193,21442,2,0,L|418:234,3,35,8|8|8|8,1:2|0:0|0:0|0:0,0:0:0:0:
410,276,21763,5,4,1:2:0:0:
493,98,22084,2,0,L|333:122,1,140,8|0,0:2|1:0,0:0:0:0:
273,62,22565,1,0,1:0:0:0:
201,129,22726,2,0,B|186:173|212:219,1,70,8|0,0:0|0:0,0:0:0:0:
265,279,23047,5,0,1:0:0:0:
265,279,23207,1,0,1:0:0:0:
199,351,23367,2,0,L|120:343,1,70,8|0,0:0|0:0,0:0:0:0:
36,331,23688,1,0,1:0:0:0:
36,331,23848,1,0,1:0:0:0:
97,254,24008,2,0,L|89:175,1,70,12|0,0:0|0:0,0:0:0:0:
78,65,24330,5,12,0:0:0:0:
266,11,24651,2,0,B|253:57|250:96,1,70,8|0,0:0|1:0,0:0:0:0:
233,176,24972,2,0,B|279:189|301:190,1,70,8|0,0:0|1:0,0:0:0:0:
386,141,25293,1,8,0:0:0:0:
487,203,25453,6,0,B|537:268|484:350,1,140,4|4,1:2|0:3,0:0:0:0:
399,364,25934,2,0,B|360:352|307:351,1,70,8|8,0:0|0:0,0:0:0:0:
285,348,26175,1,8,0:0:0:0:
285,348,26255,1,8,0:0:0:0:
192,379,26416,1,8,0:0:0:0:
129,287,26576,1,8,0:0:0:0:
12,325,26736,1,8,0:0:0:0:
12,325,26897,6,0,L|2:255,1,70,0|0,1:0|1:0,0:0:0:0:
79,164,27218,2,0,B|157:149|140:197|230:178,1,140,12|0,0:0|1:0,0:0:0:0:
300,230,27699,1,0,1:0:0:0:
380,174,27859,2,0,B|435:178|474:187,1,70,8|0,0:0|0:0,0:0:0:0:
498,96,28180,6,0,B|444:37|355:77,1,140,0|8,1:0|0:0,0:0:0:0:
279,109,28661,1,0,0:0:0:0:
197,54,28822,2,0,B|126:67,1,70,0|0,1:0|1:0,0:0:0:0:
31,84,29143,1,8,0:0:0:0:
117,260,29464,6,0,B|157:265|157:265|195:245,1,70,0|0,1:0|1:0,0:0:0:0:
269,205,29784,2,0,B|264:271|254:327,1,105,8|0,0:0|0:0,0:0:0:0:
252,359,30105,2,0,B|290:360|333:374,1,70,0|0,1:0|1:0,0:0:0:0:
368,284,30426,2,0,B|409:282|454:271,1,70,8|0,0:0|0:0,0:0:0:0:
493,193,30747,6,0,B|500:125|500:125|461:55,1,140,0|8,1:0|0:0,0:0:0:0:
380,14,31228,1,0,0:0:0:0:
304,76,31389,2,0,B|220:64,1,70,0|0,1:0|1:0,0:0:0:0:
137,49,31710,1,8,0:0:0:0:
260,201,32030,6,0,B|282:238|271:293,1,70,0|0,1:0|1:0,0:0:0:0:
213,345,32351,2,0,B|171:340|171:340|146:350|146:350|94:342,1,105,8|0,0:0|0:0,0:0:0:0:
61,337,32672,2,0,L|50:262,1,70,0|0,1:0|1:0,0:0:0:0:
120,198,32993,2,0,L|128:120,1,70,8|0,0:0|0:0,0:0:0:0:
185,48,33314,5,0,1:0:0:0:
185,48,33474,1,0,1:0:0:0:
258,113,33635,2,0,B|336:132|408:114,1,140,8|0,0:0|1:0,0:0:0:0:
474,177,34116,1,0,1:0:0:0:
434,266,34276,1,8,0:0:0:0:
251,207,34597,5,0,1:0:0:0:
251,207,34758,1,0,1:0:0:0:
324,271,34918,2,0,B|327:309|312:345,1,70,8|0,0:0|0:0,0:0:0:0:
227,382,35239,1,0,1:0:0:0:
227,382,35400,1,0,1:0:0:0:
154,318,35560,2,0,B|151:280|166:244,1,70,8|0,0:0|0:0,0:0:0:0:
174,154,35881,5,8,0:0:0:0:
174,154,36041,2,0,B|121:140|88:186|37:173,2,140,0|0|0,1:0|1:0|1:0,0:0:0:0:
263,194,36843,6,0,L|247:42,1,140,8|4,0:0|1:2,0:0:0:0:
49,320,39250,5,0,1:0:0:0:
49,320,39410,2,0,L|41:388,1,56,8|0,0:0|0:0,0:0:0:0:
152,262,39731,6,0,B|203:255|203:255|240:265|240:265|309:256,2,140,4|8|0,1:2|0:0|1:0,0:0:0:0:
86,189,40533,1,0,1:0:0:0:
159,124,40694,2,0,L|171:45,1,70,8|0,0:0|0:0,0:0:0:0:
254,6,41014,6,0,B|276:38|276:38|268:78,1,70,0|0,1:0|0:0,0:0:0:0:
245,165,41335,2,0,B|322:148|306:194|383:176,1,140,8|0,0:0|1:0,0:0:0:0:
462,118,41817,1,0,1:0:0:0:
510,203,41977,2,0,B|493:283,1,70,8|0,0:0|0:0,0:0:0:0:
441,353,42298,6,0,B|369:386|291:327,1,140,0|8,1:0|0:0,0:0:0:0:
240,267,42779,1,0,0:0:0:0:
169,334,42940,2,0,B|139:354|71:348,1,70,0|0,1:0|1:0,0:0:0:0:
19,296,43260,2,0,L|32:210,1,70,8|0,0:0|0:0,0:0:0:0:
40,129,43581,6,0,B|110:151|204:149,1,140,0|8,1:0|0:0,0:0:0:0:
272,107,44063,1,0,0:0:0:0:
272,107,44223,2,0,B|286:188,1,70,0|0,1:0|1:0,0:0:0:0:
376,209,44544,2,0,B|390:128,1,70,8|0,0:0|0:0,0:0:0:0:
412,47,44865,5,0,1:0:0:0:
412,47,45025,1,0,1:0:0:0:
321,7,45186,2,0,B|286:22|232:21,1,70,8|0,0:0|0:0,0:0:0:0:
180,86,45506,2,0,B|144:88|111:73,1,70,0|0,1:0|1:0,0:0:0:0:
20,37,45827,2,0,L|30:120,1,70,8|0,0:0|0:0,0:0:0:0:
45,207,46148,5,0,1:0:0:0:
45,207,46309,1,0,1:0:0:0:
8,320,46469,2,0,B|72:269|149:302,1,140,12|0,0:0|1:0,0:0:0:0:
221,353,46950,1,8,0:0:0:0:
288,281,47111,1,8,0:0:0:0:
406,332,47271,1,8,0:0:0:0:
406,332,47351,1,8,0:0:0:0:
406,332,47432,6,0,B|431:260|429:169,2,140,4|8|0,1:2|0:0|1:0,0:0:0:0:
317,374,48234,1,0,1:0:0:0:
288,281,48394,2,0,B|299:243|300:203,1,70,8|0,0:0|3:0,0:0:0:0:
337,99,48715,6,0,B|289:74|243:124|193:92,1,140,4|8,1:2|0:0,0:0:0:0:
110,56,49196,1,0,0:0:0:0:
23,103,49357,2,0,B|36:154|42:193,1,70,0|0,1:0|1:0,0:0:0:0:
113,235,49678,2,0,B|126:184|132:145,1,70,8|0,0:0|0:0,0:0:0:0:
240,201,49998,6,0,B|303:255|269:337,1,140,4|8,1:2|0:0,0:0:0:0:
82,379,50640,2,0,P|45:367|6:363,1,70,0|0,1:0|1:0,0:0:0:0:
7,265,50961,2,0,P|44:277|83:281,1,70,8|0,0:0|0:0,0:0:0:0:
172,272,51282,5,0,1:0:0:0:
240,201,51442,2,0,L|231:164,2,35,8|8|0,0:0|0:0|1:0,0:0:0:0:
339,244,51763,1,8,0:0:0:0:
339,244,51843,1,8,0:0:0:0:
339,244,51924,2,0,B|374:228|433:232,1,70,0|8,1:0|0:0,0:0:0:0:
459,231,52164,1,8,0:0:0:0:
459,231,52244,1,8,0:0:0:0:
497,140,52405,1,8,0:0:0:0:
420,50,52565,6,0,B|349:61|264:40,1,140,4|8,1:2|0:0,0:0:0:0:
87,9,53207,1,0,1:0:0:0:
64,104,53367,1,0,1:0:0:0:
159,126,53528,2,0,L|146:208,1,70,8|0,0:0|0:0,0:0:0:0:
220,261,53849,6,0,B|253:247|306:242,1,70,0|0,1:0|1:0,0:0:0:0:
370,296,54170,1,8,0:0:0:0:
302,366,54330,2,0,B|274:393|202:396|168:334,1,140,0|0,1:0|1:0,0:0:0:0:
101,286,54811,2,0,L|114:207,1,70,12|0,0:0|1:0,0:0:0:0:
133,100,55132,5,12,0:0:0:0:
312,21,55453,2,0,B|314:66|325:114,1,70,8|0,0:0|1:0,0:0:0:0:
418,85,55774,2,0,B|411:109|409:154,1,70,8|0,0:0|1:0,0:0:0:0:
473,229,56095,1,8,0:0:0:0:
396,320,56255,6,0,B|342:314|342:314|309:326|309:326|235:317,1,140,4|0,1:2|1:0,0:0:0:0:
167,357,56736,1,8,0:0:0:0:
98,260,56897,2,0,B|114:199|118:96,1,140,4|0,1:2|1:0,0:0:0:0:
191,57,57378,2,0,L|239:65,3,35,8|8|8|8,0:0|0:0|0:0|0:0,0:0:0:0:
272,78,57699,6,0,L|347:62,1,70,4|0,1:2|1:0,0:0:0:0:
453,26,58020,2,0,B|503:95|459:175,1,140,12|0,0:0|1:0,0:0:0:0:
394,225,58501,1,0,1:0:0:0:
304,190,58661,2,0,L|219:179,1,70,8|0,0:0|0:0,0:0:0:0:
137,165,58982,5,0,1:0:0:0:
137,165,59143,1,0,1:0:0:0:
60,225,59303,2,0,B|46:270|75:319,1,70,8|4,0:0|0:3,0:0:0:0:
85,343,59544,1,4,0:3:0:0:
85,343,59624,1,0,1:0:0:0:
167,290,59784,1,0,1:0:0:0:
238,357,59945,2,0,L|323:338,1,70,12|0,0:0|0:0,0:0:0:0:
421,308,60266,6,0,B|405:251|406:196,1,105,12|0,0:0|0:0,0:0:0:0:
405,155,60587,2,0,L|335:171,1,70,12|0,0:0|1:0,0:0:0:0:
248,198,60907,1,8,0:0:0:0:
248,198,60988,1,8,0:0:0:0:
248,198,61068,1,0,1:0:0:0:
175,132,61228,1,8,0:0:0:0:
228,25,61389,5,4,1:2:0:0:
36,66,61710,1,0,1:0:0:0:
87,148,61870,2,0,B|79:190|74:233,1,70,8|8,0:0|0:0,0:0:0:0:
71,269,62111,1,8,0:0:0:0:
71,269,62191,1,8,0:0:0:0:
104,352,62351,1,8,0:0:0:0:
209,381,62512,1,8,0:0:0:0:
321,322,62672,1,8,0:0:0:0:
321,322,62833,6,0,B|314:270|313:232,1,70,0|0,1:0|1:0,0:0:0:0:
428,364,63153,2,0,B|468:297|426:216,1,140,12|0,0:0|1:0,0:0:0:0:
360,163,63635,1,0,1:0:0:0:
423,87,63795,2,0,B|469:102|517:100,1,70,8|0,0:0|0:0,0:0:0:0:
353,23,64116,6,0,B|288:54|288:54|210:42,1,140,0|8,1:0|0:0,0:0:0:0:
129,8,64597,1,0,0:0:0:0:
48,64,64758,2,0,B|60:139,1,70,0|0,1:0|1:0,0:0:0:0:
77,229,65079,1,8,0:0:0:0:
251,139,65400,6,0,B|241:178|236:217,1,70,0|0,1:0|1:0,0:0:0:0:
220,303,65720,2,0,B|154:308|105:333,1,105,8|0,0:0|0:0,0:0:0:0:
69,331,66041,2,0,B|52:295|49:254,1,70,0|0,1:0|1:0,0:0:0:0:
86,172,66362,2,0,B|127:170|170:155,1,70,8|0,0:0|0:0,0:0:0:0:
251,139,66683,6,0,B|323:163|405:153,1,140,0|8,1:0|0:0,0:0:0:0:
480,194,67164,1,0,0:0:0:0:
411,265,67325,2,0,B|372:253|326:252,1,70,0|0,1:0|1:0,0:0:0:0:
255,261,67646,1,8,0:0:0:0:
114,125,67966,6,0,B|125:56,1,70,0|0,1:0|1:0,0:0:0:0:
29,30,68287,2,0,B|31:83|14:152,1,105,8|0,0:0|0:0,0:0:0:0:
19,183,68608,2,0,L|33:258,1,70,0|0,1:0|1:0,0:0:0:0:
108,312,68929,2,0,L|182:295,1,70,8|0,0:0|0:0,0:0:0:0:
274,272,69250,5,0,1:0:0:0:
274,272,69410,1,0,1:0:0:0:
279,173,69571,2,0,B|218:181|134:157,1,140,8|0,0:0|1:0,0:0:0:0:
106,66,70052,1,0,1:0:0:0:
180,2,70212,1,8,0:0:0:0:
376,41,70533,5,0,1:0:0:0:
376,41,70694,1,0,1:0:0:0:
451,102,70854,2,0,B|462:174,1,70,8|0,0:0|0:0,0:0:0:0:
405,252,71175,1,0,1:0:0:0:
405,252,71336,1,0,1:0:0:0:
330,191,71496,2,0,B|319:119,1,70,8|0,0:0|0:0,0:0:0:0:
235,170,71817,5,8,0:0:0:0:
235,170,71977,2,0,B|162:192|81:193,2,140,0|0|0,1:0|1:0|1:0,0:0:0:0:
271,261,72779,2,0,B|289:312|289:312|274:368,1,105,8|0,0:0|0:2,0:0:0:0:
231,383,73100,6,0,B|194:369|144:373,1,70,4|0,1:2|1:0,0:0:0:0:
77,322,73421,2,0,B|91:285|87:253,1,70,8|8,0:2|0:0,0:0:0:0:
91,204,73661,1,8,0:0:0:0:
91,204,73742,1,0,1:0:0:0:
155,130,73902,1,0,1:0:0:0:
241,176,74063,2,0,B|279:163|330:162,1,70,8|0,0:0|0:0,0:0:0:0:
403,191,74383,6,0,L|411:121,1,70,8|8,0:0|0:0,0:0:0:0:
331,254,74704,2,0,L|339:323,1,70,8|8,0:0|0:0,0:0:0:0:
274,377,75025,1,8,0:0:0:0:
274,377,75186,1,8,0:0:0:0:
212,301,75346,1,8,0:0:0:0:
110,346,75506,1,8,0:0:0:0:
34,245,75667,5,4,1:2:0:0:
30,217,76436,1,4,1:2:0:0:
26,189,77152,1,4,1:2:0:0:
22,161,77897,1,4,1:2:0:0:
18,133,78598,1,4,1:2:0:0:
14,105,79370,5,4,1:2:0:0:
256,192,79476,12,4,86202,1:2:0:0:
