osu file format v14

[General]
AudioFilename: audio.mp3
AudioLeadIn: 0
PreviewTime: 37726
Countdown: 0
SampleSet: Soft
StackLeniency: 0.7
Mode: 0
LetterboxInBreaks: 0
WidescreenStoryboard: 1

[Editor]
DistanceSpacing: 1
BeatDivisor: 2
GridSize: 32
TimelineZoom: 1

[Metadata]
Title:Hito ni Yasashiku (TV Size)
TitleUnicode:人にやさしく (TV Size)
Artist:THE ROLLING GIRLS
ArtistUnicode:THE ROLLING GIRLS
Creator:Kanui
Version:Easy
Source:ローリング☆ガールズ
Tags:Rolling☆Girls rolling*girls anime opening japanese rock jrock j-rock female vocals be kind to people 小澤亜李 Ari Ozawa 日高里菜 Rina Hidaka 種田梨沙 Risa Taneda 花守ゆみり Yumiri Hanamori 小坂 結季奈 Yukina Kosaka 森友 望未 Nozomi Moritomo 響 逢衣 Ai Hibiki 御園 千綾 Chiaya Misono
BeatmapID:4249819
BeatmapSetID:2037623

[Difficulty]
HPDrainRate:3
CircleSize:3
OverallDifficulty:3.5
ApproachRate:4.5
SliderMultiplier:0.9
SliderTickRate:1

[Events]
//Background and Video events
0,0,"bg.jpg",0,0
Video,130,"video.mp4"
//Break Periods
//Storyboard Layer 0 (Background)
//Storyboard Layer 1 (Fail)
//Storyboard Layer 2 (Pass)
//Storyboard Layer 3 (Foreground)
//Storyboard Layer 4 (Overlay)
//Storyboard Sound Samples

[TimingPoints]
-1338,320.855614973262,4,2,1,50,1,0
3153,-100,4,2,1,65,0,0
3795,-100,4,2,1,80,0,0
37164,-100,4,2,1,65,0,0
39089,-100,4,2,1,50,0,0
39250,-100,4,2,1,65,0,0
39731,-100,4,2,1,80,0,0
75667,384.615384615385,4,2,1,65,1,0
76436,358.208955223881,4,2,1,65,1,0
77152,372.670807453416,4,2,1,65,1,0
77897,350.877192982456,4,2,1,65,1,0
78598,386.473429951691,4,2,1,65,1,0
79370,427.046263345196,4,2,1,65,1,0

[Colours]
Combo1 : 244,236,198
Combo2 : 155,208,239
Combo3 : 210,158,197
Combo4 : 132,186,177

[HitObjects]
76,314,907,6,0,B|12:287|15:188|77:158,1,180,2|2,0:0|0:0,0:0:0:0:
246,163,2191,2,0,B|310:190|307:289|245:319,1,180,2|2,0:0|0:0,0:0:0:0:
165,310,3153,2,0,B|117:304|66:315,1,90,8|8,0:0|0:0,0:0:0:0:
28,235,3795,6,0,B|41:145|28:43,1,180,4|0,1:2|1:2,0:0:0:0:
101,1,4758,1,8,0:0:0:0:
166,62,5079,2,0,L|257:46,1,90,0|8,1:2|0:0,0:0:0:0:
336,10,5720,2,0,L|424:25,1,90,0|8,1:2|0:0,0:0:0:0:
512,47,6362,5,0,1:2:0:0:
497,135,6683,1,8,0:0:0:0:
486,224,7004,2,0,B|502:323,1,90,0|8,1:0|0:0,0:0:0:0:
432,372,7645,2,0,B|386:362|386:362|335:376,1,90,0|8,1:0|0:0,0:0:0:0:
266,327,8287,2,0,B|254:284|254:284|264:238,1,90,0|8,1:0|0:0,0:0:0:0:
331,180,8929,6,0,B|340:111|340:111|324:78|324:78|335:-1,2,180,2|0|2,1:2|1:0|1:2,0:0:0:0:
346,268,10533,1,8,0:2:0:0:
278,329,10854,2,0,B|234:316|187:320,1,90,0|8,1:0|0:2,0:0:0:0:
119,261,11496,6,0,B|132:217|128:170,1,90,4|8,1:2|0:0,0:0:0:0:
175,95,12137,1,0,1:0:0:0:
114,28,12458,1,8,0:0:0:0:
31,64,12779,2,0,B|27:109|40:153,1,90,0|8,1:0|0:0,0:0:0:0:
128,171,13421,1,0,1:0:0:0:
175,95,13742,1,8,0:0:0:0:
264,107,14063,6,0,B|357:86|357:158|456:135,1,180,4|0,1:2|1:0,0:0:0:0:
507,193,15025,1,8,0:0:0:0:
450,263,15346,1,0,1:0:0:0:
361,264,15667,2,0,B|351:308|359:361,2,90,12|0|8,0:0|1:0|1:2,0:0:0:0:
298,198,16629,6,0,L|107:223,1,180,4|0,1:2|1:0,0:0:0:0:
42,268,17592,1,8,0:0:0:0:
104,335,17913,2,0,B|140:359|211:347,1,90,0|8,1:0|0:0,0:0:0:0:
271,308,18555,2,0,B|307:284|378:296,1,90,2|12,0:0|0:0,0:0:0:0:
440,330,19196,5,12,0:0:0:0:
457,241,19517,1,8,0:0:0:0:
472,152,19838,1,8,0:0:0:0:
394,41,20319,2,0,B|334:64|247:66,1,135,4|8,1:2|0:0,0:0:0:0:
171,71,21121,2,0,B|186:126|182:175,1,90,0|0,1:0|1:0,0:0:0:0:
191,249,21763,6,0,B|281:298|375:248,1,180,4|0,1:2|1:0,0:0:0:0:
454,253,22726,1,8,0:0:0:0:
504,178,23047,2,0,B|492:134|503:73,1,90,0|8,1:0|0:0,0:0:0:0:
429,32,23688,2,0,B|383:46|327:38,1,90,0|12,1:0|0:0,0:0:0:0:
250,50,24330,5,12,0:0:0:0:
162,73,24651,1,8,0:0:0:0:
74,96,24972,1,8,0:0:0:0:
168,191,25453,2,0,B|231:151|306:195,1,135,4|8,1:2|0:0,0:0:0:0:
359,253,26255,1,8,0:0:0:0:
334,339,26576,1,8,0:0:0:0:
246,358,26897,6,0,B|147:345,1,90,0|12,1:0|0:0,0:0:0:0:
67,334,27539,2,0,B|80:235,1,90,0|8,1:0|0:0,0:0:0:0:
93,156,28180,2,0,B|4:145,2,90,0|8|0,1:0|0:0|1:0,0:0:0:0:
236,46,29464,6,0,B|281:17|332:34,1,90,0|8,1:0|0:0,0:0:0:0:
384,96,30105,2,0,B|386:149|345:183,1,90,0|8,1:0|0:0,0:0:0:0:
273,198,30747,2,0,B|225:171|215:120,2,90,0|8|0,1:0|0:0|1:0,0:0:0:0:
434,277,32030,6,0,B|444:328|445:377,1,90,0|8,1:0|0:0,0:0:0:0:
354,372,32672,2,0,B|353:333|343:282,1,90,0|8,1:0|0:0,0:0:0:0:
253,293,33314,2,0,B|263:344|264:393,2,90,0|8|0,1:0|0:0|1:0,0:0:0:0:
330,130,34597,6,0,B|229:147,1,90,0|8,1:0|0:0,0:0:0:0:
175,206,35239,2,0,B|86:191,1,90,0|8,1:0|0:0,0:0:0:0:
3,180,35881,2,0,L|25:320,1,135,8|0,0:0|1:0,0:0:0:0:
143,376,36843,1,8,0:0:0:0:
228,348,37164,1,4,1:2:0:0:
458,91,39731,6,0,B|512:178|476:277,1,180,4|0,1:2|1:0,0:0:0:0:
424,334,40694,1,8,0:0:0:0:
347,286,41014,2,0,B|297:299|252:299,1,90,0|8,1:0|0:0,0:0:0:0:
184,350,41656,2,0,B|145:350|95:337,1,90,0|8,1:0|0:0,0:0:0:0:
10,304,42298,5,0,1:0:0:0:
0,216,42619,1,8,0:0:0:0:
66,154,42940,2,0,B|57:126|58:89|82:56,1,90,0|8,1:0|0:0,0:0:0:0:
163,29,43581,2,0,B|213:41|267:42,1,90,0|8,1:0|0:0,0:0:0:0:
239,130,44223,2,0,B|189:118|135:117,1,90,0|8,1:0|0:0,0:0:0:0:
66,154,44865,6,0,L|87:332,2,180,0|0|0,1:0|1:0|1:0,0:0:0:0:
57,64,46469,1,12,0:0:0:0:
130,12,46790,1,0,1:0:0:0:
219,18,47111,1,8,0:0:0:0:
294,67,47432,6,0,B|344:76|397:71,1,90,4|8,1:2|0:0,0:0:0:0:
473,61,48073,1,0,1:0:0:0:
499,147,48394,1,8,0:0:0:0:
439,215,48715,2,0,B|441:264|435:311,1,90,4|8,1:2|0:0,0:0:0:0:
379,375,49357,1,0,1:0:0:0:
289,383,49678,1,8,0:0:0:0:
216,329,49998,6,0,B|155:325|155:325|108:350|108:350|41:346,1,180,4|0,1:2|1:0,0:0:0:0:
9,215,51121,1,2,0:0:0:0:
36,127,51442,1,8,0:0:0:0:
65,42,51763,2,0,B|139:35|129:80|217:73,1,135,8|8,0:0|0:0,0:0:0:0:
282,88,52565,6,0,B|266:179|266:271,1,180,4|0,1:2|1:0,0:0:0:0:
263,357,53528,1,8,0:0:0:0:
352,361,53849,2,0,B|395:346|395:346|442:357,1,90,0|8,1:0|0:0,0:0:0:0:
511,304,54490,2,0,B|492:259|492:259|501:213,1,90,2|12,0:0|0:0,0:0:0:0:
510,128,55132,5,12,0:0:0:0:
479,43,55453,1,8,0:0:0:0:
397,5,55774,1,8,0:0:0:0:
267,41,56255,2,0,B|254:88|254:88|266:140,1,90,4|0,1:2|1:0,0:0:0:0:
333,185,56897,2,0,B|346:232|346:232|334:284,1,90,4|0,1:2|1:0,0:0:0:0:
253,376,57699,5,4,1:2:0:0:
163,363,58020,1,12,0:0:0:0:
75,343,58341,2,0,L|64:249,1,90,0|8,1:0|0:0,0:0:0:0:
120,182,58982,2,0,B|225:169,1,90,0|8,1:0|0:0,0:0:0:0:
298,159,59624,2,0,B|307:113|307:113|287:66,1,90,0|12,1:0|0:0,0:0:0:0:
221,15,60266,5,12,0:0:0:0:
131,2,60587,1,12,0:0:0:0:
68,65,60907,1,8,0:0:0:0:
2,183,61389,2,0,B|26:323,1,135,4|8,1:2|0:0,0:0:0:0:
91,375,62191,1,8,0:0:0:0:
169,330,62512,1,8,0:0:0:0:
256,353,62833,6,0,L|267:247,1,90,0|12,1:0|0:0,0:0:0:0:
280,174,63474,2,0,L|374:185,1,90,0|8,1:0|0:0,0:0:0:0:
458,201,64116,2,0,L|447:294,2,90,0|8|0,1:0|0:0|1:0,0:0:0:0:
280,174,65399,6,0,B|237:201|179:183,1,90,0|8,1:0|0:0,0:0:0:0:
127,125,66041,2,0,B|125:75|169:34,1,90,0|8,1:0|0:0,0:0:0:0:
246,19,66683,2,0,B|290:43|304:102,2,90,0|8|0,1:0|0:0|1:0,0:0:0:0:
117,144,67966,6,0,P|125:189|127:236,1,90,0|8,1:0|0:0,0:0:0:0:
206,276,68608,2,0,P|250:268|295:266,1,90,0|8,1:0|0:0,0:0:0:0:
382,288,69250,2,0,P|387:341|396:386,2,90,0|8|0,1:0|0:0|1:0,0:0:0:0:
489,143,70533,6,0,B|506:99|506:99|482:52,1,90,0|8,1:0|0:0,0:0:0:0:
409,13,71175,2,0,B|319:22,1,90,0|8,1:0|0:0,0:0:0:0:
230,34,71817,2,0,P|240:100|241:167,1,135,8|0,0:0|1:0,0:0:0:0:
117,222,72779,1,8,0:0:0:0:
51,160,73100,6,0,L|61:51,1,90,4|8,1:2|0:2,0:0:0:0:
144,41,73742,1,0,1:0:0:0:
224,80,74063,1,8,0:0:0:0:
304,42,74383,2,0,B|348:21|408:37,1,90,8|8,0:0|0:0,0:0:0:0:
472,74,75025,1,8,0:0:0:0:
454,161,75346,1,8,0:0:0:0:
433,248,75667,6,0,B|338:258|255:307,1,180,4|4,1:2|1:2,0:0:0:0:
108,379,77152,2,0,B|146:291|145:195,1,180,4|4,1:2|1:2,0:0:0:0:
157,36,78598,2,0,B|213:113|297:160,1,180,4|4,1:2|1:2,0:0:0:0:
256,192,79583,12,4,86202,1:2:0:0:
