osu file format v14

[General]
AudioFilename: audio.mp3
AudioLeadIn: 0
PreviewTime: 20522
Countdown: 0
SampleSet: Soft
StackLeniency: 0.8
Mode: 0
LetterboxInBreaks: 0
WidescreenStoryboard: 0

[Editor]
Bookmarks: 7129,20522,35950,49665,63379,77093,90807,101093,114807,121665,135431,148288,162807,176522,186807,200522,221093
DistanceSpacing: 1.9
BeatDivisor: 4
GridSize: 32
TimelineZoom: 1.6

[Metadata]
Title:Rise
TitleUnicode:ライズ 〜機工城アレキサンダー:天動編〜
Artist:THE PRIMALS
ArtistUnicode:THE PRIMALS
Creator:Arsalan
Version:The Soul of the Creator (Savage)
Source:ファイナルファンタジーXIV: 蒼天のイシュガルド
Tags:Garden Tachibana Gekka [Crz]Makii [Crz]Sword Callionet video game critically acclaimed mmorpg Journeys: FINAL FANTASY XIV Arrangement Album ffxiv ff14 metal rock english Heavensward Shadowbringers masayoshi soken 祖堅 正義
BeatmapID:3941985
BeatmapSetID:1911102

[Difficulty]
HPDrainRate:6
CircleSize:4
OverallDifficulty:8
ApproachRate:9
SliderMultiplier:1.4
SliderTickRate:1

[Events]
//Background and Video events
0,0,"RISE.png",0,0
//Break Periods
//Storyboard Layer 0 (Background)
//Storyboard Layer 1 (Fail)
//Storyboard Layer 2 (Pass)
//Storyboard Layer 3 (Foreground)
//Storyboard Layer 4 (Overlay)
//Storyboard Sound Samples

[TimingPoints]
1678,428.571428571429,4,2,1,55,1,0
18820,419.58041958042,4,2,1,60,1,0
20498,437.956204379563,4,2,1,60,1,0
21373,-142.857142857143,4,2,1,60,0,0
22249,425.531914893617,4,2,1,75,1,0
22249,-45.4545454545455,4,2,1,75,0,0
23951,428.571428571429,4,2,1,75,1,0
23951,-45.4545454545455,4,2,1,75,0,0
29093,-45.4545454545455,4,2,1,75,0,0
32521,425.531914893617,4,2,1,75,1,0
32521,-45.4545454545455,4,2,1,75,0,0
34223,431.654676258993,4,2,1,60,1,0
35949,428.571428571429,4,2,1,75,1,0
36163,-45.4545454545455,4,2,1,75,0,0
52663,-100,4,2,1,75,0,0
53091,-45.4545454545455,4,2,1,75,0,0
56091,-100,4,2,1,75,0,0
56520,-45.4545454545455,4,2,1,75,0,0
58234,434.782608695653,4,2,1,75,1,0
58234,-45.4545454545455,4,2,1,75,0,0
59973,416.666666666667,4,2,1,75,1,0
59973,-45.4545454545455,4,2,1,75,0,0
61223,444.444444444445,4,2,1,75,1,0
61667,441.176470588236,4,2,1,60,1,0
61887,-66.6666666666667,4,2,1,60,0,0
62549,419.58041958042,4,2,1,60,1,0
62653,-66.6666666666667,4,2,1,60,0,0
63387,430.10752688172,4,2,1,65,1,0
64462,-66.6666666666667,4,2,1,65,0,0
70268,428.571428571429,4,2,1,65,1,0
74339,-66.6666666666667,4,2,1,65,0,0
75410,424.028268551237,4,2,1,65,1,0
77106,428.571428571429,4,2,1,70,1,0
77106,-55.5555555555556,4,2,1,70,0,0
90820,-43.4782608695652,4,2,1,75,0,0
101106,-55.5555555555556,4,2,1,75,0,0
104106,-43.4782608695652,4,2,1,75,0,0
104534,-50,4,2,1,75,0,0
107320,-43.4782608695652,4,2,1,75,0,0
111391,-43.4782608695652,4,2,1,60,0,0
113106,-43.4782608695652,4,2,1,65,0,0
113320,-66.6666666666667,4,2,1,65,0,0
114820,430.107526881721,4,2,1,55,1,0
121271,-142.857142857143,4,2,1,55,0,0
121701,428.571428571429,4,2,1,60,1,0
122451,-133.333333333333,4,2,1,60,0,0
123415,423.280423280424,4,2,1,60,1,0
124261,-133.333333333333,4,2,1,60,0,0
126801,428.571428571429,4,2,1,60,1,0
128515,434.782608695653,4,2,1,60,1,0
128515,-133.333333333333,4,2,1,60,0,0
130254,428.571428571429,4,2,1,60,1,0
131004,-133.333333333333,4,2,1,60,0,0
131968,422.535211267606,4,2,1,60,1,0
132390,-133.333333333333,4,2,1,60,0,0
133658,431.654676258993,4,2,1,55,1,0
134521,-133.333333333333,4,2,1,55,0,0
135384,430.107526881721,4,2,2,65,1,0
135384,-200,4,2,2,65,0,0
135814,-200,4,2,2,40,0,0
137964,-1000,4,2,2,40,0,0
138824,-200,4,2,2,40,0,0
141405,-1000,4,2,2,40,0,0
142265,428.571428571429,4,2,2,40,1,0
142265,-200,4,2,2,40,0,0
144836,-1000,4,2,2,40,0,0
145693,-200,4,2,2,40,0,0
148265,419.58041958042,4,2,1,75,1,0
149104,428.571428571429,4,2,1,60,1,0
149104,-55.5555555555556,4,2,1,60,0,0
149318,-55.5555555555556,4,2,1,60,0,0
156389,-52.6315789473684,4,2,1,60,0,0
162818,-50,4,2,1,70,0,0
169675,-45.4545454545455,4,2,1,70,0,0
176532,-43.4782608695652,4,2,1,75,0,0
190246,-50,4,2,1,75,0,0
193675,-55.5555555555556,4,2,1,75,0,0
197104,-55.5555555555556,4,2,1,60,0,0
198818,-55.5555555555556,4,2,1,65,0,0
199032,-66.6666666666667,4,2,1,65,0,0
200532,431.654676258993,4,2,1,55,1,0
203985,428.571428571429,4,2,1,55,1,0
205699,422.535211267606,4,2,1,55,1,0
206544,-142.857142857143,4,2,1,60,0,0
207389,428.571428571429,4,2,1,65,1,0
219389,431.654676258993,4,2,1,55,1,0
220252,-142.857142857143,4,2,1,55,0,0
221115,428.571428571429,4,2,1,72,1,0
221115,-133.333333333333,4,2,1,72,0,0
221543,-133.333333333333,4,2,1,60,0,0
221757,-133.333333333333,4,2,1,45,0,0
221972,-133.333333333333,4,2,1,30,0,0
222186,-133.333333333333,4,2,1,15,0,0
222400,-133.333333333333,4,2,1,5,0,0

[Colours]
Combo1 : 250,180,240
Combo2 : 120,200,230
Combo3 : 255,230,130
Combo4 : 160,230,150

[HitObjects]
29,76,1678,5,4,3:2:0:0:
80,65,2106,1,0,3:3:0:0:
132,55,2535,1,0,3:3:0:0:
183,45,2963,1,0,3:3:0:0:
235,35,3392,5,0,3:3:0:0:
235,35,3820,1,0,3:3:0:0:
235,35,4249,1,0,3:3:0:0:
235,35,4678,1,2,3:2:0:0:
500,197,5106,5,4,1:2:0:0:
449,186,5535,1,0,3:3:0:0:
397,176,5963,1,0,3:3:0:0:
346,166,6392,1,0,3:3:0:0:
294,156,6820,5,0,3:3:0:0:
294,156,7249,1,0,3:3:0:0:
294,156,7678,1,0,3:3:0:0:
294,156,8106,1,4,3:1:0:0:
30,236,8535,5,4,3:2:0:0:
131,251,8749,1,0,3:3:0:0:
49,277,8963,1,0,1:1:0:0:
128,344,9178,1,0,3:2:0:0:
151,375,9285,1,2,1:1:0:0:
157,332,9392,1,2,2:2:0:0:
180,363,9499,1,2,1:1:0:0:
187,323,9606,1,0,3:3:0:0:
261,221,9820,1,0,1:1:0:0:
261,221,9928,1,2,3:1:0:0:
403,276,10142,5,2,1:1:0:0:
403,276,10249,1,0,3:3:0:0:
343,332,10463,1,0,3:3:0:0:
272,302,10678,1,2,1:2:0:0:
340,185,10892,1,0,3:3:0:0:
372,162,10999,1,0,1:1:0:0:
323,165,11106,1,2,1:1:0:0:
403,276,11320,1,2,3:1:0:0:
453,140,11535,1,2,1:1:0:0:
448,119,11642,1,2,2:1:0:0:
443,99,11749,1,2,3:1:0:0:
438,78,11856,1,2,2:1:0:0:
400,68,11963,5,4,3:2:0:0:
344,86,12178,1,0,3:3:0:0:
290,103,12392,1,0,1:1:0:0:
203,121,12606,1,0,3:3:0:0:
186,152,12713,1,2,1:1:0:0:
177,127,12820,1,2,2:2:0:0:
160,158,12928,1,2,1:1:0:0:
146,136,13035,1,0,3:3:0:0:
70,246,13249,1,0,1:1:0:0:
70,246,13356,1,2,3:1:0:0:
13,132,13570,5,2,1:1:0:0:
13,132,13678,1,0,3:3:0:0:
68,72,13892,1,0,3:3:0:0:
141,104,14106,1,2,1:2:0:0:
212,42,14320,1,0,3:1:0:0:
189,0,14428,1,0,1:1:0:0:
223,30,14535,1,2,3:1:0:0:
303,75,14749,1,2,3:1:0:0:
421,30,14963,1,2,1:1:0:0:
458,54,15070,1,2,1:1:0:0:
498,76,15178,1,2,3:1:0:0:
493,45,15285,1,2,1:1:0:0:
487,9,15392,5,4,3:2:0:0:
477,66,15606,1,0,3:3:0:0:
466,119,15820,1,0,1:1:0:0:
391,182,16035,1,0,3:3:0:0:
373,148,16142,1,2,1:1:0:0:
379,193,16249,1,2,2:2:0:0:
355,162,16356,1,2,1:1:0:0:
368,206,16463,1,0,3:3:0:0:
278,296,16678,1,0,1:1:0:0:
278,296,16785,1,2,3:1:0:0:
341,358,16999,5,2,1:1:0:0:
341,358,17106,1,0,3:3:0:0:
368,206,17320,1,0,3:3:0:0:
214,187,17535,1,2,1:2:0:0:
187,339,17749,1,0,3:1:0:0:
228,348,17856,1,0,1:1:0:0:
179,351,17963,1,2,3:1:0:0:
278,296,18178,1,2,3:1:0:0:
170,365,18392,1,2,1:1:0:0:
124,356,18499,1,2,1:1:0:0:
80,347,18606,1,2,3:1:0:0:
42,337,18713,1,2,1:1:0:0:
87,308,18820,5,4,1:1:0:0:
104,255,19029,1,0,3:3:0:0:
117,200,19239,1,0,1:1:0:0:
212,148,19449,1,0,3:3:0:0:
235,186,19554,1,2,1:1:0:0:
262,133,19659,1,2,2:2:0:0:
270,176,19764,1,2,2:1:0:0:
306,133,19868,1,2,3:1:0:0:
380,233,20078,1,0,1:1:0:0:
358,271,20183,1,2,3:1:0:0:
441,357,20498,5,4,3:2:0:0:
441,357,20935,1,0,3:3:0:0:
441,357,21373,2,0,L|528:339,1,73.4999977569581,2|0,3:1|0:0,0:0:0:0:
512,342,21811,1,6,3:2:0:0:
512,164,22249,6,0,P|449:160|349:116,1,154.000004699707,6|0,1:1|3:3,0:0:0:0:
306,69,22674,1,0,1:1:0:0:
284,101,22780,1,2,2:2:0:0:
277,68,22887,1,0,3:3:0:0:
255,100,22993,1,2,1:2:0:0:
232,76,23100,2,0,P|245:116|256:174,1,77.0000023498536,2|2,1:2|2:2,0:0:0:0:
308,203,23312,1,0,3:3:0:0:
269,268,23419,2,0,P|251:304|239:355,1,77.0000023498536,2|0,2:2|1:1,0:0:0:0:
176,384,23631,2,0,P|165:347|148:312,1,77.0000023498536,2|2,3:2|3:2,0:0:0:0:
83,276,23844,1,2,3:2:0:0:
13,316,23951,6,0,P|34:259|29:168,1,154.000004699707,2|2,3:2|3:3,0:0:0:0:
0,18,24379,1,0,1:1:0:0:
30,53,24486,1,2,2:2:0:0:
52,25,24593,1,0,3:3:0:0:
68,68,24701,1,2,1:2:0:0:
105,31,24808,5,2,2:2:0:0:
166,87,24915,1,2,2:2:0:0:
238,39,25022,1,0,3:3:0:0:
316,70,25129,1,2,2:2:0:0:
316,70,25236,2,0,P|352:32|470:54,1,154.000004699707,2|4,1:2|3:2,0:0:0:0:
509,91,25558,1,0,3:3:0:0:
470,165,25665,6,0,P|422:214|331:214,1,154.000004699707,6|2,3:1|3:2,0:0:0:0:
272,173,25986,1,0,2:2:0:0:
205,220,26093,2,0,L|220:307,1,77.0000023498536,0|2,1:1|2:2,0:0:0:0:
304,365,26308,1,0,3:3:0:0:
275,384,26415,1,2,1:2:0:0:
266,349,26522,2,0,L|138:328,1,77.0000023498536,2|2,3:2|2:2,0:0:0:0:
115,296,26736,1,0,3:3:0:0:
46,377,26843,6,0,P|39:313|1:225,1,154.000004699707,2|0,2:2|3:3,0:0:0:0:
50,166,27165,2,0,L|76:94,1,77.0000023498536,2|2,2:3|3:3,0:0:0:0:
150,72,27379,6,0,L|120:-13,2,77.0000023498536,2|2|0,3:2|2:2|3:3,0:0:0:0:
216,113,27701,1,2,2:2:0:0:
192,183,27808,2,0,P|157:194|120:212,1,77.0000023498536,0|2,1:2|2:3,0:0:0:0:
149,283,28022,5,2,3:2:0:0:
213,325,28129,1,0,1:2:0:0:
231,310,28236,2,0,L|211:384,2,77.0000023498536,0|2|0,2:2|1:3|3:3,0:0:0:0:
297,275,28558,1,2,2:2:0:0:
357,230,28665,1,8,1:3:0:0:
359,211,28772,1,4,3:3:0:0:
499,271,28986,5,4,1:3:0:0:
475,303,29093,2,0,P|466:229|444:118,1,154.000004699707,4|2,3:2|3:2,0:0:0:0:
433,74,29414,1,0,2:2:0:0:
454,40,29521,1,4,1:1:0:0:
409,68,29628,1,2,2:2:0:0:
435,37,29735,1,0,3:3:0:0:
390,63,29843,1,0,1:1:0:0:
309,74,29950,5,2,3:2:0:0:
237,64,30057,1,2,2:2:0:0:
166,53,30164,1,0,3:3:0:0:
94,43,30271,1,2,2:2:0:0:
21,30,30378,2,0,P|106:20|214:10,1,154.000004699707,0|0,1:1|3:3,0:0:0:0:
311,82,30807,5,2,3:2:0:0:
352,104,30914,1,2,2:2:0:0:
295,111,31021,1,2,3:2:0:0:
341,130,31128,1,2,2:2:0:0:
265,148,31235,2,0,L|280:235,1,77.0000023498536,0|2,1:1|2:2,0:0:0:0:
263,299,31450,1,0,3:3:0:0:
241,342,31557,1,2,1:2:0:0:
226,289,31664,5,2,2:2:0:0:
298,299,31771,1,2,2:2:0:0:
369,310,31878,1,2,3:2:0:0:
441,320,31985,1,2,2:2:0:0:
480,349,32093,2,0,L|324:377,1,154.000004699707,0|2,1:1|3:2,0:0:0:0:
80,381,32521,6,0,P|61:349|60:305,1,77.0000023498536,6|0,3:2|2:2,0:0:0:0:
104,234,32733,1,2,3:2:0:0:
77,208,32840,1,2,2:2:0:0:
121,226,32946,1,2,1:2:0:0:
98,195,33052,1,2,2:2:0:0:
145,217,33159,1,0,3:3:0:0:
128,183,33265,1,2,1:2:0:0:
173,207,33372,5,4,2:3:0:0:
236,269,33478,1,6,2:3:0:0:
324,246,33584,1,8,3:3:0:0:
340,154,33691,1,8,2:3:0:0:
267,111,33797,1,2,1:2:0:0:
267,111,33903,2,0,P|267:71|294:26,1,77.0000023498536,6|10,3:3|1:3,0:0:0:0:
207,11,34116,1,10,1:3:0:0:
199,24,34223,5,4,3:2:0:0:
4,84,34438,1,0,1:1:0:0:
4,84,34546,1,2,1:2:0:0:
4,84,34654,1,0,3:3:0:0:
151,191,34870,1,0,1:1:0:0:
151,191,34978,1,2,1:3:0:0:
151,191,35086,1,2,3:3:0:0:
145,92,35302,5,2,1:2:0:0:
104,59,35517,1,4,3:1:0:0:
100,107,35733,1,4,1:2:0:0:
16,247,35949,5,4,1:2:0:0:
16,247,36056,1,0,1:1:0:0:
16,247,36163,2,0,L|131:254,1,77.0000023498536,2|0,3:1|2:2,0:0:0:0:
7,261,36377,2,0,L|83:265,1,77.0000023498536,2|0,1:0|2:2,0:0:0:0:
149,330,36591,1,0,3:3:0:0:
158,345,36699,1,2,1:2:0:0:
232,309,36806,6,0,L|236:232,1,77.0000023498536,2|0,3:1|0:2,0:0:0:0:
243,306,37020,2,0,L|247:229,1,77.0000023498536,2|0,3:1|2:2,0:0:0:0:
171,181,37234,1,2,1:2:0:0:
151,191,37341,1,0,3:3:0:0:
304,125,37556,1,0,0:3:0:0:
317,137,37663,6,0,L|418:149,1,77.0000023498536,2|0,3:1|2:2,0:0:0:0:
474,181,37877,1,0,3:3:0:0:
485,195,37984,1,2,2:2:0:0:
512,87,38091,2,0,L|417:74,1,77.0000023498536,2|2,1:1|3:2,0:0:0:0:
385,7,38306,1,2,3:1:0:0:
385,7,38413,1,2,1:2:0:0:
338,23,38520,5,2,2:0:0:0:
297,0,38627,1,2,1:2:0:0:
253,9,38734,2,0,L|194:59,1,77.0000023498536,6|2,1:2|2:2,0:0:0:0:
95,26,38949,2,0,L|23:0,1,77.0000023498536,2|0,1:1|1:1,0:0:0:0:
116,127,39163,2,0,L|130:203,1,77.0000023498536,2|0,3:1|0:0,0:0:0:0:
271,120,39377,5,4,3:2:0:0:
271,120,39484,1,2,2:2:0:0:
271,120,39591,2,0,L|249:210,1,77.0000023498536,2|0,3:1|2:2,0:0:0:0:
279,127,39806,2,0,L|257:217,1,77.0000023498536,2|0,1:1|2:2,0:0:0:0:
327,262,40020,1,0,3:3:0:0:
341,255,40127,1,2,1:2:0:0:
259,321,40234,6,0,L|171:296,1,77.0000023498536,2|2,3:1|1:2,0:0:0:0:
249,332,40449,2,0,L|161:307,1,77.0000023498536,2|0,3:1|2:2,0:0:0:0:
100,359,40663,1,0,1:1:0:0:
93,371,40770,1,0,3:2:0:0:
12,249,40984,1,0,0:3:0:0:
0,259,41091,6,0,L|13:183,1,77.0000023498536,2|0,3:1|2:2,0:0:0:0:
94,167,41306,1,0,3:3:0:0:
106,185,41413,1,2,2:2:0:0:
21,90,41520,2,0,L|97:78,1,77.0000023498536,2|2,1:1|2:2,0:0:0:0:
185,19,41734,5,2,3:1:0:0:
230,59,41841,1,2,1:2:0:0:
239,46,41949,1,2,2:2:0:0:
294,51,42056,1,2,1:2:0:0:
294,51,42163,2,0,B|334:50|334:50|368:18,1,77.0000023498536,2|0,3:1|0:3,0:0:0:0:
455,78,42377,2,0,B|435:113|435:113|443:148,1,77.0000023498536,2|0,1:1|0:3,0:0:0:0:
353,197,42591,2,0,B|332:162|332:162|297:151,1,77.0000023498536,2|4,3:1|3:3,0:0:0:0:
182,191,42806,5,4,3:2:0:0:
182,191,42913,1,0,2:2:0:0:
182,191,43020,2,0,L|92:174,1,77.0000023498536,2|0,3:1|2:2,0:0:0:0:
172,203,43234,2,0,L|82:186,1,77.0000023498536,2|0,1:1|2:2,0:0:0:0:
11,220,43449,1,0,3:3:0:0:
4,235,43556,1,2,1:2:0:0:
53,312,43663,6,0,L|139:302,1,77.0000023498536,2|2,3:1|1:2,0:0:0:0:
60,325,43877,2,0,L|146:315,1,77.0000023498536,2|0,3:1|2:2,0:0:0:0:
213,348,44091,1,0,1:1:0:0:
220,363,44199,1,0,3:3:0:0:
332,267,44413,1,0,0:3:0:0:
325,282,44520,6,0,L|237:263,1,77.0000023498536,2|0,3:1|2:2,0:0:0:0:
182,191,44734,1,0,3:3:0:0:
169,173,44841,1,0,2:2:0:0:
273,186,44949,2,0,L|297:107,1,77.0000023498536,2|0,1:1|3:2,0:0:0:0:
400,65,45163,5,2,3:1:0:0:
387,83,45270,1,2,1:2:0:0:
351,45,45377,1,2,2:2:0:0:
326,14,45484,1,0,1:1:0:0:
339,11,45591,2,0,B|259:29,1,77.0000023498536,2|0,3:1|2:2,0:0:0:0:
220,129,45806,2,0,B|272:185,1,77.0000023498536,2|0,1:1|3:3,0:0:0:0:
398,165,46020,2,0,B|420:91,1,77.0000023498536,2|0,2:1|1:2,0:0:0:0:
485,236,46234,5,4,3:1:0:0:
485,236,46341,1,0,2:2:0:0:
485,236,46449,2,0,L|402:288,1,77.0000023498536,2|0,3:1|2:2,0:0:0:0:
492,246,46663,2,0,L|409:298,1,77.0000023498536,2|0,1:1|2:2,0:0:0:0:
359,340,46877,1,0,3:3:0:0:
352,360,46984,1,2,1:2:0:0:
281,292,47091,6,0,L|171:274,1,77.0000023498536,2|2,3:1|1:2,0:0:0:0:
269,306,47306,2,0,L|159:288,1,77.0000023498536,2|0,3:1|2:2,0:0:0:0:
149,213,47520,1,0,1:1:0:0:
141,199,47627,1,0,3:3:0:0:
0,297,47841,1,0,0:1:0:0:
11,317,47949,6,0,L|38:231,1,77.0000023498536,2|0,3:1|2:2,0:0:0:0:
173,199,48163,2,0,L|146:113,1,77.0000023498536,2|0,3:1|2:2,0:0:0:0:
6,73,48377,2,0,L|29:0,1,77.0000023498536,4|0,1:2|2:2,0:0:0:0:
160,8,48591,1,0,3:1:0:0:
213,67,48699,1,0,3:3:0:0:
279,17,48806,5,6,1:1:0:0:
348,34,48913,1,0,1:1:0:0:
417,49,49020,1,2,1:1:0:0:
487,66,49127,1,0,1:1:0:0:
473,41,49234,1,4,3:3:0:0:
428,66,49341,1,8,1:3:0:0:
383,91,49449,1,8,1:3:0:0:
339,116,49556,1,8,1:3:0:0:
428,150,49663,6,0,P|466:163|492:192,1,77.0000023498536,4|0,1:2|1:1,0:0:0:0:
504,266,49877,1,2,3:1:0:0:
439,304,49984,1,0,2:2:0:0:
367,268,50091,2,0,P|299:261|209:323,1,154.000004699707,2|0,1:0|3:3,0:0:0:0:
249,373,50413,1,2,1:2:0:0:
160,366,50520,2,0,L|141:281,1,77.0000023498536,2|0,3:1|0:2,0:0:0:0:
75,242,50734,2,0,L|100:158,1,77.0000023498536,2|0,3:1|2:2,0:0:0:0:
170,126,50949,1,2,1:2:0:0:
244,171,51056,2,0,L|331:154,1,77.0000023498536,0|2,3:3|0:1,0:0:0:0:
408,166,51270,1,0,0:3:0:0:
427,179,51377,6,0,L|446:93,1,77.0000023498536,2|0,3:1|2:2,0:0:0:0:
345,0,51591,2,0,L|364:86,1,77.0000023498536,0|2,3:3|2:2,0:0:0:0:
304,136,51806,1,2,1:1:0:0:
235,77,51913,2,0,P|207:53|146:49,1,77.0000023498536,2|2,3:2|3:1,0:0:0:0:
138,45,52127,1,2,1:2:0:0:
73,94,52234,5,0,2:2:0:0:
82,117,52341,1,2,1:2:0:0:
92,140,52449,1,6,1:2:0:0:
101,165,52556,1,2,2:2:0:0:
129,185,52663,6,0,L|104:267,1,70,2|2,1:1|3:1,0:0:0:0:
17,359,53091,6,0,P|66:335|115:340,1,77.0000023498536,4|2,3:2|2:2,0:0:0:0:
157,364,53306,1,2,3:1:0:0:
228,330,53413,1,0,2:2:0:0:
296,382,53520,2,0,P|288:297|331:224,1,154.000004699707,2|0,1:1|3:3,0:0:0:0:
394,258,53841,1,2,1:2:0:0:
358,167,53949,2,0,L|280:143,1,77.0000023498536,2|2,3:1|1:2,0:0:0:0:
229,78,54163,2,0,L|304:62,1,77.0000023498536,2|0,3:1|2:2,0:0:0:0:
399,22,54377,5,0,1:1:0:0:
378,7,54484,2,0,L|395:88,1,77.0000023498536,0|2,3:2|0:1,0:0:0:0:
467,120,54699,1,0,0:0:0:0:
486,101,54806,2,0,L|463:189,1,77.0000023498536,2|0,3:1|2:2,0:0:0:0:
426,242,55020,1,0,3:3:0:0:
467,315,55127,1,2,2:2:0:0:
386,271,55234,1,2,1:1:0:0:
345,344,55341,2,0,P|315:365|254:360,1,77.0000023498536,2|2,2:2|3:1,0:0:0:0:
248,349,55556,1,2,1:2:0:0:
184,304,55663,5,0,2:2:0:0:
158,307,55770,1,2,1:2:0:0:
133,311,55877,1,2,3:1:0:0:
107,315,55984,1,0,0:3:0:0:
75,340,56091,6,0,L|-16:321,1,70,2|2,1:1|3:1,0:0:0:0:
7,202,56520,6,0,L|89:188,1,77.0000023498536,4|0,3:1|2:2,0:0:0:0:
153,221,56734,1,2,3:1:0:0:
229,184,56841,1,0,2:2:0:0:
279,249,56949,2,0,P|324:213|326:107,1,154.000004699707,2|0,1:1|3:3,0:0:0:0:
342,40,57270,1,2,1:2:0:0:
426,121,57377,1,2,3:1:0:0:
439,103,57484,2,0,L|526:77,2,77.0000023498536,2|2|2,0:2|3:1|2:2,0:0:0:0:
331,30,57806,5,2,1:2:0:0:
261,118,57913,1,2,1:2:0:0:
248,110,58020,1,2,3:1:0:0:
189,23,58234,6,0,L|99:42,1,77.0000023498536,2|0,3:1|2:2,0:0:0:0:
45,2,58451,1,0,3:3:0:0:
4,75,58560,1,0,2:2:0:0:
80,109,58668,2,0,P|139:158|143:236,1,154.000004699707,2|2,1:1|3:1,0:0:0:0:
93,300,58994,1,2,1:2:0:0:
79,317,59103,2,0,L|3:332,2,77.0000023498536,0|0|2,2:2|1:1|3:1,0:0:0:0:
151,355,59429,1,0,2:2:0:0:
226,384,59538,2,0,L|319:375,1,77.0000023498536,2|0,1:1|0:1,0:0:0:0:
375,325,59755,1,2,3:1:0:0:
384,315,59864,1,0,0:1:0:0:
456,369,59973,6,0,P|475:333|462:268,1,77.0000023498536,4|0,3:2|2:2,0:0:0:0:
420,239,60181,1,2,3:1:0:0:
483,188,60285,1,0,2:2:0:0:
430,123,60389,2,0,P|378:167|282:160,1,154.000004699707,2|0,1:1|3:3,0:0:0:0:
263,90,60702,1,2,1:2:0:0:
206,171,60806,1,2,3:1:0:0:
186,167,60910,2,0,L|202:258,2,77.0000023498536,2|2|0,0:2|3:1|2:2,0:0:0:0:
112,114,61223,5,8,1:3:0:0:
117,88,61334,1,4,1:3:0:0:
123,63,61445,1,2,3:1:0:0:
128,38,61556,1,4,1:3:0:0:
110,18,61667,5,6,1:1:0:0:
207,60,61887,2,0,L|258:77,1,52.5000020027161,8|0,2:1|2:2,0:0:0:0:
85,121,62108,2,0,L|35:137,1,52.5000020027161,2|0,3:2|2:2,0:0:0:0:
159,188,62328,1,8,2:1:0:0:
180,204,62439,2,0,L|162:253,1,52.5000020027161,2|2,2:3|3:2,0:0:0:0:
272,161,62653,2,0,L|323:151,1,52.5000020027161,2|0,2:3|2:2,0:0:0:0:
338,242,62863,2,0,L|286:251,1,52.5000020027161,8|2,2:1|3:2,0:0:0:0:
272,269,63073,1,8,1:1:0:0:
260,284,63178,1,2,1:3:0:0:
11,362,63388,5,4,3:1:0:0:
95,379,63602,1,2,2:2:0:0:
117,349,63709,1,2,2:2:0:0:
138,377,63817,1,2,3:2:0:0:
223,343,64032,1,2,2:2:0:0:
248,369,64139,1,2,2:2:0:0:
266,338,64247,1,2,3:3:0:0:
290,370,64354,1,2,2:2:0:0:
311,331,64462,2,0,L|379:346,1,52.5000020027161,2|0,2:2|2:2,0:0:0:0:
465,363,64677,1,2,3:2:0:0:
465,363,64784,1,2,2:2:0:0:
465,363,64892,1,2,2:2:0:0:
311,331,65107,5,0,3:3:0:0:
294,313,65214,1,2,2:2:0:0:
313,304,65322,1,2,2:2:0:0:
297,287,65430,1,2,2:2:0:0:
316,278,65537,1,2,3:2:0:0:
245,225,65752,1,2,2:2:0:0:
182,287,65967,1,2,3:2:0:0:
173,271,66075,1,2,2:0:0:0:
96,231,66290,1,2,2:2:0:0:
87,247,66397,1,2,3:2:0:0:
19,293,66612,1,2,2:2:0:0:
0,150,66827,5,0,3:3:0:0:
86,118,67042,1,2,2:2:0:0:
112,155,67150,1,2,2:2:0:0:
137,116,67257,1,2,3:2:0:0:
225,162,67473,1,2,2:2:0:0:
241,130,67580,1,2,2:2:0:0:
267,154,67688,1,2,3:3:0:0:
283,121,67795,1,2,2:2:0:0:
312,149,67903,2,0,L|383:132,1,52.5000020027161,2|2,0:2|2:2,0:0:0:0:
462,166,68118,1,2,3:2:0:0:
462,166,68225,1,2,2:2:0:0:
462,166,68333,1,2,0:0:0:0:
370,0,68548,5,2,3:2:0:0:
351,9,68655,1,2,0:0:0:0:
367,26,68763,1,2,2:2:0:0:
348,35,68870,1,2,2:2:0:0:
365,53,68978,1,2,3:3:0:0:
290,109,69193,1,2,0:2:0:0:
372,159,69408,1,2,3:2:0:0:
384,167,69516,1,0,1:1:0:0:
282,218,69731,1,0,1:1:0:0:
270,226,69838,5,2,3:2:0:0:
320,238,69946,1,0,1:2:0:0:
371,251,70053,1,0,1:2:0:0:
422,264,70161,1,0,1:2:0:0:
480,324,70268,5,4,1:1:0:0:
502,362,70375,1,2,0:2:0:0:
372,325,70589,1,2,2:2:0:0:
349,363,70696,1,2,3:2:0:0:
260,310,70910,1,2,2:2:0:0:
230,342,71018,1,2,2:2:0:0:
207,303,71125,1,2,3:3:0:0:
177,335,71232,1,2,2:2:0:0:
155,296,71339,1,2,2:2:0:0:
56,335,71553,1,2,3:2:0:0:
56,335,71660,1,2,2:2:0:0:
56,335,71768,1,2,2:2:0:0:
4,245,71982,5,2,3:3:0:0:
17,211,72089,1,2,0:2:0:0:
40,240,72196,1,2,2:2:0:0:
98,166,72410,1,2,3:2:0:0:
170,217,72625,1,2,2:2:0:0:
198,202,72732,1,2,2:2:0:0:
221,226,72839,1,2,3:3:0:0:
249,211,72946,1,2,2:2:0:0:
273,236,73053,1,2,2:2:0:0:
349,201,73268,1,2,3:2:0:0:
413,260,73482,1,2,2:2:0:0:
487,216,73696,5,2,3:3:0:0:
487,216,73910,1,2,2:2:0:0:
425,142,74125,1,2,3:1:0:0:
462,111,74232,1,0,0:0:0:0:
442,78,74339,2,0,L|374:92,1,52.5000020027161,2|2,0:1|2:0,0:0:0:0:
309,103,74553,1,2,3:1:0:0:
242,49,74768,1,2,2:1:0:0:
170,97,74982,2,0,L|157:159,1,52.5000020027161,2|2,3:1|0:0,0:0:0:0:
99,53,75196,2,0,L|109:1,1,52.5000020027161,2|0,0:1|0:0,0:0:0:0:
22,79,75410,5,2,3:3:0:0:
66,144,75516,1,2,2:2:0:0:
5,192,75622,1,2,2:2:0:0:
53,257,75728,1,2,0:0:0:0:
14,290,75834,5,6,3:2:0:0:
26,307,75940,1,2,2:2:0:0:
7,324,76046,1,10,2:3:0:0:
20,341,76152,1,6,2:3:0:0:
103,316,76258,5,6,3:3:0:0:
153,329,76364,1,2,1:1:0:0:
204,343,76470,1,2,1:2:0:0:
255,356,76576,1,2,1:1:0:0:
325,323,76682,1,6,1:1:0:0:
300,309,76894,5,4,1:2:0:0:
359,355,77000,1,0,3:3:0:0:
430,323,77106,2,0,L|515:345,1,62.9999980773926,6|0,1:2|2:2,0:0:0:0:
429,212,77320,5,2,3:2:0:0:
370,262,77427,1,0,3:3:0:0:
299,226,77534,2,0,L|214:248,1,62.9999980773926,6|0,1:1|2:2,0:0:0:0:
179,185,77748,5,2,2:2:0:0:
191,152,77856,1,2,0:2:0:0:
92,188,77963,5,0,3:2:0:0:
102,227,78070,1,0,0:2:0:0:
115,271,78177,1,2,3:1:0:0:
105,284,78391,6,0,L|27:267,1,62.9999980773926,2|0,1:1|2:2,0:0:0:0:
180,358,78606,2,0,L|241:344,1,62.9999980773926,2|0,3:3|2:2,0:0:0:0:
336,377,78820,5,2,3:2:0:0:
368,353,78927,1,0,2:2:0:0:
345,329,79034,1,2,3:2:0:0:
372,300,79141,1,0,3:3:0:0:
355,270,79248,2,0,L|342:192,1,62.9999980773926,2|0,1:1|2:2,0:0:0:0:
419,169,79463,2,0,L|436:103,1,62.9999980773926,10|2,3:0|1:2,0:0:0:0:
406,25,79677,5,2,3:2:0:0:
418,5,79784,1,2,1:3:0:0:
288,44,79998,1,2,1:3:0:0:
280,64,80106,1,2,1:1:0:0:
290,99,80213,1,2,1:3:0:0:
300,130,80320,1,0,3:1:0:0:
228,204,80534,5,4,3:2:0:0:
214,215,80748,5,2,3:2:0:0:
145,164,80856,1,0,3:3:0:0:
76,217,80963,2,0,L|-4:204,1,62.9999980773926,6|0,1:1|2:2,0:0:0:0:
27,49,81177,5,2,2:2:0:0:
96,100,81284,1,2,1:2:0:0:
165,47,81391,1,2,3:2:0:0:
175,36,81498,1,2,0:2:0:0:
280,104,81713,1,0,0:0:0:0:
296,117,81820,1,2,1:1:0:0:
328,104,81927,1,0,2:2:0:0:
357,90,82034,2,0,L|413:58,1,62.9999980773926,0|0,3:3|2:2,0:0:0:0:
512,20,82248,5,2,3:2:0:0:
507,50,82356,1,0,2:2:0:0:
501,81,82463,1,2,3:2:0:0:
495,112,82570,1,0,3:3:0:0:
467,148,82677,6,0,L|476:217,1,62.9999980773926,2|0,1:1|2:2,0:0:0:0:
377,222,82891,2,0,L|429:287,1,62.9999980773926,4|10,3:3|1:3,0:0:0:0:
455,384,83106,5,4,3:2:0:0:
423,354,83213,1,0,1:1:0:0:
372,369,83320,1,4,3:3:0:0:
340,339,83427,1,4,3:3:0:0:
290,361,83534,5,4,1:2:0:0:
263,303,83641,1,0,1:1:0:0:
236,245,83748,1,0,1:2:0:0:
210,188,83856,1,0,1:1:0:0:
139,213,83963,6,0,L|56:208,1,62.9999980773926,4|0,1:1|2:2,0:0:0:0:
3,152,84177,1,2,3:2:0:0:
47,91,84284,1,2,3:3:0:0:
114,125,84391,2,0,L|172:101,1,62.9999980773926,6|0,1:1|2:2,0:0:0:0:
208,12,84606,1,2,3:2:0:0:
246,28,84713,1,2,1:2:0:0:
254,67,84820,1,2,3:2:0:0:
281,93,84927,1,2,0:2:0:0:
370,155,85141,5,0,0:0:0:0:
329,190,85248,2,0,L|309:263,1,62.9999980773926,2|0,1:1|1:1,0:0:0:0:
376,323,85463,2,0,L|388:392,1,62.9999980773926,0|0,3:3|3:3,0:0:0:0:
256,348,85677,5,2,3:2:0:0:
218,368,85784,1,0,2:2:0:0:
177,345,85891,1,2,3:2:0:0:
133,374,85998,1,0,3:3:0:0:
86,361,86106,2,0,P|77:333|62:296,1,62.9999980773926,2|0,1:1|2:2,0:0:0:0:
12,230,86320,2,0,P|21:202|36:165,1,62.9999980773926,2|2,1:2|3:2,0:0:0:0:
127,120,86534,5,2,3:2:0:0:
124,134,86641,1,0,1:0:0:0:
123,145,86748,1,2,0:1:0:0:
120,157,86856,1,0,1:1:0:0:
147,193,86963,1,2,3:1:0:0:
204,176,87070,1,0,1:1:0:0:
247,212,87177,1,0,1:1:0:0:
340,384,87391,6,0,L|353:312,1,62.9999980773926,2|0,3:2|2:2,0:0:0:0:
317,253,87606,1,2,3:2:0:0:
386,212,87713,1,2,3:3:0:0:
334,152,87820,2,0,L|321:80,1,62.9999980773926,6|0,1:1|2:2,0:0:0:0:
387,10,88034,1,2,3:2:0:0:
426,32,88141,1,0,1:2:0:0:
405,76,88248,1,2,3:2:0:0:
421,120,88356,1,0,3:0:0:0:
498,208,88570,5,2,0:0:0:0:
447,226,88677,2,0,L|373:208,1,62.9999980773926,2|0,3:1|3:3,0:0:0:0:
317,253,88891,2,0,L|255:267,1,62.9999980773926,0|0,3:1|3:3,0:0:0:0:
200,324,89106,5,4,1:2:0:0:
123,347,89213,1,2,2:2:0:0:
52,298,89320,1,2,3:3:0:0:
54,224,89427,1,2,3:2:0:0:
77,294,89534,2,0,P|65:323|55:353,1,62.9999980773926,2|0,1:1|3:3,0:0:0:0:
149,247,89748,2,0,P|158:219|173:182,1,62.9999980773926,4|0,2:2|3:3,0:0:0:0:
228,130,89963,5,4,1:1:0:0:
212,56,90070,1,0,1:1:0:0:
149,18,90177,1,0,3:1:0:0:
79,45,90284,1,0,1:1:0:0:
76,77,90391,5,0,1:1:0:0:
98,88,90498,1,0,1:1:0:0:
115,70,90606,1,0,1:1:0:0:
88,62,90713,1,0,1:1:0:0:
207,125,90820,6,0,P|261:136|346:42,1,161.000003070831,6|2,1:1|2:2,0:0:0:0:
406,9,91141,1,0,2:2:0:0:
444,38,91248,2,0,P|455:75|465:115,1,80.5000015354157,2|0,1:2|2:2,0:0:0:0:
398,159,91463,2,0,P|381:196|367:237,1,80.5000015354157,2|0,2:2|1:1,0:0:0:0:
397,374,91677,5,0,3:3:0:0:
433,300,91784,1,0,1:1:0:0:
366,254,91891,2,0,P|328:239|288:236,1,80.5000015354157,2|0,2:2|2:2,0:0:0:0:
218,291,92106,2,0,P|195:324|164:349,1,80.5000015354157,2|0,1:2|2:2,0:0:0:0:
203,196,92320,2,0,P|185:159|179:120,1,80.5000015354157,2|0,2:2|1:1,0:0:0:0:
227,27,92534,6,0,B|146:15|130:99|64:79,1,161.000003070831,2|2,3:1|2:2,0:0:0:0:
28,25,92856,1,2,2:1:0:0:
9,100,92963,2,0,P|-3:149|0:180,2,80.5000015354157,0|0|2,1:1|2:2|2:2,0:0:0:0:
76,251,93391,5,0,3:3:0:0:
117,223,93498,1,0,1:1:0:0:
90,181,93606,1,2,2:2:0:0:
0,272,93820,6,0,P|78:286|147:328,1,161.000003070831,2|2,1:1|2:2,0:0:0:0:
207,282,94141,1,2,0:2:0:0:
224,372,94248,6,0,P|283:300|275:220,1,161.000003070831,6|2,3:1|2:2,0:0:0:0:
240,119,94570,1,2,2:2:0:0:
262,149,94677,2,0,L|360:180,1,80.5000015354157,2|0,1:2|2:2,0:0:0:0:
421,224,94891,1,2,2:2:0:0:
407,245,94998,1,0,1:1:0:0:
417,141,95106,2,0,P|434:99|424:41,1,80.5000015354157,2|0,3:2|1:1,0:0:0:0:
349,81,95320,2,0,P|342:15|320:-20,1,80.5000015354157,2|2,2:2|2:2,0:0:0:0:
189,57,95534,2,0,P|221:43|282:45,1,80.5000015354157,6|0,1:2|2:2,0:0:0:0:
140,122,95748,2,0,P|108:136|47:134,1,80.5000015354157,2|0,2:2|2:2,0:0:0:0:
0,85,95963,6,0,P|40:154|18:247,1,161.000003070831,2|0,3:1|2:0,0:0:0:0:
124,324,96284,1,2,2:1:0:0:
153,339,96391,2,0,P|141:260|181:192,1,161.000003070831,2|2,1:1|2:2,0:0:0:0:
281,251,96820,5,0,3:3:0:0:
311,286,96927,1,0,1:1:0:0:
354,268,97034,1,4,3:3:0:0:
452,344,97248,6,0,L|464:264,1,80.5000015354157,6|0,1:2|1:1,0:0:0:0:
420,198,97463,1,4,3:3:0:0:
484,147,97570,1,0,1:1:0:0:
437,79,97677,6,0,B|378:95|378:95|357:135|357:135|283:156,1,161.000003070831,6|2,1:1|2:2,0:0:0:0:
232,67,97998,1,2,2:2:0:0:
215,54,98106,2,0,L|304:36,1,80.5000015354157,2|0,1:2|2:2,0:0:0:0:
177,140,98320,2,0,L|98:155,1,80.5000015354157,2|0,2:2|2:2,0:0:0:0:
31,104,98534,5,0,3:3:0:0:
0,179,98641,1,0,1:1:0:0:
62,232,98748,2,0,P|75:288|79:327,1,80.5000015354157,2|0,2:2|3:2,0:0:0:0:
159,356,98963,2,0,P|200:316|232:293,1,80.5000015354157,0|0,1:1|2:2,0:0:0:0:
301,240,99177,2,0,P|246:223|210:207,1,80.5000015354157,2|0,2:2|2:2,0:0:0:0:
346,311,99391,6,0,P|393:289|405:160,1,161.000003070831,6|2,3:1|2:2,0:0:0:0:
372,123,99713,1,0,2:2:0:0:
337,141,99820,2,0,B|288:76|288:76|340:2,1,161.000003070831,6|2,1:2|2:2,0:0:0:0:
450,30,100248,5,0,3:3:0:0:
483,68,100356,1,0,1:1:0:0:
452,107,100463,1,0,3:3:0:0:
333,10,100677,6,0,B|275:-6|275:-6|236:14|236:14|180:0,1,161.000003070831,2|4,1:1|2:2,0:0:0:0:
165,88,100998,5,0,1:1:0:0:
186,84,101106,2,0,P|213:107|223:139,1,62.9999980773926,6|0,3:2|2:2,0:0:0:0:
261,203,101320,1,2,2:2:0:0:
261,203,101427,1,2,2:0:0:0:
334,189,101534,2,0,P|364:193|393:181,1,62.9999980773926,2|0,1:2|2:2,0:0:0:0:
226,272,101748,2,0,P|207:296|202:327,1,62.9999980773926,2|0,2:1|2:2,0:0:0:0:
227,129,101963,6,0,P|217:99|194:78,1,62.9999980773926,6|0,3:2|2:2,0:0:0:0:
259,203,102177,1,2,2:2:0:0:
259,203,102284,1,2,2:0:0:0:
333,196,102391,2,0,P|363:202|393:193,1,62.9999980773926,2|0,1:2|2:2,0:0:0:0:
218,269,102606,2,0,P|196:291|190:322,1,62.9999980773926,2|0,2:1|2:2,0:0:0:0:
205,73,102820,6,0,P|228:101|231:134,1,62.9999980773926,6|0,3:2|2:2,0:0:0:0:
258,204,103034,1,2,2:2:0:0:
258,204,103141,1,2,2:0:0:0:
332,202,103248,2,0,P|361:211|392:204,1,62.9999980773926,2|0,1:2|2:2,0:0:0:0:
212,265,103463,2,0,P|189:286|179:315,1,62.9999980773926,2|0,2:1|2:2,0:0:0:0:
301,364,103677,5,4,1:2:0:0:
335,324,103784,1,0,1:0:0:0:
296,284,103891,1,0,3:3:0:0:
477,246,104106,6,0,P|448:287|444:327,1,80.5000015354157,4|0,1:2|3:0,0:0:0:0:
391,198,104320,1,0,1:1:0:0:
382,176,104427,1,0,1:1:0:0:
338,59,104534,6,0,P|317:92|306:134,1,70,6|0,3:2|2:2,0:0:0:0:
258,204,104748,1,2,2:2:0:0:
258,204,104856,1,2,2:0:0:0:
156,187,104963,2,0,P|121:193|86:192,1,70,2|0,1:2|2:2,0:0:0:0:
298,290,105177,2,0,P|321:316|337:347,1,70,2|0,2:1|2:2,0:0:0:0:
313,125,105391,6,0,P|327:93|349:66,1,70,6|0,3:2|2:2,0:0:0:0:
256,203,105606,1,2,2:2:0:0:
256,203,105713,1,2,2:0:0:0:
156,177,105820,2,0,P|121:181|87:177,1,70,2|0,1:2|2:2,0:0:0:0:
289,292,106034,2,0,P|309:320|323:353,1,70,2|0,2:1|2:2,0:0:0:0:
359,74,106248,6,0,P|334:102|314:142,1,70,6|0,3:2|2:2,0:0:0:0:
255,203,106463,1,2,2:2:0:0:
255,203,106570,1,2,2:0:0:0:
157,168,106677,2,0,P|123:169|88:161,1,70,2|0,1:2|2:2,0:0:0:0:
279,294,106891,2,0,P|298:324|308:357,1,70,2|0,2:1|2:2,0:0:0:0:
142,354,107106,5,4,3:2:0:0:
87,373,107213,1,0,0:0:0:0:
49,333,107320,2,0,L|71:216,1,80.5000015354157,2|0,1:1|0:0,0:0:0:0:
157,187,107534,2,0,L|144:90,1,80.5000015354157,6|8,1:1|3:0,0:0:0:0:
99,19,107748,1,4,3:0:0:0:
86,44,107856,1,4,3:0:0:0:
208,32,107963,6,0,P|228:66|236:106,1,80.5000015354157,6|0,3:2|2:2,0:0:0:0:
255,203,108177,1,2,2:2:0:0:
255,203,108284,1,2,2:0:0:0:
180,273,108391,2,0,P|149:300|130:335,1,80.5000015354157,2|0,1:2|2:2,0:0:0:0:
364,216,108606,2,0,P|402:229|442:229,1,80.5000015354157,2|0,2:1|2:2,0:0:0:0:
242,104,108820,6,0,P|238:64|221:28,1,80.5000015354157,6|0,3:2|2:2,0:0:0:0:
253,203,109034,1,2,2:2:0:0:
253,203,109141,1,2,2:0:0:0:
172,267,109248,2,0,P|140:290|117:323,1,80.5000015354157,2|0,1:2|2:2,0:0:0:0:
361,226,109463,2,0,P|398:242|438:246,1,80.5000015354157,2|0,2:1|2:2,0:0:0:0:
235,26,109677,6,0,P|249:63|250:104,1,80.5000015354157,6|0,3:2|2:2,0:0:0:0:
251,203,109891,1,2,2:2:0:0:
251,203,109998,1,2,2:0:0:0:
165,259,110106,2,0,P|131:280|105:311,1,80.5000015354157,2|0,1:2|2:2,0:0:0:0:
357,235,110320,2,0,P|392:255|432:261,1,80.5000015354157,2|0,2:1|2:2,0:0:0:0:
387,383,110534,5,2,3:1:0:0:
334,322,110641,1,0,1:2:0:0:
259,350,110748,2,0,P|220:358|155:330,1,80.5000015354157,0|0,3:2|3:2,0:0:0:0:
35,281,110963,5,2,1:1:0:0:
88,220,111070,1,0,0:0:0:0:
163,248,111177,2,0,P|202:256|267:228,1,80.5000015354157,0|0,1:2|1:2,0:0:0:0:
325,163,111391,5,6,3:1:0:0:
256,192,111498,12,0,112677,1:2:0:0:
100,32,113106,5,0,3:2:0:0:
30,119,113320,2,0,L|52:237,1,105.000004005432,0|0,1:2|1:0,0:0:0:0:
62,227,113641,1,0,3:0:0:0:
75,233,113748,1,0,3:0:0:0:
87,237,113856,1,0,1:0:0:0:
100,243,113963,6,0,L|161:226,3,52.5000020027161,0|8|4|4,3:0|3:0|3:0|3:0,0:0:0:0:
143,317,114391,2,0,L|204:334,3,52.5000020027161,4|0|8|8,1:3|3:0|1:3|1:3,0:0:0:0:
262,276,114820,5,4,3:2:0:0:
313,265,115250,1,0,3:3:0:0:
365,255,115680,1,0,3:3:0:0:
416,245,116110,1,0,3:3:0:0:
468,235,116540,5,0,3:3:0:0:
468,235,116970,1,0,3:3:0:0:
468,235,117400,1,0,3:3:0:0:
468,235,117830,1,2,3:2:0:0:
250,108,118260,5,4,1:2:0:0:
199,119,118690,1,0,3:3:0:0:
147,129,119121,1,0,3:3:0:0:
96,139,119551,1,0,3:3:0:0:
44,149,119981,5,0,3:3:0:0:
44,149,120411,1,0,3:3:0:0:
44,149,120841,1,0,3:3:0:0:
44,149,121271,2,0,P|37:110|28:77,1,73.4999977569581,4|0,3:1|0:0,0:0:0:0:
28,77,121701,5,4,3:2:0:0:
106,26,121915,1,0,3:3:0:0:
182,70,122129,1,0,1:1:0:0:
271,37,122343,1,0,3:2:0:0:
271,37,122451,2,0,L|261:83,1,26.2500010013581,2|2,1:1|2:2,0:0:0:0:
361,78,122665,1,2,1:1:0:0:
361,78,122772,2,0,L|366:108,1,26.2500010013581,0|0,3:3|0:0,0:0:0:0:
459,40,122986,1,0,1:1:0:0:
459,40,123093,1,2,3:1:0:0:
512,195,123415,5,0,3:3:0:0:
434,239,123626,1,0,3:3:0:0:
379,169,123838,1,0,1:1:0:0:
309,230,124049,1,0,3:3:0:0:
309,230,124155,1,0,1:1:0:0:
309,230,124261,2,0,L|338:238,1,26.2500010013581,2|2,1:1|0:1,0:0:0:0:
254,152,124473,2,0,L|293:137,1,26.2500010013581,2|2,3:1|0:1,0:0:0:0:
186,247,124684,2,0,L|148:229,1,26.2500010013581,2|2,1:1|2:1,0:0:0:0:
104,177,124896,2,0,L|75:184,1,26.2500010013581,2|2,3:1|2:1,0:0:0:0:
14,299,125108,5,4,3:2:0:0:
72,363,125319,1,0,3:3:0:0:
153,316,125531,1,0,1:1:0:0:
226,384,125743,1,0,3:3:0:0:
226,384,125848,2,0,L|238:335,1,26.2500010013581,2|2,1:1|2:2,0:0:0:0:
317,317,126060,1,2,1:1:0:0:
317,317,126166,2,0,L|305:364,1,26.2500010013581,0|0,3:3|0:0,0:0:0:0:
390,359,126377,1,0,1:1:0:0:
390,359,126483,2,0,L|403:407,1,26.2500010013581,2|0,3:1|0:0,0:0:0:0:
470,308,126695,5,2,1:1:0:0:
470,308,126801,2,0,L|486:265,1,35,0|0,3:3|0:0,0:0:0:0:
426,224,127015,1,0,3:3:0:0:
341,243,127229,1,2,1:2:0:0:
426,224,127443,1,0,3:1:0:0:
426,224,127551,1,0,1:1:0:0:
426,224,127658,1,2,3:1:0:0:
385,127,127872,1,2,3:1:0:0:
303,153,128086,5,2,1:1:0:0:
199,106,128301,1,2,3:1:0:0:
178,124,128408,1,2,1:1:0:0:
162,100,128515,6,0,L|120:88,1,26.2500010013581,4|0,3:2|0:0,0:0:0:0:
35,138,128732,1,0,3:3:0:0:
35,138,128841,1,2,0:1:0:0:
35,138,128949,1,0,1:1:0:0:
70,53,129167,1,0,3:3:0:0:
70,53,129275,1,2,1:1:0:0:
70,53,129384,2,0,L|60:16,2,26.2500010013581,2|2|0,2:2|1:1|3:3,0:0:0:0:
124,172,129819,5,0,1:1:0:0:
136,188,129928,1,2,3:1:0:0:
122,200,130036,1,0,0:0:0:0:
35,245,130254,5,2,3:3:0:0:
32,256,130361,1,0,0:0:0:0:
29,268,130468,1,0,3:3:0:0:
27,280,130575,1,2,0:1:0:0:
24,292,130682,1,2,1:2:0:0:
93,363,130896,1,0,3:1:0:0:
93,363,131004,2,0,L|127:373,2,26.2500010013581,0|2|2,1:1|3:1|0:1,0:0:0:0:
187,306,131325,1,2,3:1:0:0:
187,306,131432,1,2,0:1:0:0:
187,306,131539,2,0,L|221:317,1,26.2500010013581,2|2,1:1|1:1,0:0:0:0:
277,384,131754,2,0,L|281:356,1,26.2500010013581,2|2,3:1|1:1,0:0:0:0:
299,268,131968,5,4,1:1:0:0:
377,349,132179,1,2,3:3:0:0:
377,349,132284,1,2,0:1:0:0:
377,349,132390,2,0,L|382:322,1,26.2500010013581,0|0,1:1|0:0,0:0:0:0:
473,283,132601,1,2,3:3:0:0:
473,283,132707,1,2,1:1:0:0:
473,283,132813,2,0,L|465:309,2,26.2500010013581,2|2|0,2:2|2:1|3:3,0:0:0:0:
406,200,133235,5,0,1:1:0:0:
409,189,133341,1,2,3:1:0:0:
412,177,133446,1,0,0:0:0:0:
414,165,133552,1,2,3:1:0:0:
402,137,133658,5,4,3:2:0:0:
320,151,134089,1,0,3:3:0:0:
369,51,134521,6,0,L|457:34,1,78.7500030040742,2|0,3:2|0:0,0:0:0:0:
446,36,134952,1,6,3:2:0:0:
155,207,135384,6,0,L|140:276,1,70,4|0,1:0|0:0,0:0:0:0:
155,207,136244,2,0,L|140:276,1,70,2|0,0:1|0:0,0:0:0:0:
155,207,137104,2,0,L|140:276,1,70,2|0,0:1|0:0,0:0:0:0:
238,189,137964,2,0,L|240:175,1,14,2|0,0:2|0:0,0:0:0:0:
155,207,138824,6,0,L|140:276,1,70,2|0,0:1|0:0,0:0:0:0:
155,207,139685,2,0,L|140:276,1,70,2|0,0:1|0:0,0:0:0:0:
155,207,140545,2,0,L|140:276,1,70,2|0,0:1|0:0,0:0:0:0:
238,189,141405,2,0,L|240:175,1,14,2|0,0:2|0:0,0:0:0:0:
155,207,142265,6,0,L|140:276,1,70,2|0,0:1|0:0,0:0:0:0:
155,207,143122,2,0,L|140:276,1,70,2|0,0:1|0:0,0:0:0:0:
155,207,143979,2,0,L|140:276,1,70,2|0,0:1|0:0,0:0:0:0:
238,189,144836,2,0,L|240:175,1,14,2|0,0:0|0:0,0:0:0:0:
155,207,145693,6,0,L|140:276,1,70,2|0,0:1|0:0,0:0:0:0:
155,207,146550,2,0,L|140:276,1,70,2|0,0:1|0:0,0:0:0:0:
155,207,147407,2,0,L|140:276,1,70,2|0,0:1|0:0,0:0:0:0:
240,176,148265,5,0,1:0:0:0:
272,208,148369,5,0,1:0:0:0:
246,171,148474,5,0,1:3:0:0:
265,212,148579,5,0,1:3:0:0:
254,169,148684,5,0,1:0:0:0:
257,214,148789,5,0,1:2:0:0:
261,170,148894,5,0,1:0:0:0:
250,213,148999,5,0,1:2:0:0:
319,265,149104,6,0,P|338:238|330:126,1,125.999996154785,4|2,1:0|0:0,0:0:0:0:
401,87,149425,1,2,0:0:0:0:
339,26,149532,2,0,B|288:4|262:66|227:67,1,125.999996154785,0|2,1:0|2:0,0:0:0:0:
159,34,149854,1,2,2:0:0:0:
151,20,149961,1,0,3:1:0:0:
41,71,150175,1,2,0:0:0:0:
27,89,150282,1,0,0:0:0:0:
39,108,150389,2,0,P|75:149|67:219,1,125.999996154785,2|2,1:2|0:2,0:0:0:0:
139,338,150818,6,0,P|132:315|140:276,1,62.9999980773926,2|0,3:2|0:0,0:0:0:0:
272,269,151032,1,2,0:0:0:0:
249,281,151139,1,2,0:0:0:0:
226,273,151246,2,0,P|217:216|241:136,1,125.999996154785,2|2,1:2|2:0,0:0:0:0:
294,54,151675,5,0,3:0:0:0:
289,35,151782,1,2,2:0:0:0:
393,154,151996,1,2,0:2:0:0:
397,171,152104,2,0,P|466:176|519:140,1,125.999996154785,2|2,1:2|0:2,0:0:0:0:
471,53,152532,6,0,L|409:67,1,62.9999980773926,4|0,3:2|0:0,0:0:0:0:
318,143,152746,1,2,0:0:0:0:
311,169,152854,1,2,0:0:0:0:
303,196,152961,2,0,L|319:265,1,62.9999980773926,2|0,1:2|0:0,0:0:0:0:
289,354,153175,1,2,2:0:0:0:
257,345,153282,1,2,2:0:0:0:
225,338,153389,2,0,L|151:355,1,62.9999980773926,2|2,3:2|0:0,0:0:0:0:
73,285,153604,1,0,0:0:0:0:
82,256,153711,1,2,0:0:0:0:
89,224,153818,2,0,L|72:150,2,62.9999980773926,2|0|2,1:2|0:0|2:2,0:0:0:0:
189,212,154246,5,0,3:0:0:0:
208,205,154354,1,0,0:0:0:0:
219,229,154461,1,2,0:0:0:0:
239,222,154568,1,2,0:0:0:0:
254,247,154675,2,0,L|321:257,3,62.9999980773926,2|0|2|0,1:2|0:0|2:0|0:0,0:0:0:0:
362,332,155104,1,0,3:0:0:0:
378,318,155211,1,2,2:0:0:0:
396,336,155318,1,0,0:0:0:0:
412,322,155425,1,2,0:0:0:0:
483,270,155532,5,6,1:3:0:0:
417,222,155639,1,4,0:3:0:0:
437,143,155746,1,4,1:3:0:0:
363,102,155854,1,4,0:3:0:0:
379,17,155961,5,6,3:1:0:0:
262,62,156175,1,2,0:0:0:0:
240,91,156282,1,2,0:0:0:0:
255,125,156389,2,0,B|213:111|213:111|168:133|168:133|132:122,1,132.999996448517,2|2,1:2|2:0,0:0:0:0:
92,51,156711,1,2,2:0:0:0:
27,105,156818,2,0,P|15:73|0:44,2,66.4999982242585,2|0|2,3:2|0:0|0:0,0:0:0:0:
106,197,157246,1,2,1:2:0:0:
116,231,157354,1,0,0:0:0:0:
91,258,157461,1,2,0:2:0:0:
15,322,157675,6,0,P|54:321|94:344,1,66.4999982242585,2|0,3:2|0:0,0:0:0:0:
184,384,157889,1,2,0:0:0:0:
222,354,157996,1,2,0:0:0:0:
195,306,158104,2,0,P|194:266|222:232,1,66.4999982242585,2|0,1:2|0:0,0:0:0:0:
352,179,158318,2,0,P|317:199|274:192,1,66.4999982242585,2|0,2:0|0:0,0:0:0:0:
198,143,158532,1,2,3:2:0:0:
186,127,158639,1,2,2:0:0:0:
271,36,158854,1,2,0:2:0:0:
283,52,158961,2,0,L|362:35,2,66.4999982242585,2|0|2,1:2|0:0|0:2,0:0:0:0:
427,21,159389,5,4,3:2:0:0:
502,110,159604,1,2,0:0:0:0:
478,132,159711,1,2,0:0:0:0:
493,161,159818,2,0,P|504:214|446:272,1,132.999996448517,2|2,1:2|2:0,0:0:0:0:
393,219,160139,1,2,2:0:0:0:
317,248,160246,2,0,P|271:292|279:356,1,132.999996448517,0|0,3:1|0:0,0:0:0:0:
189,384,160675,5,2,1:2:0:0:
177,343,160782,1,0,0:0:0:0:
165,304,160889,1,2,1:3:0:0:
210,218,161104,6,0,P|184:210|130:225,1,66.4999982242585,4|0,3:2|0:0,0:0:0:0:
24,286,161318,1,0,1:0:0:0:
54,257,161425,1,0,1:0:0:0:
58,212,161532,2,0,P|38:166|43:132,1,66.4999982242585,2|0,1:2|1:0,0:0:0:0:
107,77,161746,5,2,3:2:0:0:
144,100,161854,1,0,0:0:0:0:
188,104,161961,2,0,P|220:86|251:41,1,66.4999982242585,2|8,1:2|2:3,0:0:0:0:
363,10,162175,6,0,P|361:46|385:96,1,66.4999982242585,4|0,3:0|1:0,0:0:0:0:
366,209,162389,2,0,P|335:189|280:185,1,66.4999982242585,4|0,3:0|1:0,0:0:0:0:
210,218,162604,1,0,1:2:0:0:
201,239,162711,1,0,1:0:0:0:
135,292,162818,6,0,P|177:273|261:315,1,140,6|2,1:2|3:2,0:0:0:0:
312,376,163139,1,0,3:3:0:0:
395,365,163246,2,0,B|449:318|449:318|427:220,1,140,4|0,1:0|3:0,0:0:0:0:
329,157,163675,1,2,3:2:0:0:
306,182,163782,1,0,0:0:0:0:
315,213,163889,1,0,3:3:0:0:
430,153,164104,1,2,1:1:0:0:
453,128,164211,1,0,3:0:0:0:
444,97,164318,1,0,3:3:0:0:
349,22,164532,6,0,L|260:31,1,70,2|0,3:2|0:0,0:0:0:0:
224,109,164746,1,2,3:2:0:0:
208,148,164854,1,0,3:3:0:0:
235,182,164961,2,0,B|284:237|284:237|251:320,1,140,2|0,1:2|3:0,0:0:0:0:
132,365,165389,5,2,3:2:0:0:
109,340,165496,1,0,1:3:0:0:
118,309,165604,1,0,1:0:0:0:
127,201,165818,1,2,1:2:0:0:
93,203,165925,1,0,3:0:0:0:
74,176,166032,1,0,3:1:0:0:
0,132,166246,6,0,P|66:139|127:84,1,140,4|2,3:2|3:2,0:0:0:0:
168,24,166568,1,0,3:3:0:0:
241,72,166675,2,0,B|198:131|198:131|214:200,1,140,4|0,1:0|3:0,0:0:0:0:
109,340,167104,1,2,3:2:0:0:
145,312,167211,1,0,0:2:0:0:
136,274,167318,2,0,L|59:252,1,70,0|0,3:3|3:0,0:0:0:0:
218,369,167532,5,0,1:1:0:0:
257,351,167639,1,2,1:0:0:0:
287,376,167746,1,0,3:3:0:0:
327,359,167854,1,2,1:0:0:0:
357,384,167961,2,0,P|396:343|381:250,1,140,2|2,3:2|3:2,0:0:0:0:
351,192,168282,1,0,3:3:0:0:
416,138,168389,2,0,L|502:144,1,70,2|0,1:3|1:0,0:0:0:0:
364,68,168604,2,0,L|294:63,1,70,2|10,3:1|1:3,0:0:0:0:
205,34,168818,5,4,3:2:0:0:
187,43,168925,1,0,1:1:0:0:
202,56,169032,1,4,3:3:0:0:
189,63,169139,1,4,3:3:0:0:
119,94,169246,5,4,1:2:0:0:
81,159,169354,1,0,1:1:0:0:
96,232,169461,1,0,1:2:0:0:
159,273,169568,1,0,1:1:0:0:
235,260,169675,6,0,L|334:283,1,77.0000023498536,4|0,1:1|0:0,0:0:0:0:
385,301,169889,1,0,3:2:0:0:
398,318,169996,1,0,3:3:0:0:
452,243,170104,2,0,B|422:173|422:173|480:93,1,154.000004699707,4|2,1:2|3:1,0:0:0:0:
328,0,170532,5,2,3:2:0:0:
350,30,170639,1,0,0:2:0:0:
330,64,170746,1,2,3:1:0:0:
396,161,170961,1,2,1:1:0:0:
377,147,171068,1,0,3:0:0:0:
335,140,171175,1,0,3:3:0:0:
293,148,171282,1,0,0:0:0:0:
250,186,171389,6,0,P|216:200|167:194,1,77.0000023498536,2|0,3:1|0:0,0:0:0:0:
111,148,171604,1,0,3:2:0:0:
100,126,171711,1,0,3:3:0:0:
47,202,171818,2,0,B|23:278|23:278|79:327,1,154.000004699707,2|2,1:1|3:1,0:0:0:0:
252,382,172246,5,2,3:2:0:0:
279,340,172354,1,0,0:1:0:0:
251,301,172461,1,2,1:1:0:0:
373,362,172675,1,2,3:1:0:0:
382,341,172782,1,0,3:0:0:0:
380,298,172889,1,0,1:1:0:0:
358,262,172996,1,0,0:0:0:0:
315,229,173104,6,0,P|276:212|222:221,1,77.0000023498536,2|0,3:1|0:0,0:0:0:0:
165,241,173318,1,0,3:2:0:0:
151,259,173425,1,0,3:3:0:0:
120,170,173532,2,0,B|98:99|98:99|173:37,1,154.000004699707,4|2,1:2|3:1,0:0:0:0:
323,14,173961,5,2,3:2:0:0:
313,62,174068,1,0,0:1:0:0:
355,94,174175,1,2,3:1:0:0:
512,152,174389,1,2,1:1:0:0:
488,143,174496,1,0,1:0:0:0:
445,145,174604,1,0,3:1:0:0:
405,166,174711,1,0,1:0:0:0:
370,213,174818,6,0,P|356:253|351:289,1,77.0000023498536,4|0,1:2|0:0,0:0:0:0:
274,362,175032,1,0,3:3:0:0:
229,373,175139,1,0,3:2:0:0:
197,337,175246,2,0,P|157:323|121:318,1,77.0000023498536,2|0,1:1|3:0,0:0:0:0:
82,225,175461,2,0,P|43:222|7:208,1,77.0000023498536,6|0,1:1|3:3,0:0:0:0:
4,89,175675,5,4,1:1:0:0:
49,73,175782,1,0,1:1:0:0:
104,79,175889,1,0,3:1:0:0:
147,105,175996,1,0,1:1:0:0:
205,162,176104,1,0,1:1:0:0:
282,180,176211,1,0,1:1:0:0:
353,151,176318,1,0,1:1:0:0:
381,75,176425,1,0,1:1:0:0:
335,15,176532,6,0,B|399:-29|440:43|517:41,1,161.000003070831,6|2,1:1|2:2,0:0:0:0:
502,146,176854,1,0,2:2:0:0:
473,184,176961,2,0,P|436:195|396:206,1,80.5000015354157,2|0,1:2|2:2,0:0:0:0:
351,140,177175,2,0,P|313:123|272:110,1,80.5000015354157,2|0,2:2|1:1,0:0:0:0:
225,44,177389,5,0,3:3:0:0:
165,93,177496,1,0,1:1:0:0:
181,170,177604,2,0,L|153:253,1,80.5000015354157,2|0,2:2|2:2,0:0:0:0:
76,293,177818,2,0,L|129:353,1,80.5000015354157,2|0,1:2|2:2,0:0:0:0:
79,209,178032,2,0,L|0:224,1,80.5000015354157,2|0,2:2|1:1,0:0:0:0:
164,259,178246,2,0,B|217:272|217:272|245:317|245:317|304:326,1,161.000003070831,2|2,3:1|2:2,0:0:0:0:
369,302,178568,1,2,2:1:0:0:
428,373,178675,2,0,P|446:343|447:296,2,80.5000015354157,0|0|2,1:1|2:2|2:2,0:0:0:0:
399,223,179104,5,0,3:3:0:0:
440,195,179211,1,0,1:1:0:0:
413,153,179318,1,2,2:2:0:0:
489,91,179532,6,0,P|422:125|324:109,1,161.000003070831,2|2,1:1|2:2,0:0:0:0:
284,60,179854,1,2,0:2:0:0:
231,0,179961,6,0,P|186:69|202:165,1,161.000003070831,6|2,3:1|2:2,0:0:0:0:
266,211,180282,1,2,2:2:0:0:
244,241,180389,2,0,P|203:249|155:271,1,80.5000015354157,2|0,1:2|2:2,0:0:0:0:
87,310,180604,1,2,2:2:0:0:
40,330,180711,1,0,1:1:0:0:
3,289,180818,2,0,P|20:247|10:189,1,80.5000015354157,2|0,3:2|1:1,0:0:0:0:
78,145,181032,2,0,P|97:180|104:219,1,80.5000015354157,2|2,2:2|2:2,0:0:0:0:
92,64,181246,2,0,P|52:67|16:85,1,80.5000015354157,2|0,1:1|2:2,0:0:0:0:
156,21,181461,2,0,P|195:17|231:0,1,80.5000015354157,2|0,2:2|2:2,0:0:0:0:
317,20,181675,5,2,3:1:0:0:
323,73,181782,1,0,0:0:0:0:
274,98,181889,2,0,P|256:137|251:183,1,80.5000015354157,2|2,1:0|2:1,0:0:0:0:
268,87,182104,2,0,P|250:126|245:172,1,80.5000015354157,0|0,1:1|2:2,0:0:0:0:
281,250,182318,1,2,2:2:0:0:
387,176,182532,5,0,3:3:0:0:
417,141,182639,1,0,1:1:0:0:
460,159,182746,2,0,P|478:198|483:244,1,80.5000015354157,4|0,3:3|0:0,0:0:0:0:
489,223,182961,2,0,P|483:184|466:148,2,80.5000015354157,6|0|4,1:2|1:1|3:3,0:0:0:0:
436,298,183282,1,0,1:1:0:0:
353,279,183389,6,0,B|306:297|306:297|274:352|274:352|229:372,1,161.000003070831,6|2,1:1|2:2,0:0:0:0:
99,346,183711,1,2,2:2:0:0:
78,323,183818,2,0,L|-4:340,1,80.5000015354157,2|0,1:2|2:2,0:0:0:0:
150,236,184032,2,0,L|232:253,1,80.5000015354157,2|0,2:2|2:2,0:0:0:0:
90,155,184246,1,0,3:3:0:0:
55,180,184354,1,0,1:1:0:0:
55,218,184461,2,0,L|28:121,1,80.5000015354157,2|0,2:2|3:2,0:0:0:0:
172,125,184675,2,0,L|199:28,1,80.5000015354157,0|0,1:1|2:2,0:0:0:0:
108,15,184889,2,0,L|10:40,1,80.5000015354157,2|0,2:2|2:2,0:0:0:0:
207,54,185104,6,0,B|260:-1|260:-1|353:29,1,161.000003070831,6|2,3:1|2:2,0:0:0:0:
406,70,185425,1,0,2:2:0:0:
486,16,185532,2,0,B|476:54|476:54|480:40|488:37|499:39|505:46|501:61|501:61|510:28|510:28|512:20|508:9|495:6|487:12,1,161.000003070831,6|2,1:2|2:2,0:0:0:0:
397,83,185961,5,0,3:3:0:0:
373,121,186068,1,0,1:1:0:0:
399,154,186175,1,0,3:3:0:0:
497,180,186389,6,0,P|419:187|334:236,1,161.000003070831,2|4,1:1|2:2,0:0:0:0:
304,288,186711,1,0,1:1:0:0:
227,305,186818,6,0,L|243:384,1,80.5000015354157,6|0,3:2|2:2,0:0:0:0:
256,192,187032,1,2,2:2:0:0:
256,192,187139,1,2,2:0:0:0:
172,110,187246,2,0,L|96:84,1,80.5000015354157,2|0,1:2|2:2,0:0:0:0:
368,160,187461,2,0,L|428:107,1,80.5000015354157,2|0,2:1|2:2,0:0:0:0:
164,118,187675,6,0,L|86:99,1,80.5000015354157,6|0,3:2|2:2,0:0:0:0:
254,192,187889,1,2,2:2:0:0:
254,192,187996,1,2,2:0:0:0:
363,150,188104,2,0,L|419:92,1,80.5000015354157,2|0,1:2|2:2,0:0:0:0:
235,307,188318,2,0,L|258:384,1,80.5000015354157,2|0,2:1|2:2,0:0:0:0:
358,142,188532,6,0,L|408:79,1,80.5000015354157,6|0,3:2|2:2,0:0:0:0:
253,192,188746,1,2,2:2:0:0:
253,192,188854,1,2,2:0:0:0:
156,127,188961,2,0,L|77:114,1,80.5000015354157,2|0,1:2|2:2,0:0:0:0:
244,308,189175,2,0,L|273:384,1,80.5000015354157,2|0,2:1|2:2,0:0:0:0:
391,242,189389,5,4,1:2:0:0:
362,270,189496,1,0,1:0:0:0:
333,250,189604,1,0,3:3:0:0:
253,192,189818,1,4,1:2:0:0:
108,246,190032,5,0,1:1:0:0:
137,218,190139,1,0,1:1:0:0:
166,238,190246,2,0,L|106:297,1,70,6|0,3:2|2:2,0:0:0:0:
253,192,190461,1,2,2:2:0:0:
253,192,190568,1,2,2:0:0:0:
340,246,190675,2,0,L|408:265,1,70,2|0,1:2|2:2,0:0:0:0:
261,91,190889,2,0,L|243:23,1,70,2|0,2:1|2:2,0:0:0:0:
345,239,191104,6,0,L|414:252,1,70,6|0,3:2|2:2,0:0:0:0:
253,192,191318,1,2,2:2:0:0:
253,192,191425,1,2,2:0:0:0:
252,90,191532,2,0,L|228:25,1,70,2|0,1:2|2:2,0:0:0:0:
170,245,191746,2,0,L|124:298,1,70,2|0,2:1|2:2,0:0:0:0:
243,91,191961,6,0,L|214:28,1,70,6|0,3:2|2:2,0:0:0:0:
253,192,192175,1,2,2:2:0:0:
253,192,192282,1,2,2:0:0:0:
349,231,192389,2,0,L|418:238,1,70,2|0,1:2|2:2,0:0:0:0:
175,252,192604,2,0,L|134:309,1,70,2|0,2:1|2:2,0:0:0:0:
256,384,192818,5,4,3:2:0:0:
302,354,192925,1,0,0:0:0:0:
298,299,193032,2,0,L|249:231,1,70,2|0,1:1|0:0,0:0:0:0:
170,243,193246,2,0,L|121:310,1,70,6|8,1:1|3:0,0:0:0:0:
61,155,193461,1,4,3:0:0:0:
89,128,193568,1,4,3:0:0:0:
130,124,193675,6,0,L|187:149,1,62.9999980773926,6|0,3:2|2:2,0:0:0:0:
253,192,193889,1,2,2:2:0:0:
253,192,193996,1,2,2:0:0:0:
327,153,194104,2,0,L|377:116,1,62.9999980773926,2|0,1:2|2:2,0:0:0:0:
253,273,194318,2,0,L|260:335,1,62.9999980773926,2|0,2:1|2:2,0:0:0:0:
324,147,194532,6,0,L|370:106,1,62.9999980773926,6|0,3:2|2:2,0:0:0:0:
253,192,194746,1,2,2:2:0:0:
253,192,194854,1,2,2:0:0:0:
260,273,194961,2,0,L|272:334,1,62.9999980773926,2|0,1:2|2:2,0:0:0:0:
183,155,195175,2,0,L|124:135,1,62.9999980773926,2|0,2:1|2:2,0:0:0:0:
267,272,195389,6,0,L|284:332,1,62.9999980773926,6|0,3:2|2:2,0:0:0:0:
256,189,195604,1,2,2:2:0:0:
256,189,195711,1,2,2:0:0:0:
180,161,195818,2,0,L|120:146,1,62.9999980773926,2|0,1:2|2:2,0:0:0:0:
320,141,196032,2,0,L|362:96,1,62.9999980773926,2|0,2:1|2:2,0:0:0:0:
469,8,196246,5,2,3:1:0:0:
423,39,196354,1,0,1:2:0:0:
375,19,196461,1,0,3:2:0:0:
254,54,196675,5,2,1:1:0:0:
137,19,196889,5,0,1:2:0:0:
89,39,196996,1,0,1:2:0:0:
43,8,197104,1,6,3:1:0:0:
256,192,197211,12,0,198389,1:2:0:0:
497,212,198818,5,0,3:2:0:0:
497,212,199032,2,0,L|381:246,1,105.000004005432,0|0,1:2|1:0,0:0:0:0:
392,254,199354,1,0,3:0:0:0:
387,268,199461,1,0,3:0:0:0:
384,280,199568,1,0,1:0:0:0:
381,291,199675,6,0,L|320:313,3,52.5000020027161,0|8|4|4,3:0|3:0|3:0|3:0,0:0:0:0:
286,370,200104,2,0,L|225:353,3,52.5000020027161,4|0|8|8,1:3|3:0|1:3|1:3,0:0:0:0:
157,341,200532,5,4,3:2:0:0:
146,290,200963,1,0,3:3:0:0:
136,238,201395,1,0,3:3:0:0:
126,187,201826,1,0,3:3:0:0:
116,135,202258,5,0,3:3:0:0:
116,135,202690,1,0,3:3:0:0:
116,135,203121,1,0,3:3:0:0:
116,135,203553,1,2,3:2:0:0:
355,43,203985,5,4,1:2:0:0:
366,94,204413,1,0,3:3:0:0:
376,146,204842,1,0,3:3:0:0:
386,197,205270,1,0,3:3:0:0:
396,249,205699,5,0,3:3:0:0:
396,249,206121,1,0,3:3:0:0:
396,249,206544,2,0,L|420:247,3,24.4999992523194,2|2|2|2,3:1|0:1|0:1|0:1,0:0:0:0:
410,279,206966,2,0,L|434:277,3,24.4999992523194,6|2|2|2,3:1|0:1|0:1|0:1,0:0:0:0:
356,374,207389,5,4,3:2:0:0:
281,337,207603,1,0,3:3:0:0:
279,314,207710,1,2,0:1:0:0:
264,343,207817,1,0,1:1:0:0:
177,319,208031,1,0,3:2:0:0:
167,356,208139,1,2,1:1:0:0:
141,328,208246,1,2,2:2:0:0:
131,365,208353,1,2,1:1:0:0:
103,339,208460,1,0,3:3:0:0:
235,242,208674,1,0,1:1:0:0:
235,242,208781,1,2,3:1:0:0:
235,242,208889,1,0,0:0:0:0:
348,302,209103,5,0,3:3:0:0:
417,260,209317,1,0,3:3:0:0:
390,186,209531,1,0,1:1:0:0:
477,134,209746,5,0,3:3:0:0:
445,103,209853,1,0,1:1:0:0:
494,114,209960,1,2,1:1:0:0:
459,166,210067,1,2,0:1:0:0:
423,212,210174,1,2,3:1:0:0:
390,186,210281,1,2,0:1:0:0:
358,154,210389,1,2,1:1:0:0:
363,133,210496,1,2,2:1:0:0:
368,113,210603,1,2,3:1:0:0:
373,92,210710,1,2,2:1:0:0:
400,68,210817,5,4,3:2:0:0:
346,49,211031,1,0,3:3:0:0:
294,34,211246,1,0,1:1:0:0:
192,62,211460,1,0,3:2:0:0:
205,86,211567,1,2,1:1:0:0:
179,85,211674,1,2,2:2:0:0:
194,113,211781,1,2,1:1:0:0:
163,113,211889,1,0,3:3:0:0:
180,211,212103,1,0,1:1:0:0:
211,203,212210,1,2,3:1:0:0:
73,160,212424,5,2,1:1:0:0:
42,168,212531,1,0,3:3:0:0:
13,238,212746,1,0,3:3:0:0:
81,284,212960,1,0,1:1:0:0:
132,367,213174,1,0,3:3:0:0:
162,316,213281,1,0,1:1:0:0:
178,325,213389,1,2,1:1:0:0:
219,326,213496,1,2,0:1:0:0:
259,355,213603,1,2,3:1:0:0:
355,384,213817,1,2,1:1:0:0:
391,364,213924,1,2,2:1:0:0:
427,337,214031,1,2,3:1:0:0:
403,304,214139,1,2,2:1:0:0:
377,267,214246,5,4,3:2:0:0:
325,252,214460,1,0,3:3:0:0:
272,239,214674,1,0,1:1:0:0:
205,166,214889,1,0,3:2:0:0:
240,158,214996,1,2,1:1:0:0:
202,149,215103,1,2,2:2:0:0:
235,129,215210,1,2,1:1:0:0:
196,133,215317,1,0,3:3:0:0:
243,42,215531,1,0,1:1:0:0:
205,32,215639,1,2,3:1:0:0:
330,98,215853,5,2,1:1:0:0:
368,88,215960,1,0,3:3:0:0:
431,20,216174,1,0,3:3:0:0:
512,69,216389,1,0,1:1:0:0:
443,148,216603,1,0,3:3:0:0:
484,157,216710,1,0,1:1:0:0:
435,160,216817,1,2,1:1:0:0:
498,241,217031,1,2,3:1:0:0:
430,317,217246,1,2,1:1:0:0:
384,308,217353,1,2,2:1:0:0:
340,299,217460,1,2,3:1:0:0:
302,289,217567,1,2,2:1:0:0:
258,316,217674,5,4,3:2:0:0:
275,263,217889,1,0,3:3:0:0:
288,208,218103,1,0,1:1:0:0:
250,119,218317,1,0,3:2:0:0:
212,105,218424,1,2,1:1:0:0:
182,143,218531,1,2,2:2:0:0:
136,120,218639,1,2,1:1:0:0:
113,155,218746,1,0,3:3:0:0:
30,85,218960,1,0,1:1:0:0:
52,47,219067,1,2,3:1:0:0:
218,16,219389,5,4,3:2:0:0:
218,16,219820,1,0,3:3:0:0:
218,16,220252,2,0,L|306:-2,1,73.4999977569581,2|0,3:1|0:0,0:0:0:0:
290,1,220683,1,6,3:2:0:0:
50,152,221115,6,0,B|105:167|155:167|155:167|48:158|147:322|39:308|39:308|85:306|145:329,1,420.000016021729,6|0,1:1|0:0,0:0:0:0:
