osu file format v14

[General]
AudioFilename: audio.mp3
AudioLeadIn: 0
PreviewTime: 20522
Countdown: 0
SampleSet: Soft
StackLeniency: 0.8
Mode: 0
LetterboxInBreaks: 0
WidescreenStoryboard: 1

[Editor]
Bookmarks: 7129,20522,35307,35950,49665,63379,77093,90807,101093,114807,121665,135431,148288,162807,176522,185736,186807,200522,221093
DistanceSpacing: 1.9
BeatDivisor: 4
GridSize: 16
TimelineZoom: 2.5

[Metadata]
Title:Rise
TitleUnicode:ライズ 〜機工城アレキサンダー:天動編〜
Artist:THE PRIMALS
ArtistUnicode:THE PRIMALS
Creator:Arsalan
Version:The Epic of [Crz]Makii (Ultimate)
Source:ファイナルファンタジーXIV: 蒼天のイシュガルド
Tags:Garden Tachibana Gekka [Crz]Makii [Crz]Sword Callionet video game critically acclaimed mmorpg Journeys: FINAL FANTASY XIV Arrangement Album ffxiv ff14 metal rock english Heavensward Shadowbringers masayoshi soken 祖堅 正義
BeatmapID:4084833
BeatmapSetID:1911102

[Difficulty]
HPDrainRate:5.5
CircleSize:4
OverallDifficulty:8.5
ApproachRate:9.5
SliderMultiplier:1.8
SliderTickRate:1

[Events]
//Background and Video events
0,0,"RISE.png",0,0
//Break Periods
2,135584,147740
//Storyboard Layer 0 (Background)
//Storyboard Layer 1 (Fail)
//Storyboard Layer 2 (Pass)
//Storyboard Layer 3 (Foreground)
//Storyboard Layer 4 (Overlay)
//Storyboard Sound Samples

[TimingPoints]
1678,428.571428571429,4,2,1,55,1,0
1678,-333.333333333333,4,2,1,55,0,0
8535,-100,4,2,1,55,0,0
17963,-33.3333333333333,4,2,1,55,0,0
18820,419.58041958042,4,2,1,60,1,0
20498,437.956204379563,4,2,1,60,1,0
22249,425.531914893617,4,2,1,75,1,0
23951,428.571428571429,4,2,1,75,1,0
29521,-66.6666666666667,4,2,1,75,0,0
30271,-100,4,2,1,75,0,0
32521,425.531914893617,4,2,1,75,1,0
34223,431.654676258993,4,2,1,60,1,0
34223,-50,4,2,1,60,0,0
35086,-28.5714285714286,4,2,1,60,0,0
35949,428.571428571429,4,2,1,75,1,0
39377,-66.6666666666667,4,2,1,75,0,0
39806,-100,4,2,1,75,0,0
41091,-66.6666666666667,4,2,1,75,0,0
41520,-100,4,2,1,75,0,0
42806,-66.6666666666667,4,2,1,75,0,0
43234,-100,4,2,1,75,0,0
46234,-66.6666666666667,4,2,1,75,0,0
46663,-100,4,2,1,75,0,0
47949,-66.6666666666667,4,2,1,75,0,0
48377,-100,4,2,1,75,0,0
49663,-50,4,2,1,75,0,0
50091,-66.6666666666667,4,2,1,75,0,0
53520,-100,4,2,1,75,0,0
56520,-66.6666666666667,4,2,1,75,0,0
56949,-100,4,2,1,75,0,0
58234,434.782608695653,4,2,1,75,1,0
59973,416.666666666667,4,2,1,75,1,0
59973,-66.6666666666667,4,2,1,75,0,0
60389,-40,4,2,1,75,0,0
61014,-100,4,2,1,75,0,0
61223,444.444444444445,4,2,1,75,1,0
61667,441.176470588236,4,2,1,60,1,0
61667,-133.333333333333,4,2,1,60,0,0
62549,419.58041958042,4,2,1,60,1,0
62549,-133.333333333333,4,2,1,60,0,0
63387,430.10752688172,4,2,1,65,1,0
65107,-133.333333333333,4,2,1,65,0,0
70268,428.571428571429,4,2,1,65,1,0
70696,-133.333333333333,4,2,1,65,0,0
75410,424.028268551237,4,2,1,65,1,0
76682,-133.333333333333,4,2,1,65,0,0
77106,428.571428571429,4,2,1,70,1,0
77106,-66.6666666666667,4,2,1,70,0,0
77534,-33.3333333333333,4,2,1,70,0,0
78177,-100,4,2,1,70,0,0
78820,-66.6666666666667,4,2,1,70,0,0
79248,-33.3333333333333,4,2,1,70,0,0
80534,-66.6666666666667,4,2,1,70,0,0
80963,-33.3333333333333,4,2,1,70,0,0
81606,-100,4,2,1,70,0,0
82248,-66.6666666666667,4,2,1,70,0,0
82677,-33.3333333333333,4,2,1,70,0,0
83963,-66.6666666666667,4,2,1,70,0,0
84391,-33.3333333333333,4,2,1,70,0,0
85463,-100,4,2,1,70,0,0
85677,-66.6666666666667,4,2,1,70,0,0
86106,-33.3333333333333,4,2,1,70,0,0
87391,-66.6666666666667,4,2,1,70,0,0
87820,-33.3333333333333,4,2,1,70,0,0
88891,-100,4,2,1,70,0,0
90820,-66.6666666666667,4,2,1,75,0,1
99391,-33.3333333333333,4,2,1,75,0,1
99820,-66.6666666666667,4,2,1,75,0,1
101106,-50,4,2,1,75,0,1
104534,-45.4545454545455,4,2,1,75,0,1
107106,-30.3030303030303,4,2,1,75,0,1
107963,-41.6666666666667,4,2,1,75,0,1
111391,-41.6666666666667,4,2,1,60,0,0
113106,-100,4,2,1,65,0,0
114820,430.107526881721,4,2,1,55,1,0
114820,-200,4,2,1,55,0,0
121701,428.571428571429,4,2,1,60,1,0
121701,-66.6666666666667,4,2,1,60,0,0
122129,-100,4,2,1,60,0,0
123415,423.280423280424,4,2,1,60,1,0
126801,428.571428571429,4,2,1,60,1,0
128515,434.782608695653,4,2,1,60,1,0
128949,-50,4,2,1,60,0,0
129384,-100,4,2,1,60,0,0
130254,428.571428571429,4,2,1,60,1,0
131968,422.535211267606,4,2,1,60,1,0
133658,431.654676258993,4,2,1,55,1,0
133658,-200,4,2,1,55,0,0
134521,-38.4615384615385,4,2,1,55,0,0
135384,430.107526881721,4,2,2,65,1,0
135814,-100,4,2,2,40,0,0
142265,428.571428571429,4,2,2,40,1,0
148265,419.58041958042,4,2,1,75,1,0
149104,428.571428571429,4,2,1,60,1,0
155961,-76.9230769230769,4,2,1,60,0,0
162818,-66.6666666666667,4,2,1,70,0,0
163246,-33.3333333333333,4,2,1,70,0,0
163675,-100,4,2,1,70,0,0
164532,-66.6666666666667,4,2,1,70,0,0
164961,-33.3333333333333,4,2,1,70,0,0
166032,-100,4,2,1,70,0,0
166246,-66.6666666666667,4,2,1,70,0,0
166675,-33.3333333333333,4,2,1,70,0,0
167746,-100,4,2,1,70,0,0
169675,-66.6666666666667,4,2,1,70,0,0
170104,-33.3333333333333,4,2,1,70,0,0
170532,-100,4,2,1,70,0,0
171389,-66.6666666666667,4,2,1,70,0,0
171818,-33.3333333333333,4,2,1,70,0,0
172889,-100,4,2,1,70,0,0
173104,-66.6666666666667,4,2,1,70,0,0
173532,-33.3333333333333,4,2,1,70,0,0
174604,-100,4,2,1,70,0,0
176532,-66.6666666666667,4,2,1,75,0,1
185104,-33.3333333333333,4,2,1,75,0,1
185532,-66.6666666666667,4,2,1,75,0,1
186818,-50,4,2,1,75,0,1
190246,-45.4545454545455,4,2,1,75,0,1
192818,-30.3030303030303,4,2,1,75,0,1
193675,-41.6666666666667,4,2,1,75,0,1
197104,-41.6666666666667,4,2,1,60,0,0
198818,-100,4,2,1,65,0,0
200532,431.654676258993,4,2,1,55,1,0
200532,-200,4,2,1,55,0,0
203985,428.571428571429,4,2,1,55,1,0
203985,-200,4,2,1,55,0,0
205699,422.535211267606,4,2,1,55,1,0
206544,-133.333333333333,4,2,1,60,0,0
207389,428.571428571429,4,2,1,65,1,0
219389,431.654676258993,4,2,1,55,1,0
220252,-66.6666666666667,4,2,1,55,0,0
220683,-50,4,2,1,55,0,0
221115,428.571428571429,4,2,1,72,1,0
221115,-66.6666666666667,4,2,1,72,0,0
221543,-66.6666666666667,4,2,1,60,0,0
221757,-66.6666666666667,4,2,1,45,0,0
221972,-66.6666666666667,4,2,1,30,0,0
222186,-66.6666666666667,4,2,1,15,0,0
222400,-66.6666666666667,4,2,1,5,0,0

[Colours]
Combo1 : 250,180,240
Combo2 : 120,200,230
Combo3 : 255,230,130
Combo4 : 160,230,150

[HitObjects]
138,32,1678,6,0,P|80:175|184:116,1,377.999988464356,4|2,3:2|3:2,0:0:0:0:
374,32,5106,2,0,P|432:175|328:116,1,377.999988464356,4|4,1:2|3:1,0:0:0:0:
247,35,8535,6,0,L|240:131,1,90,4|0,3:2|3:3,0:0:0:0:
245,138,8963,1,0,1:1:0:0:
324,230,9178,5,0,3:2:0:0:
363,294,9285,1,2,1:1:0:0:
439,299,9392,1,2,2:2:0:0:
487,241,9499,1,2,1:1:0:0:
468,168,9606,1,0,3:3:0:0:
371,85,9820,6,0,L|323:89,1,45,0|2,1:1|3:1,0:0:0:0:
206,164,10035,1,0,0:0:0:0:
287,201,10142,1,2,1:1:0:0:
211,249,10249,6,0,L|110:240,1,90,0|0,3:3|3:3,0:0:0:0:
110,226,10678,1,2,1:2:0:0:
43,96,10892,1,0,3:3:0:0:
31,175,10999,1,0,1:1:0:0:
50,108,11106,5,2,1:1:0:0:
72,111,11213,1,2,0:1:0:0:
94,115,11320,1,2,3:1:0:0:
116,119,11428,1,2,0:1:0:0:
173,60,11535,5,2,1:1:0:0:
204,47,11642,1,2,2:1:0:0:
237,41,11749,1,2,3:1:0:0:
270,42,11856,1,2,2:1:0:0:
303,51,11963,6,0,L|289:146,1,90,4|0,3:2|3:3,0:0:0:0:
301,156,12392,1,0,1:1:0:0:
416,61,12606,1,0,3:3:0:0:
428,166,12713,2,0,L|485:161,1,45,2|2,1:1|2:2,0:0:0:0:
314,339,12928,1,2,1:1:0:0:
326,234,13035,2,0,L|383:239,1,45,0|0,3:3|0:0,0:0:0:0:
242,142,13249,5,0,1:1:0:0:
134,244,13463,1,0,0:0:0:0:
207,295,13570,1,2,1:1:0:0:
123,331,13678,6,0,L|33:323,1,90,0|0,3:3|3:3,0:0:0:0:
22,333,14106,1,2,1:2:0:0:
89,157,14320,1,0,3:1:0:0:
96,247,14428,1,0,1:1:0:0:
103,168,14535,5,2,3:1:0:0:
125,170,14642,1,2,0:1:0:0:
147,173,14749,1,2,3:1:0:0:
170,175,14856,1,2,0:1:0:0:
220,102,14963,5,2,1:1:0:0:
304,131,15070,1,2,1:1:0:0:
231,185,15178,2,0,L|238:244,1,45,2|2,3:1|1:1,0:0:0:0:
333,329,15392,6,0,L|438:322,1,90,4|0,3:2|3:3,0:0:0:0:
439,337,15820,1,0,1:1:0:0:
434,97,16035,1,0,3:3:0:0:
450,171,16142,1,2,1:1:0:0:
402,230,16249,1,2,2:2:0:0:
326,231,16356,1,2,1:1:0:0:
278,172,16463,1,0,3:3:0:0:
191,78,16678,1,0,1:1:0:0:
165,56,16785,1,2,3:1:0:0:
132,54,16892,1,0,0:0:0:0:
104,72,16999,1,2,1:1:0:0:
92,103,17106,5,0,3:3:0:0:
114,231,17213,2,0,L|165:227,1,45,0|0,0:0|3:3,0:0:0:0:
260,163,17428,1,2,0:1:0:0:
281,35,17535,2,0,L|332:39,1,45,2|2,1:2|0:1,0:0:0:0:
431,121,17749,1,0,3:1:0:0:
435,137,17856,1,0,1:1:0:0:
398,250,17963,6,0,L|232:238,1,135.000005149842,2|2,3:1|0:1,0:0:0:0:
131,148,18178,6,0,L|297:136,1,135.000005149842,2|2,3:1|0:1,0:0:0:0:
408,53,18392,6,0,L|242:41,1,135.000005149842,2|2,1:1|1:1,0:0:0:0:
188,97,18606,1,2,3:1:0:0:
194,123,18713,1,2,1:1:0:0:
113,41,18820,6,0,L|21:32,1,90,4|0,1:1|3:3,0:0:0:0:
11,42,19239,1,0,1:1:0:0:
104,140,19449,1,0,3:3:0:0:
113,215,19554,1,2,1:1:0:0:
28,273,19659,1,2,2:2:0:0:
36,348,19764,1,2,2:1:0:0:
132,379,19868,2,0,L|173:381,2,22.5,2|0|0,3:1|0:0|0:0,0:0:0:0:
203,305,20078,5,0,1:1:0:0:
247,188,20183,2,0,L|234:97,1,90,2|2,3:1|3:1,0:0:0:0:
338,35,20498,5,4,3:2:0:0:
256,192,20607,12,0,22030,0:0:0:0:
64,49,22249,5,6,1:1:0:0:
132,116,22461,1,0,3:3:0:0:
204,184,22674,1,0,1:1:0:0:
270,84,22887,2,0,L|278:37,2,45,0|2|2,3:3|1:2|1:2,0:0:0:0:
313,157,23206,1,2,2:2:0:0:
313,157,23312,2,0,P|361:156|416:158,1,90,0|0,3:3|1:1,0:0:0:0:
458,262,23738,1,2,3:2:0:0:
454,290,23844,1,2,3:2:0:0:
450,314,23951,6,0,L|391:306,1,45,2|0,3:2|0:0,0:0:0:0:
334,210,24165,2,0,L|275:218,1,45,2|0,3:3|0:0,0:0:0:0:
148,284,24379,5,0,1:1:0:0:
239,296,24486,1,2,2:2:0:0:
148,284,24593,1,0,3:3:0:0:
239,296,24701,1,2,1:2:0:0:
148,284,24808,2,0,L|145:197,2,45,2|2|0,2:2|2:2|3:3,0:0:0:0:
229,160,25129,2,0,P|291:135|399:124,1,135,2|4,2:2|3:2,0:0:0:0:
456,187,25558,1,0,3:3:0:0:
442,39,25665,6,0,L|343:32,1,90,6|2,3:1|3:2,0:0:0:0:
233,33,26093,1,0,1:1:0:0:
234,47,26201,1,2,2:2:0:0:
236,62,26308,1,0,3:3:0:0:
237,77,26415,1,2,1:2:0:0:
145,37,26522,6,0,L|48:33,1,90,2|0,3:2|3:3,0:0:0:0:
28,173,26843,1,2,2:2:0:0:
95,237,26951,2,0,P|153:223|194:223,1,90,2|2,1:3|2:3,0:0:0:0:
319,146,27379,5,2,3:2:0:0:
333,147,27486,1,2,2:2:0:0:
348,149,27593,1,0,3:3:0:0:
364,150,27701,2,0,P|354:213|357:249,1,90,2|2,2:2|2:3,0:0:0:0:
483,363,28022,5,2,3:2:0:0:
393,355,28129,1,0,1:2:0:0:
303,347,28236,2,0,L|301:293,2,45,0|2|0,2:2|1:3|3:3,0:0:0:0:
433,257,28558,2,0,B|459:234|459:234|444:117,1,135,2|2,2:2|0:0,0:0:0:0:
351,32,28986,1,4,1:3:0:0:
316,118,29093,6,0,P|270:109|223:108,1,90,4|2,3:2|3:2,0:0:0:0:
106,37,29414,1,0,2:2:0:0:
45,100,29521,6,0,B|28:157|28:157|66:191|18:232|54:254|54:254|46:316,1,202.500007724762,4|0,1:1|1:1,0:0:0:0:
148,335,29950,1,2,3:2:0:0:
170,336,30057,1,2,2:2:0:0:
192,337,30164,1,0,3:3:0:0:
274,271,30271,2,0,P|267:214|275:132,1,135,2|0,2:2|3:3,0:0:0:0:
381,15,30700,1,0,0:0:0:0:
423,83,30807,6,0,L|489:76,3,45,2|2|2|2,3:2|2:2|3:2|2:2,0:0:0:0:
380,170,31235,1,0,1:1:0:0:
365,168,31343,1,2,2:2:0:0:
350,166,31450,1,0,3:3:0:0:
335,164,31557,1,2,1:2:0:0:
327,284,31664,5,2,2:2:0:0:
417,280,31771,1,2,2:2:0:0:
507,276,31878,1,2,3:2:0:0:
461,207,31985,2,0,B|421:239|421:239|441:337,1,135,2|2,2:2|3:2,0:0:0:0:
297,361,32414,1,0,0:0:0:0:
231,296,32521,6,0,L|240:206,1,90,6|2,3:2|3:2,0:0:0:0:
345,121,32840,1,2,2:2:0:0:
295,46,32946,1,2,1:2:0:0:
280,47,33052,1,2,2:2:0:0:
265,49,33159,1,0,3:3:0:0:
250,51,33265,1,2,1:2:0:0:
184,114,33372,6,0,L|131:111,3,45,4|6|8|8,2:3|2:3|3:3|2:3,0:0:0:0:
96,43,33797,1,2,1:2:0:0:
88,43,33903,1,6,3:3:0:0:
80,44,34010,2,0,L|25:42,1,45,10|10,1:3|1:3,0:0:0:0:
30,200,34223,6,0,P|88:194|126:194,1,90,4|0,3:2|0:0,0:0:0:0:
245,167,34438,1,0,1:1:0:0:
237,226,34546,1,2,1:2:0:0:
229,285,34654,1,0,3:3:0:0:
221,345,34762,1,0,3:0:0:0:
345,264,34870,5,0,1:1:0:0:
362,267,34978,1,2,1:3:0:0:
432,197,35086,6,0,P|416:117|361:130,1,157.500001502037,2|0,3:3|0:0,0:0:0:0:
217,116,35302,6,0,P|233:36|288:49,1,157.500001502037,2|0,1:2|0:0,0:0:0:0:
370,236,35517,5,4,3:1:0:0:
284,319,35625,1,0,0:0:0:0:
187,262,35733,1,4,1:2:0:0:
125,318,35841,1,0,0:0:0:0:
85,281,35949,6,0,L|81:178,1,90,4|2,1:2|3:1,0:0:0:0:
66,50,36377,2,0,L|121:54,1,45,2|0,1:0|2:2,0:0:0:0:
206,114,36591,1,0,3:3:0:0:
211,136,36699,1,2,1:2:0:0:
341,57,36806,6,0,L|241:47,1,90,2|2,3:1|3:1,0:0:0:0:
322,168,37234,2,0,L|373:162,1,45,2|0,1:2|3:3,0:0:0:0:
463,135,37449,2,0,L|450:242,1,90,2|2,0:1|3:1,0:0:0:0:
351,319,37877,1,0,3:3:0:0:
374,318,37984,1,2,2:2:0:0:
270,250,38091,6,0,L|276:201,1,45,2|2,1:1|3:2,0:0:0:0:
178,326,38306,2,0,L|184:375,1,45,2|2,3:1|1:2,0:0:0:0:
109,266,38520,1,2,2:0:0:0:
75,270,38627,1,2,1:2:0:0:
153,175,38734,6,0,L|212:182,1,45,6|2,1:2|2:2,0:0:0:0:
103,93,38949,2,0,L|44:100,1,45,2|0,1:1|1:1,0:0:0:0:
159,22,39163,2,0,L|218:29,1,45,2|0,3:1|0:0,0:0:0:0:
279,84,39377,6,0,P|326:131|389:113,1,135.000005149842,4|2,3:2|3:1,0:0:0:0:
439,208,39806,2,0,L|491:201,1,45,2|0,1:1|2:2,0:0:0:0:
371,286,40020,1,0,3:3:0:0:
376,315,40127,1,2,1:2:0:0:
304,220,40234,6,0,L|244:215,1,45,2|2,3:1|1:2,0:0:0:0:
162,328,40449,2,0,L|222:323,1,45,2|0,3:1|2:2,0:0:0:0:
120,219,40663,1,0,1:1:0:0:
116,186,40770,1,0,3:2:0:0:
191,109,40877,2,0,L|237:114,1,45,2|0,0:1|0:3,0:0:0:0:
324,175,41091,6,0,P|380:136|443:146,1,135.000005149842,2|0,3:1|3:3,0:0:0:0:
468,341,41520,2,0,L|422:336,1,45,2|2,1:1|2:2,0:0:0:0:
328,278,41734,1,2,3:1:0:0:
297,280,41841,1,2,1:2:0:0:
219,358,41949,5,2,2:2:0:0:
166,279,42056,1,2,1:2:0:0:
231,201,42163,2,0,L|282:205,1,45,2|0,3:1|0:3,0:0:0:0:
190,112,42377,2,0,L|139:116,1,45,2|0,1:1|0:3,0:0:0:0:
243,32,42591,2,0,L|294:36,1,45,2|4,3:1|3:3,0:0:0:0:
459,113,42806,6,0,P|391:110|323:122,1,135.000005149842,4|2,3:2|3:1,0:0:0:0:
253,237,43234,2,0,L|261:297,1,45,2|0,1:1|2:2,0:0:0:0:
372,343,43449,1,0,3:3:0:0:
402,343,43556,1,2,1:2:0:0:
478,268,43663,6,0,P|478:215|484:173,1,90,2|2,3:1|3:1,0:0:0:0:
473,39,44091,2,0,L|424:33,1,45,0|0,1:1|3:3,0:0:0:0:
331,72,44306,2,0,L|351:193,1,90,2|2,0:1|3:1,0:0:0:0:
282,314,44734,2,0,L|235:308,1,45,0|0,3:3|2:2,0:0:0:0:
154,217,44949,2,0,L|201:211,1,45,2|0,1:1|3:2,0:0:0:0:
255,127,45163,1,2,3:1:0:0:
253,93,45270,1,2,1:2:0:0:
170,44,45377,6,0,L|108:52,3,45,2|0|2|0,2:2|1:1|3:1|2:2,0:0:0:0:
25,113,45806,2,0,L|21:173,1,45,2|0,1:1|3:3,0:0:0:0:
112,219,46020,2,0,L|116:279,1,45,2|0,2:1|1:2,0:0:0:0:
31,357,46234,6,0,P|100:347|168:353,1,135.000005149842,4|2,3:1|3:1,0:0:0:0:
296,293,46663,2,0,L|349:298,1,45,2|0,1:1|2:2,0:0:0:0:
220,224,46877,1,0,3:3:0:0:
217,195,46984,1,2,1:2:0:0:
289,126,47091,6,0,L|340:132,1,45,2|2,3:1|1:2,0:0:0:0:
234,40,47306,2,0,L|189:45,1,45,2|0,3:1|2:2,0:0:0:0:
121,122,47520,1,0,1:1:0:0:
125,147,47627,1,0,3:3:0:0:
47,67,47734,2,0,L|53:16,1,45,2|0,0:1|0:1,0:0:0:0:
44,215,47949,6,0,P|81:259|161:247,1,135.000005149842,2|2,3:1|3:1,0:0:0:0:
267,198,48377,2,0,L|326:205,3,45,4|0|0|0,1:2|2:2|3:1|3:3,0:0:0:0:
453,52,48806,5,6,1:1:0:0:
408,131,48913,1,0,1:1:0:0:
457,205,49020,1,2,1:1:0:0:
407,280,49127,1,0,1:1:0:0:
303,351,49234,5,4,3:3:0:0:
276,314,49341,1,8,1:3:0:0:
306,280,49449,1,8,1:3:0:0:
278,244,49556,1,8,1:3:0:0:
202,196,49663,6,0,L|20:208,1,180,4|2,1:2|3:1,0:0:0:0:
135,209,50091,2,0,L|206:195,1,67.5000025749208,2|0,1:0|2:2,0:0:0:0:
224,115,50306,1,0,3:3:0:0:
216,80,50413,1,2,1:2:0:0:
305,26,50520,6,0,P|354:32|454:41,1,135.000005149842,2|2,3:1|3:1,0:0:0:0:
368,50,50949,2,0,L|298:24,1,67.5000025749208,2|0,1:2|3:3,0:0:0:0:
293,125,51163,2,0,P|296:164|304:261,1,135.000005149842,2|2,0:1|3:1,0:0:0:0:
307,190,51591,2,0,L|292:121,1,67.5000025749208,0|2,3:3|2:2,0:0:0:0:
356,323,51806,6,0,P|431:311|501:306,2,135.000005149842,2|2|0,1:1|3:1|2:2,0:0:0:0:
153,254,52341,1,2,1:2:0:0:
207,317,52449,2,0,L|204:384,1,67.5000025749208,6|2,1:2|2:2,0:0:0:0:
282,246,52663,2,0,L|354:240,1,67.5000025749208,2|0,1:1|1:1,0:0:0:0:
163,235,52877,2,0,L|91:229,1,67.5000025749208,2|0,3:1|0:0,0:0:0:0:
60,52,53091,6,0,P|116:110|176:90,1,135.000005149842,4|2,3:2|3:1,0:0:0:0:
386,51,53520,2,0,L|326:43,1,45,2|0,1:1|2:2,0:0:0:0:
268,110,53734,1,0,3:3:0:0:
271,146,53841,1,2,1:2:0:0:
342,220,53949,2,0,L|397:212,1,45,2|2,3:1|1:2,0:0:0:0:
316,321,54163,2,0,L|261:313,1,45,2|0,3:1|2:2,0:0:0:0:
212,223,54377,5,0,1:1:0:0:
108,207,54484,1,0,3:2:0:0:
206,237,54591,2,0,L|190:334,1,90,2|2,0:1|3:1,0:0:0:0:
184,276,55020,2,0,L|210:228,1,45,0|2,3:3|2:2,0:0:0:0:
337,132,55234,2,0,L|288:166,1,45,2|2,1:1|2:2,0:0:0:0:
166,113,55449,1,2,3:1:0:0:
166,113,55556,2,0,L|220:173,1,45,2|0,1:2|2:2,0:0:0:0:
444,222,55770,5,2,1:2:0:0:
386,275,55877,2,0,L|399:333,1,45,2|0,3:1|0:3,0:0:0:0:
307,160,56091,2,0,L|358:150,1,45,2|0,1:1|1:1,0:0:0:0:
247,335,56306,2,0,L|200:287,1,45,2|0,3:1|0:0,0:0:0:0:
178,157,56520,6,0,P|129:216|60:205,1,135.000005149842,4|2,3:1|3:1,0:0:0:0:
59,47,56949,2,0,L|106:40,1,45,2|0,1:1|2:2,0:0:0:0:
193,87,57163,1,0,3:3:0:0:
226,88,57270,1,2,1:2:0:0:
302,24,57377,2,0,L|359:31,1,45,2|2,3:1|0:2,0:0:0:0:
432,138,57591,2,0,L|364:148,1,45,2|2,3:1|2:2,0:0:0:0:
261,234,57806,2,0,L|267:176,1,45,2|2,1:2|1:2,0:0:0:0:
295,324,58020,6,0,P|349:319|401:322,1,90,2|2,3:1|3:1,0:0:0:0:
339,331,58451,2,0,L|283:321,1,45,0|0,3:3|2:2,0:0:0:0:
207,237,58668,2,0,L|203:186,1,45,2|0,1:1|0:0,0:0:0:0:
161,344,58886,1,2,3:1:0:0:
137,373,58994,1,2,1:2:0:0:
57,308,59103,2,0,L|55:249,1,45,0|0,2:2|1:1,0:0:0:0:
50,74,59320,6,0,L|121:68,1,45,2|0,3:1|2:2,0:0:0:0:
174,178,59538,2,0,L|223:182,1,45,2|0,1:1|0:1,0:0:0:0:
311,66,59755,2,0,L|375:62,1,45,2|0,3:1|0:1,0:0:0:0:
456,142,59973,6,0,P|446:216|444:285,1,135.000005149842,4|2,3:2|3:1,0:0:0:0:
250,276,60389,6,0,P|298:311|359:293,1,112.5,2|0,1:1|0:0,0:0:0:0:
101,177,60598,2,0,P|149:141|210:160,1,112.5,0|2,3:3|1:2,0:0:0:0:
35,322,60806,5,2,3:1:0:0:
136,296,60910,1,2,0:2:0:0:
61,230,61014,2,0,L|63:177,1,45,2|0,3:1|2:2,0:0:0:0:
166,61,61223,5,8,1:3:0:0:
244,143,61334,1,4,1:3:0:0:
338,82,61445,1,2,3:1:0:0:
413,165,61556,1,4,1:3:0:0:
499,92,61667,2,0,B|491:158|491:158|473:226,1,135.000005149842,6|2,1:1|3:2,0:0:0:0:
251,352,62549,2,0,B|259:286|259:286|277:218,1,135.000005149842,2|2,3:2|3:2,0:0:0:0:
80,64,63388,5,4,3:1:0:0:
96,80,63602,1,2,2:2:0:0:
112,64,63817,1,2,3:2:0:0:
176,128,64032,5,2,2:2:0:0:
192,112,64139,1,2,2:2:0:0:
208,128,64247,1,2,3:3:0:0:
224,112,64354,1,2,2:2:0:0:
240,128,64462,1,2,2:2:0:0:
304,64,64677,5,2,3:2:0:0:
320,80,64784,1,2,2:2:0:0:
336,64,64892,1,2,2:2:0:0:
352,80,64999,1,0,0:0:0:0:
368,64,65107,2,0,L|416:64,2,33.7500012874604,2|2|2,3:3|2:2|2:2,0:0:0:0:
368,176,65537,1,2,3:2:0:0:
368,288,65752,1,2,2:2:0:0:
224,288,65967,6,0,L|176:288,1,33.7500012874604,2|2,3:2|2:0,0:0:0:0:
192,208,66182,2,0,L|144:208,1,33.7500012874604,2|2,0:0|2:2,0:0:0:0:
112,288,66397,2,0,L|64:288,1,33.7500012874604,2|0,3:2|0:0,0:0:0:0:
80,208,66612,2,0,L|32:208,1,33.7500012874604,2|0,2:2|0:0,0:0:0:0:
48,64,66827,5,0,3:3:0:0:
96,112,66935,1,0,0:0:0:0:
144,64,67042,1,2,2:2:0:0:
192,112,67150,1,2,2:2:0:0:
240,64,67257,5,2,3:2:0:0:
240,64,67365,1,2,0:2:0:0:
480,64,67580,5,2,2:2:0:0:
480,64,67688,2,0,L|416:64,1,33.7500012874604,2|2,3:3|2:2,0:0:0:0:
400,160,67903,2,0,L|352:160,1,33.7500012874604,2|2,0:2|2:2,0:0:0:0:
320,272,68118,2,0,L|272:272,1,33.7500012874604,2|2,3:2|2:2,0:0:0:0:
192,160,68333,2,0,L|240:160,1,33.7500012874604,2|0,0:0|0:0,0:0:0:0:
128,48,68548,5,2,3:2:0:0:
80,48,68655,1,2,0:0:0:0:
32,48,68763,1,2,2:2:0:0:
32,96,68870,1,2,2:2:0:0:
32,144,68978,1,2,3:3:0:0:
80,144,69085,1,2,0:0:0:0:
128,144,69193,1,2,0:2:0:0:
128,192,69300,1,2,0:0:0:0:
128,240,69408,1,2,3:2:0:0:
80,240,69516,1,0,1:1:0:0:
32,240,69623,1,2,0:0:0:0:
32,288,69731,1,0,1:1:0:0:
32,336,69838,5,2,3:2:0:0:
128,336,69946,1,0,1:2:0:0:
224,336,70053,1,0,1:2:0:0:
320,336,70161,1,0,1:2:0:0:
416,336,70268,5,4,1:1:0:0:
416,336,70375,1,2,0:2:0:0:
416,48,70589,5,2,2:2:0:0:
416,48,70696,2,0,L|352:48,1,33.7500012874604,2|0,3:2|0:0,0:0:0:0:
416,128,70910,1,2,2:2:0:0:
416,128,71018,2,0,L|304:128,1,101.250003862381,2|2,2:2|2:2,0:0:0:0:
176,128,71553,2,0,L|224:128,1,33.7500012874604,2|2,3:2|2:2,0:0:0:0:
96,48,71768,2,0,L|144:48,1,33.7500012874604,2|0,2:2|0:0,0:0:0:0:
48,192,71982,5,2,3:3:0:0:
48,192,72089,1,2,0:2:0:0:
144,288,72303,5,2,0:2:0:0:
144,288,72410,2,0,L|192:288,1,33.7500012874604,2|0,3:2|0:0,0:0:0:0:
224,192,72625,1,2,2:2:0:0:
224,192,72732,2,0,L|336:192,1,101.250003862381,2|2,2:2|2:2,0:0:0:0:
432,60,73268,2,0,L|432:128,1,67.5000025749208,2|2,3:2|2:2,0:0:0:0:
432,256,73696,5,2,3:3:0:0:
336,256,73910,1,2,2:2:0:0:
336,352,74125,1,2,3:1:0:0:
240,352,74339,1,2,0:1:0:0:
240,256,74553,1,2,3:1:0:0:
144,256,74768,1,2,2:1:0:0:
144,352,74982,1,2,3:1:0:0:
48,352,75196,1,2,0:1:0:0:
48,256,75410,5,2,3:3:0:0:
48,192,75516,1,2,2:2:0:0:
48,128,75622,1,2,2:2:0:0:
112,128,75728,1,2,0:0:0:0:
176,128,75834,1,6,3:2:0:0:
176,192,75940,1,2,2:2:0:0:
176,256,76046,1,10,2:3:0:0:
240,256,76152,1,6,2:3:0:0:
304,256,76258,1,6,3:3:0:0:
304,192,76364,1,2,1:1:0:0:
304,128,76470,1,2,1:2:0:0:
368,128,76576,1,2,1:1:0:0:
432,128,76682,2,0,L|432:208,1,67.5000025749208,6|4,1:1|1:2,0:0:0:0:
425,338,77106,6,0,B|351:321|351:321|369:283|421:297,1,135.000005149842,6|2,1:2|3:2,0:0:0:0:
247,225,77534,6,0,B|395:191|395:191|359:115|255:143,1,270.000010299683,6|2,1:1|2:2,0:0:0:0:
193,44,77856,1,2,0:2:0:0:
121,109,77963,5,0,3:2:0:0:
125,143,78070,1,0,0:2:0:0:
129,177,78177,2,0,L|74:186,1,45,2|0,3:1|0:0,0:0:0:0:
46,277,78391,5,2,1:1:0:0:
90,344,78498,1,0,2:2:0:0:
146,286,78606,1,2,3:3:0:0:
188,354,78713,1,0,2:2:0:0:
240,292,78820,6,0,B|282:304|282:304|324:282|356:296|356:296|372:296,1,135.000005149842,2|2,3:2|3:2,0:0:0:0:
437,159,79248,6,0,P|316:96|376:46,1,270.000010299683,2|10,1:1|3:0,0:0:0:0:
383,115,79570,1,2,1:2:0:0:
294,188,79677,5,2,3:2:0:0:
264,184,79784,1,2,1:3:0:0:
234,181,79891,1,2,0:1:0:0:
204,178,79998,1,2,1:3:0:0:
134,118,80106,5,2,1:1:0:0:
113,209,80213,1,2,1:3:0:0:
134,118,80320,1,0,3:1:0:0:
113,209,80427,1,0,0:0:0:0:
206,178,80534,6,0,L|344:166,1,135.000005149842,4|2,3:2|3:2,0:0:0:0:
457,304,80963,6,0,B|421:349|363:316|363:316|314:285|260:316|260:316|176:285,1,270.000010299683,6|2,1:1|2:2,0:0:0:0:
53,244,81284,1,2,1:2:0:0:
119,303,81391,5,2,3:2:0:0:
113,324,81498,1,2,0:2:0:0:
106,348,81606,2,0,L|54:355,1,45,2|0,3:1|0:0,0:0:0:0:
167,222,81820,2,0,L|221:228,1,45,2|0,1:1|2:2,0:0:0:0:
119,104,82034,2,0,L|67:97,1,45,0|0,3:3|2:2,0:0:0:0:
226,44,82248,6,0,B|289:31|339:36|339:36|330:76,1,135.000005149842,2|2,3:2|3:2,0:0:0:0:
459,186,82677,6,0,B|333:160|231:171|231:171|251:250,1,270.000010299683,2|4,1:1|3:3,0:0:0:0:
305,346,82998,1,10,1:3:0:0:
373,270,83106,5,4,3:2:0:0:
402,274,83213,1,0,1:1:0:0:
493,218,83320,5,4,3:3:0:0:
497,188,83427,1,4,3:3:0:0:
440,107,83534,5,4,1:2:0:0:
390,181,83641,1,0,1:1:0:0:
329,114,83748,1,0,1:2:0:0:
280,189,83856,1,0,1:1:0:0:
223,118,83963,6,0,P|153:127|81:132,1,135.000005149842,4|2,1:1|3:2,0:0:0:0:
29,339,84284,1,2,3:3:0:0:
87,272,84391,6,0,B|161:244|161:244|210:309|268:287|268:287|322:277|358:313,1,270.000010299683,6|2,1:1|3:2,0:0:0:0:
415,357,84713,1,2,1:2:0:0:
469,291,84820,5,2,3:2:0:0:
467,261,84927,1,2,0:2:0:0:
465,231,85034,1,2,3:1:0:0:
463,201,85141,1,0,0:0:0:0:
387,142,85248,5,2,1:1:0:0:
390,97,85356,1,0,1:1:0:0:
394,52,85463,2,0,L|454:55,1,45,0|0,3:3|3:3,0:0:0:0:
296,113,85677,6,0,P|233:127|166:102,1,135.000005149842,2|2,3:2|3:2,0:0:0:0:
65,27,86106,6,0,B|56:70|75:103|75:103|82:148|36:169|36:169|80:214|55:302,1,270.000010299683,2|2,1:1|1:2,0:0:0:0:
140,360,86427,1,2,3:2:0:0:
200,301,86534,1,2,3:2:0:0:
229,302,86641,1,0,1:0:0:0:
259,304,86748,1,2,0:1:0:0:
289,306,86856,1,0,1:1:0:0:
377,262,86963,5,2,3:1:0:0:
366,369,87070,1,0,1:1:0:0:
377,262,87177,1,0,1:1:0:0:
366,369,87284,1,0,0:0:0:0:
289,306,87391,6,0,B|190:291|190:291|151:306,1,135.000005149842,2|2,3:2|3:2,0:0:0:0:
67,191,87820,6,0,P|131:81|165:154,1,270.000010299683,6|2,1:1|3:2,0:0:0:0:
285,206,88141,1,0,1:2:0:0:
347,147,88248,5,2,3:2:0:0:
346,117,88356,1,0,3:0:0:0:
345,87,88463,1,2,3:1:0:0:
345,57,88570,1,2,0:0:0:0:
238,112,88677,5,2,3:1:0:0:
238,156,88784,1,0,3:3:0:0:
239,201,88891,2,0,L|292:201,1,45,0|0,3:1|3:3,0:0:0:0:
419,144,89106,5,4,1:2:0:0:
417,166,89213,1,2,2:2:0:0:
415,188,89320,1,2,3:3:0:0:
476,253,89427,5,2,3:2:0:0:
404,307,89534,5,2,1:1:0:0:
402,329,89641,1,0,3:3:0:0:
399,354,89748,2,0,L|346:350,1,45,4|0,2:2|3:3,0:0:0:0:
217,350,89963,5,4,1:1:0:0:
132,366,90070,1,0,1:1:0:0:
71,304,90177,1,0,3:1:0:0:
88,220,90284,1,0,1:1:0:0:
168,187,90391,1,0,1:1:0:0:
248,154,90498,1,0,1:1:0:0:
265,69,90606,1,0,1:1:0:0:
204,8,90713,1,0,1:1:0:0:
119,24,90820,6,0,P|111:90|106:163,1,135.000005149842,6|2,1:1|2:2,0:0:0:0:
138,318,91141,1,0,2:2:0:0:
199,260,91248,2,0,L|356:275,1,135.000005149842,2|2,1:2|2:2,0:0:0:0:
453,339,91570,1,0,1:1:0:0:
453,339,91677,6,0,L|381:348,1,67.5000025749208,0|0,3:3|1:1,0:0:0:0:
306,197,91891,2,0,L|318:123,1,67.5000025749208,2|0,2:2|2:2,0:0:0:0:
248,345,92106,2,0,L|176:354,1,67.5000025749208,2|0,1:2|2:2,0:0:0:0:
101,203,92320,2,0,L|113:129,1,67.5000025749208,2|0,2:2|1:1,0:0:0:0:
229,28,92534,6,0,P|284:85|336:79,1,135.000005149842,2|2,3:1|2:2,0:0:0:0:
458,46,92856,1,2,2:1:0:0:
486,128,92963,2,0,L|472:208,1,67.5000025749208,0|0,1:1|2:2,0:0:0:0:
340,350,93177,2,0,L|354:270,1,67.5000025749208,2|0,2:2|0:0,0:0:0:0:
287,166,93391,2,0,L|206:177,2,67.5000025749208,0|0|2,3:3|1:1|2:2,0:0:0:0:
436,190,93820,1,2,1:1:0:0:
447,202,94034,1,2,2:2:0:0:
458,214,94248,6,0,L|441:352,1,135.000005149842,6|2,3:1|2:2,0:0:0:0:
281,358,94570,1,2,2:2:0:0:
218,298,94677,2,0,P|222:224|245:166,1,135.000005149842,2|2,1:2|2:2,0:0:0:0:
374,58,94998,1,0,1:1:0:0:
374,58,95106,6,0,L|444:66,1,67.5000025749208,2|0,3:2|1:1,0:0:0:0:
276,246,95320,2,0,L|206:254,1,67.5000025749208,2|2,2:2|2:2,0:0:0:0:
422,214,95534,2,0,L|414:284,1,67.5000025749208,6|0,1:2|2:2,0:0:0:0:
234,116,95748,2,0,L|226:46,1,67.5000025749208,2|0,2:2|2:2,0:0:0:0:
165,331,95963,6,0,P|79:313|80:269,1,135.000005149842,2|0,3:1|2:0,0:0:0:0:
146,158,96284,1,2,2:1:0:0:
197,221,96391,2,0,L|275:211,1,67.5000025749208,2|0,1:1|2:2,0:0:0:0:
408,59,96606,2,0,L|330:49,1,67.5000025749208,2|0,2:2|0:0,0:0:0:0:
176,27,96820,5,0,3:3:0:0:
75,71,96927,1,0,1:1:0:0:
176,27,97034,2,0,L|174:107,1,67.5000025749208,4|0,3:3|0:0,0:0:0:0:
68,289,97248,2,0,L|66:209,1,67.5000025749208,6|0,1:2|1:1,0:0:0:0:
221,229,97463,5,4,3:3:0:0:
221,229,97570,1,0,1:1:0:0:
306,134,97677,6,0,P|378:149|457:150,1,135.000005149842,6|2,1:1|2:2,0:0:0:0:
412,357,97998,1,2,2:2:0:0:
366,282,98106,2,0,P|302:294|218:305,1,135.000005149842,2|2,1:2|2:2,0:0:0:0:
73,357,98427,1,0,2:2:0:0:
73,357,98534,6,0,L|59:283,1,67.5000025749208,0|0,3:3|1:1,0:0:0:0:
187,146,98748,2,0,L|267:158,1,67.5000025749208,2|0,2:2|3:2,0:0:0:0:
304,383,98963,2,0,L|290:309,1,67.5000025749208,0|0,1:1|2:2,0:0:0:0:
418,172,99177,2,0,L|498:184,1,67.5000025749208,2|0,2:2|2:2,0:0:0:0:
347,39,99391,6,0,P|227:108|318:175,1,270.000010299683,6|2,3:1|2:2,0:0:0:0:
445,273,99713,1,0,2:2:0:0:
401,345,99820,2,0,L|334:331,1,67.5000025749208,6|0,1:2|2:2,0:0:0:0:
164,148,100034,2,0,L|231:134,1,67.5000025749208,2|0,2:2|0:0,0:0:0:0:
189,294,100248,2,0,L|197:368,2,67.5000025749208,0|0|0,3:3|1:1|3:3,0:0:0:0:
314,156,100677,2,0,L|386:163,1,67.5000025749208,2|0,1:1|0:0,0:0:0:0:
95,40,100891,1,4,2:2:0:0:
95,40,100998,1,0,1:1:0:0:
95,40,101106,6,0,B|118:105|84:146|84:146|45:195|78:205,1,180,6|2,3:2|2:2,0:0:0:0:
185,347,101427,1,2,2:0:0:0:
224,274,101534,2,0,L|316:280,1,90,2|0,1:2|2:2,0:0:0:0:
442,60,101748,2,0,L|350:66,1,90,2|0,2:1|2:2,0:0:0:0:
417,344,101963,6,0,B|394:278|428:238|428:238|467:189|434:179,1,180,6|2,3:2|2:2,0:0:0:0:
327,37,102284,1,2,2:0:0:0:
288,110,102391,2,0,L|196:104,1,90,2|0,1:2|2:2,0:0:0:0:
70,324,102606,2,0,L|162:318,1,90,2|0,2:1|2:2,0:0:0:0:
461,225,102820,6,0,B|420:240|420:240|382:213|288:235,1,180,6|2,3:2|2:2,0:0:0:0:
63,204,103141,1,2,2:0:0:0:
128,262,103248,2,0,L|110:362,1,90,2|0,1:2|2:2,0:0:0:0:
60,107,103463,2,0,L|42:7,1,90,2|0,2:1|2:2,0:0:0:0:
306,157,103677,5,4,1:2:0:0:
438,133,103784,5,0,1:0:0:0:
355,26,103891,6,0,L|258:43,1,90,0|0,3:3|0:0,0:0:0:0:
89,182,104106,6,0,L|81:287,1,90,4|0,1:2|3:0,0:0:0:0:
306,227,104320,5,0,1:1:0:0:
438,251,104427,5,0,1:1:0:0:
355,358,104534,6,0,P|308:343|152:333,1,198.000006042481,6|2,3:2|2:2,0:0:0:0:
18,368,104856,1,2,2:0:0:0:
73,291,104963,2,0,L|66:180,1,99.0000030212403,2|0,1:2|2:2,0:0:0:0:
318,215,105177,2,0,L|416:222,1,99.0000030212403,2|0,2:1|2:2,0:0:0:0:
157,26,105391,6,0,P|204:41|356:49,1,198.000006042481,6|2,3:2|2:2,0:0:0:0:
494,16,105713,1,2,2:0:0:0:
439,93,105820,2,0,L|446:204,1,99.0000030212403,2|0,1:2|2:2,0:0:0:0:
129,339,106034,2,0,L|122:228,1,99.0000030212403,2|0,2:1|2:2,0:0:0:0:
389,263,106248,6,0,P|335:363|292:303,1,198.000006042481,6|2,3:2|2:2,0:0:0:0:
202,132,106570,1,2,2:0:0:0:
244,205,106677,2,0,L|349:193,1,99.0000030212403,2|0,1:2|2:2,0:0:0:0:
153,48,106891,2,0,L|48:36,1,99.0000030212403,2|0,2:1|2:2,0:0:0:0:
36,222,107106,6,0,L|55:369,1,148.500001416206,4|0,3:2|0:0,0:0:0:0:
198,160,107320,6,0,L|217:307,1,148.500001416206,2|0,1:1|0:0,0:0:0:0:
374,118,107534,6,0,L|393:265,1,148.500001416206,6|8,1:1|3:0,0:0:0:0:
200,44,107748,1,4,3:0:0:0:
86,65,107856,1,4,3:0:0:0:
161,148,107963,6,0,P|239:248|275:211,1,215.999993408203,6|2,3:2|2:2,0:0:0:0:
469,89,108284,1,2,2:0:0:0:
418,24,108391,2,0,L|300:21,1,107.999996704102,2|0,1:2|2:2,0:0:0:0:
321,301,108606,2,0,L|440:287,1,107.999996704102,2|0,2:1|2:2,0:0:0:0:
222,112,108820,6,0,B|182:97|146:126|146:126|79:94|9:114,1,215.999993408203,6|2,3:2|2:2,0:0:0:0:
60,362,109141,1,2,2:0:0:0:
122,274,109248,2,0,L|233:285,1,107.999996704102,2|0,1:2|2:2,0:0:0:0:
439,180,109463,2,0,L|462:66,1,107.999996704102,2|0,2:1|2:2,0:0:0:0:
208,24,109677,6,0,P|107:93|192:136,1,215.999993408203,6|2,3:2|2:2,0:0:0:0:
286,346,109998,1,2,2:0:0:0:
337,267,110106,2,0,L|452:285,1,107.999996704102,2|0,1:2|2:2,0:0:0:0:
128,54,110320,2,0,L|13:72,1,107.999996704102,2|0,2:1|2:2,0:0:0:0:
63,334,110534,5,2,3:1:0:0:
223,311,110641,5,0,1:2:0:0:
115,189,110748,6,0,L|5:207,1,107.999996704102,0|0,3:2|3:2,0:0:0:0:
360,41,110963,6,0,L|470:59,1,107.999996704102,2|0,1:1|0:0,0:0:0:0:
244,151,111177,5,0,1:2:0:0:
251,182,111284,1,0,1:2:0:0:
256,211,111391,1,6,3:1:0:0:
256,192,111498,12,0,112891,0:0:0:0:
362,82,113106,6,0,L|421:73,1,45,0|0,3:2|0:0,0:0:0:0:
288,203,113320,2,0,L|354:211,1,45,0|0,1:2|0:0,0:0:0:0:
144,276,113534,1,0,1:0:0:0:
148,305,113641,1,0,3:0:0:0:
152,335,113748,1,0,3:0:0:0:
156,365,113856,1,0,1:0:0:0:
266,311,113963,5,0,3:0:0:0:
323,241,114070,1,8,3:0:0:0:
380,311,114177,1,4,3:0:0:0:
432,238,114284,1,4,3:0:0:0:
329,141,114391,5,4,1:3:0:0:
422,125,114498,1,0,3:0:0:0:
329,141,114606,1,8,1:3:0:0:
422,125,114713,1,8,1:3:0:0:
256,192,114820,6,0,B|226:78|124:136|124:136|141:248|46:227|46:227|39:173|1:134|1:134|34:47|34:47|156:51,1,630,4|2,3:2|3:2,0:0:0:0:
249,325,118260,6,0,B|279:211|381:269|381:269|364:381|459:360|459:360|466:306|504:267|504:267|470:180|470:180|349:184,1,630,4|4,1:2|3:1,0:0:0:0:
442,35,121486,5,0,0:0:0:0:
410,30,121594,1,0,0:0:0:0:
327,62,121701,6,0,P|288:105|206:103,1,135,4|0,3:2|3:3,0:0:0:0:
55,46,122022,1,2,0:1:0:0:
104,100,122129,2,0,L|96:163,1,45,0|0,1:1|0:0,0:0:0:0:
55,252,122343,6,0,L|163:239,1,90,0|2,3:2|2:2,0:0:0:0:
192,358,122665,1,2,1:1:0:0:
234,299,122772,2,0,L|287:305,1,45,0|0,3:3|0:0,0:0:0:0:
441,348,122986,6,0,P|439:290|441:247,1,90,0|0,1:1|0:0,0:0:0:0:
363,165,123308,1,2,1:1:0:0:
404,106,123415,2,0,L|460:115,1,45,0|0,3:3|0:0,0:0:0:0:
271,38,123626,6,0,P|214:70|170:65,1,90,0|0,3:3|1:1,0:0:0:0:
30,42,123944,1,2,0:1:0:0:
79,99,124049,2,0,L|73:160,1,45,0|0,3:3|1:1,0:0:0:0:
128,369,124261,5,2,1:1:0:0:
180,310,124367,1,2,0:1:0:0:
202,310,124473,1,2,3:1:0:0:
224,311,124579,1,2,0:1:0:0:
300,245,124684,5,2,1:1:0:0:
340,313,124790,1,2,2:1:0:0:
362,313,124896,1,2,3:1:0:0:
384,314,125002,1,2,2:1:0:0:
455,256,125108,6,0,P|452:184|453:156,1,90,4|0,3:2|3:3,0:0:0:0:
372,34,125425,1,2,0:1:0:0:
344,100,125531,2,0,L|273:88,1,45,0|0,1:1|0:0,0:0:0:0:
74,65,125743,6,0,P|140:62|198:65,1,90,0|2,3:3|2:2,0:0:0:0:
51,239,126060,1,2,1:1:0:0:
81,173,126166,2,0,L|131:177,1,45,0|0,3:3|0:0,0:0:0:0:
274,298,126377,6,0,P|230:341|194:331,1,90,0|0,1:1|0:0,0:0:0:0:
270,97,126695,1,2,1:1:0:0:
302,162,126801,2,0,L|354:153,1,45,0|0,3:3|0:0,0:0:0:0:
465,46,127015,6,0,P|456:115|457:144,1,90,0|2,3:3|1:2,0:0:0:0:
387,338,127336,1,2,0:1:0:0:
411,270,127443,2,0,L|462:279,1,45,0|0,3:1|1:1,0:0:0:0:
260,94,127658,5,2,3:1:0:0:
313,143,127765,1,2,0:1:0:0:
310,165,127872,1,2,3:1:0:0:
308,187,127979,1,2,0:1:0:0:
378,246,128086,5,2,1:1:0:0:
325,295,128193,1,2,1:1:0:0:
327,317,128301,1,2,3:1:0:0:
329,339,128408,1,2,1:1:0:0:
417,366,128515,6,0,L|465:371,3,45,4|0|0|2,3:2|0:0|3:3|0:1,0:0:0:0:
341,284,128949,6,0,L|361:96,1,180,0|0,1:1|3:3,0:0:0:0:
416,242,129275,1,2,1:1:0:0:
378,181,129384,2,0,L|312:185,1,45,2|2,2:2|1:1,0:0:0:0:
220,50,129601,2,0,L|286:54,1,45,0|0,3:3|0:0,0:0:0:0:
171,190,129819,6,0,P|113:167|108:129,1,90,0|0,1:1|0:0,0:0:0:0:
171,333,130145,1,2,1:1:0:0:
209,271,130254,2,0,L|256:277,1,45,2|0,3:3|0:0,0:0:0:0:
461,348,130468,6,0,P|396:338|363:338,1,90,0|2,3:3|1:2,0:0:0:0:
361,129,130789,1,2,0:1:0:0:
398,191,130896,2,0,L|449:183,1,45,0|0,3:1|1:1,0:0:0:0:
299,37,131111,5,2,3:1:0:0:
272,104,131218,1,2,0:1:0:0:
249,101,131325,1,2,3:1:0:0:
227,99,131432,1,2,0:1:0:0:
162,162,131539,5,2,1:1:0:0:
135,95,131646,1,2,1:1:0:0:
112,97,131754,1,2,3:1:0:0:
90,99,131861,1,2,1:1:0:0:
36,177,131968,2,0,L|42:244,2,45,4|0|2,1:1|0:0|3:3,0:0:0:0:
102,300,132284,5,2,0:1:0:0:
102,300,132390,2,0,L|149:302,1,45,0|0,1:1|0:0,0:0:0:0:
260,232,132601,5,2,3:3:0:0:
230,214,132707,2,0,L|232:167,1,45,2|2,1:1|2:2,0:0:0:0:
403,69,132918,5,2,2:1:0:0:
335,112,133024,2,0,L|343:176,1,45,0|0,3:3|0:0,0:0:0:0:
458,352,133235,5,0,1:1:0:0:
374,283,133341,2,0,L|383:214,1,45,2|0,3:1|0:0,0:0:0:0:
454,108,133552,5,2,3:1:0:0:
289,186,133658,6,0,L|189:179,1,90,4|0,3:2|3:3,0:0:0:0:
69,29,134521,6,0,B|160:117|76:177|76:177|159:253|53:327,1,350.999983932496,2|0,3:2|0:0,0:0:0:0:
443,355,134952,6,0,B|352:267|436:207|436:207|353:131|459:57,1,350.999983932496,6|0,3:2|0:0,0:0:0:0:
256,192,135384,5,4,1:0:0:0:
208,176,148265,5,0,1:0:0:0:
228,144,148369,5,0,1:0:0:0:
264,136,148474,5,0,1:3:0:0:
296,156,148579,5,0,1:3:0:0:
303,193,148684,5,0,1:0:0:0:
282,224,148789,5,0,1:2:0:0:
245,231,148894,5,0,1:0:0:0:
214,209,148999,5,0,1:2:0:0:
256,192,149104,6,0,L|357:202,1,90,4|2,1:0|0:0,0:0:0:0:
373,343,149425,5,2,0:0:0:0:
418,281,149532,2,0,B|488:278|488:278|488:264|488:264|483:253,1,90,0|2,1:0|2:0,0:0:0:0:
427,101,149854,1,2,2:0:0:0:
462,34,149961,6,0,L|509:43,3,45,0|0|2|0,3:1|0:0|0:0|0:0,0:0:0:0:
316,34,150389,2,0,L|326:97,1,45,2|0,1:2|0:0,0:0:0:0:
294,173,150604,1,2,0:2:0:0:
254,171,150711,1,0,2:0:0:0:
196,99,150818,6,0,L|85:107,1,90,2|2,3:2|0:0,0:0:0:0:
32,278,151139,1,2,0:0:0:0:
65,214,151246,2,0,P|121:222|178:226,1,90,2|2,1:2|2:0,0:0:0:0:
324,341,151568,1,0,0:0:0:0:
288,276,151675,6,0,L|232:288,1,45,0|2,3:0|2:0,0:0:0:0:
258,152,151889,2,0,L|206:132,1,45,0|2,0:0|0:2,0:0:0:0:
342,55,152104,2,0,P|388:39|440:36,1,90,2|2,1:2|0:2,0:0:0:0:
462,279,152532,6,0,L|456:337,3,45,4|0|2|2,3:2|0:0|0:0|0:0,0:0:0:0:
436,175,152961,2,0,L|333:180,1,90,2|2,1:2|2:0,0:0:0:0:
278,317,153282,1,2,2:0:0:0:
236,258,153389,2,0,P|179:263|128:265,1,90,2|0,3:2|0:0,0:0:0:0:
50,186,153818,2,0,L|36:128,1,45,2|0,1:2|0:0,0:0:0:0:
139,97,154032,2,0,L|153:50,1,45,2|0,2:2|2:0,0:0:0:0:
254,147,154246,6,0,P|326:140|371:139,1,90,0|2,3:0|0:0,0:0:0:0:
500,34,154568,1,2,0:0:0:0:
445,88,154675,2,0,P|453:130|460:192,1,90,2|2,1:2|2:0,0:0:0:0:
404,344,154996,1,0,0:0:0:0:
365,253,155104,5,0,3:0:0:0:
335,254,155211,1,2,2:0:0:0:
305,256,155318,1,0,0:0:0:0:
275,258,155425,1,2,0:0:0:0:
198,198,155532,5,6,1:3:0:0:
193,318,155639,1,4,0:3:0:0:
198,198,155746,1,4,1:3:0:0:
193,318,155854,1,4,0:3:0:0:
275,258,155961,6,0,P|343:278|401:249,1,116.999994644165,6|2,3:1|0:0,0:0:0:0:
454,66,156389,2,0,L|377:75,1,58.4999973220826,2|0,1:2|0:0,0:0:0:0:
334,143,156604,1,2,2:0:0:0:
338,174,156711,1,2,2:0:0:0:
261,78,156818,2,0,L|185:68,1,58.4999973220826,2|0,3:2|0:0,0:0:0:0:
126,209,157032,2,0,L|186:198,1,58.4999973220826,2|2,0:0|0:0,0:0:0:0:
46,41,157246,2,0,P|49:91|54:165,1,116.999994644165,2|2,1:2|0:2,0:0:0:0:
51,355,157568,1,0,2:0:0:0:
100,285,157675,6,0,P|159:310|217:302,1,116.999994644165,2|2,3:2|0:0,0:0:0:0:
336,248,157996,1,2,0:0:0:0:
363,330,158104,2,0,L|423:321,1,58.4999973220826,2|0,1:2|0:0,0:0:0:0:
269,169,158318,2,0,L|209:160,1,58.4999973220826,2|0,2:0|0:0,0:0:0:0:
383,61,158532,6,0,L|453:54,3,58.4999973220826,2|2|0|2,3:2|2:0|0:0|0:2,0:0:0:0:
284,132,158961,1,2,1:2:0:0:
288,169,159068,1,0,0:0:0:0:
291,209,159175,2,0,L|350:204,1,58.4999973220826,2|0,0:2|0:0,0:0:0:0:
470,150,159389,6,0,P|464:210|459:283,1,116.999994644165,4|2,3:2|0:0,0:0:0:0:
381,366,159711,1,2,0:0:0:0:
343,295,159818,2,0,L|286:303,1,58.4999973220826,2|0,1:2|0:0,0:0:0:0:
82,356,160032,2,0,L|90:292,1,58.4999973220826,2|2,2:0|2:0,0:0:0:0:
179,167,160246,2,0,P|240:190|304:183,1,116.999994644165,0|0,3:1|0:0,0:0:0:0:
464,91,160568,1,2,0:0:0:0:
414,32,160675,2,0,L|343:41,1,58.4999973220826,2|0,1:2|0:0,0:0:0:0:
294,269,160889,2,0,L|365:260,1,58.4999973220826,2|0,1:3|2:0,0:0:0:0:
270,71,161104,5,4,3:2:0:0:
267,113,161211,1,0,0:0:0:0:
238,145,161318,1,0,1:0:0:0:
195,151,161425,1,0,1:0:0:0:
114,50,161532,5,2,1:2:0:0:
94,53,161639,1,0,1:0:0:0:
75,57,161746,1,2,3:2:0:0:
56,61,161854,1,0,0:0:0:0:
41,178,161961,5,2,1:2:0:0:
132,165,162068,1,8,2:3:0:0:
41,178,162175,1,4,3:0:0:0:
132,165,162282,1,0,1:0:0:0:
93,248,162389,5,4,3:0:0:0:
66,328,162496,1,0,1:0:0:0:
168,304,162604,1,0,1:2:0:0:
141,384,162711,1,0,1:0:0:0:
246,358,162818,6,0,L|330:349,1,67.5000025749208,6|0,1:2|0:0,0:0:0:0:
419,198,163032,1,2,3:2:0:0:
453,204,163139,1,0,3:3:0:0:
353,244,163246,6,0,B|200:281|260:206|76:239,1,270.000010299683,4|0,1:0|3:0,0:0:0:0:
41,51,163568,1,0,0:0:0:0:
99,119,163675,2,0,L|161:110,1,45,2|0,3:2|0:0,0:0:0:0:
241,34,163889,2,0,L|296:38,1,45,0|0,3:3|0:0,0:0:0:0:
341,139,164104,1,2,1:1:0:0:
370,143,164211,1,0,3:0:0:0:
400,147,164318,1,0,3:3:0:0:
430,151,164425,1,0,0:0:0:0:
473,41,164532,6,0,L|395:51,1,67.5000025749208,2|0,3:2|0:0,0:0:0:0:
299,97,164746,1,2,3:2:0:0:
304,137,164854,1,0,3:3:0:0:
364,223,164961,6,0,P|253:296|249:228,1,270.000010299683,2|0,1:2|3:0,0:0:0:0:
177,102,165282,1,0,0:0:0:0:
121,181,165389,5,2,3:2:0:0:
91,177,165496,1,0,1:3:0:0:
61,173,165604,1,0,1:0:0:0:
31,169,165711,1,0,0:0:0:0:
75,299,165818,5,2,1:2:0:0:
141,290,165925,1,0,3:0:0:0:
208,282,166032,2,0,L|201:222,1,45,0|0,3:1|0:0,0:0:0:0:
309,148,166246,6,0,L|382:156,1,67.5000025749208,4|0,3:2|0:0,0:0:0:0:
464,262,166461,1,2,3:2:0:0:
461,299,166568,1,0,3:3:0:0:
360,339,166675,6,0,B|287:333|238:283|238:283|199:335|104:343,1,270.000010299683,4|0,1:0|3:0,0:0:0:0:
42,263,166996,1,0,0:0:0:0:
102,203,167104,5,2,3:2:0:0:
99,173,167211,1,0,0:2:0:0:
96,143,167318,1,0,3:3:0:0:
93,113,167425,1,0,3:0:0:0:
175,42,167532,5,0,1:1:0:0:
264,49,167639,1,2,1:0:0:0:
354,56,167746,2,0,L|342:127,1,45,0|2,3:3|1:0,0:0:0:0:
246,154,167961,5,2,3:2:0:0:
224,204,168068,1,0,0:0:0:0:
248,253,168175,1,2,3:2:0:0:
301,267,168282,1,0,3:3:0:0:
346,237,168389,1,2,1:3:0:0:
391,206,168496,1,0,1:0:0:0:
444,220,168604,1,2,3:1:0:0:
468,270,168711,1,10,1:3:0:0:
446,320,168818,5,4,3:2:0:0:
376,262,168925,5,0,1:1:0:0:
328,338,169032,5,4,3:3:0:0:
262,276,169139,5,4,3:3:0:0:
216,353,169246,5,4,1:2:0:0:
145,294,169354,5,0,1:1:0:0:
97,370,169461,5,0,1:2:0:0:
31,308,169568,5,0,1:1:0:0:
31,308,169675,6,0,L|24:229,3,67.5000025749208,4|0|0|0,1:1|0:0|3:2|3:3,0:0:0:0:
104,158,170104,6,0,P|243:168|394:172,1,270.000010299683,4|2,1:2|3:1,0:0:0:0:
497,110,170425,1,0,0:0:0:0:
400,262,170532,2,0,L|451:277,1,45,2|0,3:2|0:2,0:0:0:0:
291,84,170746,2,0,L|314:36,1,45,2|0,3:1|0:0,0:0:0:0:
161,269,170961,2,0,L|212:284,1,45,2|0,1:1|3:0,0:0:0:0:
52,91,171175,2,0,L|75:43,1,45,0|0,3:3|0:0,0:0:0:0:
189,163,171389,6,0,L|275:172,3,67.5000025749208,2|0|0|0,3:1|0:0|3:2|3:3,0:0:0:0:
66,239,171818,6,0,P|96:373|160:318,1,270.000010299683,2|2,1:1|3:1,0:0:0:0:
241,97,172139,1,0,0:0:0:0:
275,222,172246,5,2,3:2:0:0:
304,219,172354,1,0,0:1:0:0:
334,217,172461,1,2,1:1:0:0:
364,215,172568,1,0,0:0:0:0:
473,89,172675,5,2,3:1:0:0:
406,77,172782,1,0,3:0:0:0:
339,66,172889,2,0,L|334:126,1,45,0|0,1:1|0:0,0:0:0:0:
365,302,173104,6,0,L|447:315,3,67.5000025749208,2|0|0|0,3:1|0:0|3:2|3:3,0:0:0:0:
266,222,173532,6,0,B|214:202|214:202|172:226|172:226|129:220|99:193|99:193|51:221|3:212,1,270.000010299683,4|2,1:2|3:1,0:0:0:0:
107,339,173854,1,0,0:0:0:0:
187,267,173961,5,2,3:2:0:0:
185,237,174068,1,0,0:1:0:0:
184,207,174175,1,2,3:1:0:0:
183,177,174282,1,0,0:0:0:0:
73,208,174389,5,2,1:1:0:0:
79,118,174496,1,0,1:0:0:0:
85,28,174604,2,0,L|152:37,1,45,0|0,3:1|1:0,0:0:0:0:
221,91,174818,5,4,1:2:0:0:
243,90,174925,1,0,0:0:0:0:
265,89,175032,1,0,3:3:0:0:
326,164,175139,5,0,3:2:0:0:
382,87,175246,5,2,1:1:0:0:
404,86,175354,1,0,3:0:0:0:
427,86,175461,2,0,L|427:144,1,45,6|0,1:1|3:3,0:0:0:0:
444,297,175675,5,4,1:1:0:0:
382,358,175782,1,0,1:1:0:0:
296,346,175889,1,0,3:1:0:0:
252,271,175996,1,0,1:1:0:0:
284,188,176104,1,0,1:1:0:0:
316,107,176211,1,0,1:1:0:0:
273,32,176318,1,0,1:1:0:0:
187,21,176425,1,0,1:1:0:0:
125,82,176532,6,0,P|108:187|111:242,1,135.000005149842,6|2,1:1|2:2,0:0:0:0:
130,355,176854,1,0,2:2:0:0:
198,296,176961,2,0,P|291:308|338:306,1,135.000005149842,2|2,1:2|2:2,0:0:0:0:
416,255,177282,1,0,1:1:0:0:
473,307,177389,6,0,L|462:375,1,67.5000025749208,0|0,3:3|1:1,0:0:0:0:
356,161,177604,2,0,L|431:150,1,67.5000025749208,2|0,2:2|2:2,0:0:0:0:
210,307,177818,2,0,L|199:375,1,67.5000025749208,2|0,1:2|2:2,0:0:0:0:
46,155,178032,2,0,L|121:144,1,67.5000025749208,2|0,2:2|1:1,0:0:0:0:
221,51,178246,6,0,B|325:43|325:43|333:60|326:78,1,135.000005149842,2|2,3:1|2:2,0:0:0:0:
168,198,178568,1,2,2:1:0:0:
202,268,178675,2,0,L|278:257,1,67.5000025749208,0|0,1:1|2:2,0:0:0:0:
478,121,178889,2,0,L|402:110,1,67.5000025749208,2|0,2:2|0:0,0:0:0:0:
384,291,179104,2,0,L|391:362,2,67.5000025749208,0|0|2,3:3|1:1|2:2,0:0:0:0:
303,137,179532,1,2,1:1:0:0:
162,227,179746,1,2,2:2:0:0:
159,257,179854,1,2,0:2:0:0:
65,198,179961,6,0,P|51:109|56:47,1,135.000005149842,6|2,3:1|2:2,0:0:0:0:
172,34,180282,1,2,2:2:0:0:
172,34,180389,2,0,L|322:45,1,135.000005149842,2|2,1:2|2:2,0:0:0:0:
411,146,180711,1,0,1:1:0:0:
411,146,180818,6,0,L|394:222,1,67.5000025749208,2|0,3:2|1:1,0:0:0:0:
290,347,181032,2,0,L|273:271,1,67.5000025749208,2|2,2:2|2:2,0:0:0:0:
188,132,181246,2,0,L|171:208,1,67.5000025749208,2|0,1:1|2:2,0:0:0:0:
67,333,181461,2,0,L|50:257,1,67.5000025749208,2|0,2:2|2:2,0:0:0:0:
76,56,181675,6,0,L|154:49,1,67.5000025749208,2|0,3:1|0:0,0:0:0:0:
133,193,181889,2,0,L|211:186,1,67.5000025749208,2|2,1:0|2:1,0:0:0:0:
191,332,182104,2,0,L|269:325,1,67.5000025749208,0|0,1:1|2:2,0:0:0:0:
330,228,182318,1,2,2:2:0:0:
363,227,182425,1,0,0:0:0:0:
429,290,182532,6,0,L|414:364,1,67.5000025749208,0|0,3:3|1:1,0:0:0:0:
406,153,182746,2,0,L|339:147,1,67.5000025749208,4|0,3:3|0:0,0:0:0:0:
153,42,182961,2,0,L|220:36,1,67.5000025749208,6|0,1:2|1:1,0:0:0:0:
224,155,183175,1,4,3:3:0:0:
222,191,183282,1,0,1:1:0:0:
141,246,183389,6,0,P|56:239|51:190,1,135.000005149842,6|2,1:1|2:2,0:0:0:0:
182,89,183711,1,2,2:2:0:0:
224,155,183818,2,0,P|289:143|360:136,1,135.000005149842,2|2,1:2|2:2,0:0:0:0:
468,212,184139,1,0,2:2:0:0:
405,265,184246,6,0,L|415:343,1,67.5000025749208,0|0,3:3|1:1,0:0:0:0:
309,62,184461,2,0,L|228:73,1,67.5000025749208,2|0,2:2|3:2,0:0:0:0:
183,282,184675,2,0,L|193:360,1,67.5000025749208,0|0,1:1|2:2,0:0:0:0:
87,79,184889,2,0,L|6:90,1,67.5000025749208,2|0,2:2|2:2,0:0:0:0:
120,333,185104,6,0,P|213:361|221:218,1,270.000010299683,6|2,3:1|2:2,0:0:0:0:
64,50,185425,1,0,2:2:0:0:
104,122,185532,2,0,L|178:109,1,67.5000025749208,6|0,1:2|2:2,0:0:0:0:
409,46,185746,2,0,L|335:33,1,67.5000025749208,2|0,2:2|0:0,0:0:0:0:
283,152,185961,2,0,P|279:192|281:238,2,67.5000025749208,0|0|0,3:3|1:1|3:3,0:0:0:0:
437,255,186389,1,2,1:1:0:0:
352,348,186604,1,4,2:2:0:0:
352,348,186711,1,0,1:1:0:0:
352,348,186818,6,0,B|262:365|280:303|161:343,1,180,6|2,3:2|2:2,0:0:0:0:
68,273,187139,1,2,2:0:0:0:
136,228,187246,2,0,L|151:132,1,90,2|0,1:2|2:2,0:0:0:0:
41,122,187461,2,0,L|31:24,1,90,2|0,2:1|2:2,0:0:0:0:
160,36,187675,6,0,B|250:19|232:81|351:41,1,180,6|2,3:2|2:2,0:0:0:0:
444,111,187996,1,2,2:0:0:0:
376,156,188104,2,0,L|361:252,1,90,2|0,1:2|2:2,0:0:0:0:
471,262,188318,2,0,L|481:360,1,90,2|0,2:1|2:2,0:0:0:0:
305,335,188532,6,0,P|229:293|241:209,1,180,6|2,3:2|2:2,0:0:0:0:
194,47,188854,1,2,2:0:0:0:
161,115,188961,2,0,L|69:98,1,90,2|0,1:2|2:2,0:0:0:0:
32,328,189175,2,0,L|124:311,1,90,2|0,2:1|2:2,0:0:0:0:
250,225,189389,5,4,1:2:0:0:
362,150,189496,5,0,1:0:0:0:
367,284,189604,6,0,L|470:275,1,90,0|0,3:3|0:0,0:0:0:0:
190,356,189818,2,0,L|87:347,1,90,4|0,1:2|3:0,0:0:0:0:
262,159,190032,5,0,1:1:0:0:
150,234,190139,5,0,1:1:0:0:
145,100,190246,6,0,P|78:103|32:217,1,198.000006042481,6|2,3:2|2:2,0:0:0:0:
153,352,190568,1,2,2:0:0:0:
226,292,190675,2,0,L|324:301,1,99.0000030212403,2|0,1:2|2:2,0:0:0:0:
476,191,190889,2,0,L|372:176,1,99.0000030212403,2|0,2:1|2:2,0:0:0:0:
206,35,191104,6,0,B|56:47|56:47|81:71|79:94,1,198.000006042481,6|2,3:2|2:2,0:0:0:0:
31,269,191425,1,2,2:0:0:0:
86,202,191532,2,0,L|190:208,1,99.0000030212403,2|0,1:2|2:2,0:0:0:0:
219,353,191746,2,0,L|115:347,1,99.0000030212403,2|0,2:1|2:2,0:0:0:0:
306,349,191961,6,0,B|456:337|456:337|431:313|433:290,1,198.000006042481,6|2,3:2|2:2,0:0:0:0:
481,115,192282,1,2,2:0:0:0:
426,182,192389,2,0,L|322:176,1,99.0000030212403,2|0,1:2|2:2,0:0:0:0:
293,31,192604,2,0,L|397:37,1,99.0000030212403,2|0,2:1|2:2,0:0:0:0:
185,68,192818,6,0,L|22:47,1,148.500001416206,4|0,3:2|0:0,0:0:0:0:
196,214,193032,6,0,L|33:193,1,148.500001416206,2|0,1:1|0:0,0:0:0:0:
204,361,193246,6,0,L|41:340,1,148.500001416206,6|8,1:1|3:0,0:0:0:0:
352,282,193461,5,4,3:0:0:0:
478,255,193568,1,4,3:0:0:0:
352,282,193675,6,0,B|356:225|320:180|320:180|328:125|382:81,1,215.999993408203,6|2,3:2|2:2,0:0:0:0:
74,37,193996,1,2,2:0:0:0:
101,120,194104,2,0,L|214:97,1,107.999996704102,2|0,1:2|2:2,0:0:0:0:
130,302,194318,2,0,L|17:279,1,107.999996704102,2|0,2:1|2:2,0:0:0:0:
155,32,194532,6,0,B|151:89|187:134|187:134|179:189|125:233,1,215.999993408203,6|2,3:2|2:2,0:0:0:0:
433,277,194854,1,2,2:0:0:0:
406,194,194961,2,0,L|293:217,1,107.999996704102,2|0,1:2|2:2,0:0:0:0:
377,12,195175,2,0,L|490:35,1,107.999996704102,2|0,2:1|2:2,0:0:0:0:
256,106,195389,6,0,B|135:149|175:79|23:115,1,215.999993408203,6|2,3:2|2:2,0:0:0:0:
100,340,195711,1,2,2:0:0:0:
148,267,195818,2,0,L|261:281,1,107.999996704102,2|0,1:2|2:2,0:0:0:0:
296,30,196032,2,0,L|183:44,1,107.999996704102,2|0,2:1|2:2,0:0:0:0:
348,221,196246,5,2,3:1:0:0:
460,306,196354,5,0,1:2:0:0:
476,165,196461,6,0,L|485:50,1,107.999996704102,0|0,3:2|3:2,0:0:0:0:
275,98,196675,2,0,L|156:113,1,107.999996704102,2|0,1:1|0:0,0:0:0:0:
95,264,196889,5,0,1:2:0:0:
102,293,196996,1,0,1:2:0:0:
108,323,197104,1,6,3:1:0:0:
256,192,197211,12,0,198604,0:0:0:0:
338,77,198818,6,0,L|399:90,3,45,0|0|0|0,3:2|0:0|1:2|0:0,0:0:0:0:
247,170,199246,2,0,L|186:183,3,45,0|0|0|0,1:0|3:0|3:0|1:0,0:0:0:0:
384,202,199675,5,0,3:0:0:0:
413,277,199782,1,8,3:0:0:0:
357,336,199889,1,4,3:0:0:0:
327,260,199996,1,4,3:0:0:0:
171,166,200104,5,4,1:3:0:0:
136,256,200211,1,0,3:0:0:0:
203,326,200318,1,8,1:3:0:0:
239,235,200425,1,8,1:3:0:0:
305,168,200532,6,0,B|201:165|58:22|58:22|89:159|36:272|36:272|126:254,1,630,4|2,3:2|3:2,0:0:0:0:
266,234,203985,6,0,B|360:269|427:178|427:178|475:235|471:297|471:297|414:289,1,360,4|0,1:2|3:3,0:0:0:0:
348,212,206121,1,0,3:3:0:0:
412,121,206544,6,0,L|466:130,1,33.7500012874604,2|2,3:1|0:1,0:0:0:0:
345,68,206755,1,2,0:1:0:0:
342,42,206860,1,2,0:1:0:0:
275,109,206966,5,6,3:1:0:0:
254,132,207072,1,2,0:1:0:0:
229,115,207177,1,2,0:1:0:0:
207,136,207283,1,2,0:1:0:0:
159,36,207389,6,0,L|49:29,1,90,4|0,3:2|3:3,0:0:0:0:
85,69,207710,2,0,L|137:64,1,45,2|0,0:1|1:1,0:0:0:0:
147,191,207924,1,0,0:0:0:0:
147,191,208031,6,0,L|37:184,1,90,0|2,3:2|2:2,0:0:0:0:
76,228,208353,2,0,L|128:223,1,45,2|0,1:1|3:3,0:0:0:0:
141,346,208567,1,0,0:0:0:0:
141,346,208674,6,0,L|31:339,1,90,0|0,1:1|0:0,0:0:0:0:
70,383,208996,2,0,L|122:378,1,45,2|0,1:1|3:3,0:0:0:0:
238,295,209210,1,0,0:0:0:0:
238,295,209317,6,0,L|233:195,1,90,0|0,3:3|1:1,0:0:0:0:
283,232,209639,2,0,L|278:283,1,45,2|0,0:1|3:3,0:0:0:0:
390,338,209960,6,0,L|440:344,3,45,2|2|2|2,1:1|0:1|3:1|0:1,0:0:0:0:
328,192,210389,2,0,L|278:198,3,45,2|2|2|2,1:1|2:1|3:1|2:1,0:0:0:0:
469,74,210817,6,0,L|365:60,1,90,4|0,3:2|3:3,0:0:0:0:
396,148,211139,2,0,L|448:144,1,45,2|0,0:1|1:1,0:0:0:0:
475,242,211353,1,0,0:0:0:0:
458,282,211460,6,0,L|354:268,1,90,0|2,3:2|2:2,0:0:0:0:
385,356,211781,2,0,L|437:352,1,45,2|0,1:1|3:3,0:0:0:0:
278,164,211996,1,0,0:0:0:0:
260,207,212103,6,0,L|156:193,1,90,0|0,1:1|0:0,0:0:0:0:
187,281,212424,2,0,L|239:277,1,45,2|0,1:1|3:3,0:0:0:0:
144,12,212639,1,0,0:0:0:0:
127,57,212746,6,0,L|23:43,1,90,0|0,3:3|1:1,0:0:0:0:
54,131,213067,2,0,L|106:127,1,45,2|0,0:1|3:3,0:0:0:0:
186,256,213389,6,0,L|251:259,3,45,2|2|2|2,1:1|0:1|3:1|0:1,0:0:0:0:
346,170,213817,2,0,L|411:167,3,45,2|2|2|2,1:1|2:1|3:1|2:1,0:0:0:0:
253,47,214246,6,0,L|135:35,1,90,4|0,3:2|3:3,0:0:0:0:
186,178,214567,2,0,L|235:169,1,45,2|0,0:1|1:1,0:0:0:0:
481,135,214781,1,0,0:0:0:0:
454,225,214889,6,0,L|336:213,1,90,0|2,3:2|2:2,0:0:0:0:
387,356,215210,2,0,L|436:347,1,45,2|0,1:1|3:3,0:0:0:0:
284,198,215424,1,0,0:0:0:0:
249,110,215531,6,0,L|131:98,1,90,0|0,1:1|0:0,0:0:0:0:
182,241,215853,2,0,L|231:232,1,45,2|0,1:1|3:3,0:0:0:0:
137,332,216067,1,0,0:0:0:0:
96,247,216174,6,0,L|-22:235,1,90,0|0,3:3|1:1,0:0:0:0:
29,378,216496,2,0,L|78:369,1,45,2|0,0:1|3:3,0:0:0:0:
300,289,216817,6,0,L|351:294,3,45,2|2|2|2,1:1|0:1|3:1|0:1,0:0:0:0:
127,102,217246,2,0,L|76:107,3,45,2|2|2|2,1:1|2:1|3:1|2:1,0:0:0:0:
330,45,217674,6,0,L|442:57,1,90,4|0,3:2|3:3,0:0:0:0:
376,208,217996,2,0,L|325:194,1,45,2|0,0:1|1:1,0:0:0:0:
18,71,218210,1,0,0:0:0:0:
70,173,218317,6,0,L|182:185,1,90,0|2,3:2|2:2,0:0:0:0:
116,336,218639,2,0,L|65:322,1,45,2|0,1:1|3:3,0:0:0:0:
372,82,218853,1,0,0:0:0:0:
442,173,218960,6,0,L|330:185,1,90,0|0,1:1|0:0,0:0:0:0:
396,336,219281,1,2,1:1:0:0:
396,336,219389,6,0,B|349:347|310:317|310:317|270:301|196:331,1,180,4|0,3:2|3:3,0:0:0:0:
117,82,220252,6,0,B|120:158|96:283,1,202.500007724762,2|0,3:1|0:0,0:0:0:0:
154,64,220683,6,0,P|212:63|138:161,1,270,6|0,3:2|0:0,0:0:0:0:
153,185,221115,6,0,L|228:300,1,135,6|0,1:1|0:0,0:0:0:0:
256,192,221436,12,0,222400,0:0:0:0:
