osu file format v14

[General]
AudioFilename: audio.mp3
AudioLeadIn: 0
PreviewTime: 162516
Countdown: 0
SampleSet: Drum
StackLeniency: 0.4
Mode: 0
LetterboxInBreaks: 0
WidescreenStoryboard: 1

[Editor]
Bookmarks: 18573,47017,77239,105684,134128,162632,176801,191023,221244,249672,278125
DistanceSpacing: 1
BeatDivisor: 4
GridSize: 8
TimelineZoom: 2.2

[Metadata]
Title:Return to Oblivion
TitleUnicode:忘却の此方 ~希望の園エデン:共鳴編~
Artist:THE PRIMALS
ArtistUnicode:THE PRIMALS
Creator:Heroine
Version:Expert
Source:ファイナルファンタジーXIV: 漆黒の反逆者
Tags:boukyaku no konata kibou no en eden kyoumeihen Masayoshi Soken 祖堅正慶 Japanese Rock English Vocals Final Fantasy XIV: Shadowbringers PandaHero Some Hero Some_Hero Collaboration Collab Scions & and Sinners Arrangment Album Mary Kate Jiménez-Wall Reven
BeatmapID:3969896
BeatmapSetID:1923120

[Difficulty]
HPDrainRate:5
CircleSize:4
OverallDifficulty:8
ApproachRate:9.2
SliderMultiplier:2.3
SliderTickRate:1

[Events]
//Background and Video events
0,0,"rynegaia.jpg",0,0
//Break Periods
//Storyboard Layer 0 (Background)
//Storyboard Layer 1 (Fail)
//Storyboard Layer 2 (Pass)
//Storyboard Layer 3 (Foreground)
//Storyboard Layer 4 (Overlay)
//Storyboard Sound Samples

[TimingPoints]
9730,434.782608695652,4,3,1,35,1,0
11469,444.444444444444,4,3,1,35,1,0
17679,451.127819548872,4,3,1,50,1,0
18581,444.444444444444,4,3,1,50,1,0
22136,451.127819548872,4,3,1,50,1,0
23940,441.176470588235,4,3,1,50,1,0
29234,447.761194029851,4,3,1,50,1,0
32808,443.786982248521,4,3,1,50,1,0
36358,447.761194029851,4,3,1,50,1,0
38149,441.176470588235,4,3,1,50,1,0
39913,447.761194029851,4,3,1,50,1,0
41704,437.956204379562,4,3,1,50,1,0
43455,480,4,3,1,50,1,0
43935,431.654676258993,4,3,1,50,1,0
44798,444.444444444444,4,3,1,50,1,0
45242,444.444444444444,4,3,1,50,1,0
47019,444.444444444444,4,3,1,50,1,0
47019,-111.111111111111,4,3,1,50,0,0
59018,-90.9090909090909,4,3,1,50,0,0
61241,-111.111111111111,4,3,1,50,0,0
67018,-90.9090909090909,4,3,1,50,0,0
68352,-111.111111111111,4,3,1,50,0,0
71907,-90.9090909090909,4,3,1,60,0,0
72352,-111.111111111111,4,3,1,60,0,0
73241,-66.6666666666667,4,3,1,60,0,0
73685,439.56043956044,4,3,1,50,1,0
73685,-100,4,3,1,60,0,0
74124,-66.6666666666667,4,3,1,60,0,0
74564,-100,4,3,1,60,0,0
75443,465.116279069767,4,3,1,50,1,0
75733,-100,4,3,2,25,0,0
75791,-100,4,3,1,60,0,0
75908,454.545454545455,4,3,1,60,1,0
76362,441.176470588235,4,3,1,60,1,0
76472,461.538461538462,4,3,1,50,1,0
76472,-111.111111111111,4,3,1,60,0,0
76789,500,4,3,1,50,1,0
76789,-111.111111111111,4,3,1,60,0,0
77038,402.684563758389,4,3,1,50,1,0
77239,447.761194029851,4,3,1,70,1,0
77239,-50,4,3,1,70,0,1
78134,-66.6666666666667,4,3,1,70,0,1
79030,444.444444444444,4,3,1,70,1,1
79030,-80,4,3,1,70,0,1
80252,-133.333333333333,4,3,1,70,0,1
80585,-66.6666666666667,4,3,1,70,0,1
82030,-50,4,3,1,70,0,1
82363,-66.6666666666667,4,3,1,70,0,1
82585,434.782608695652,4,3,1,70,1,1
82585,-66.6666666666667,4,3,1,70,0,1
83454,461.538461538462,4,3,1,70,1,1
83454,-66.6666666666667,4,3,1,70,0,1
84377,444.444444444444,4,3,1,70,1,1
84377,-66.6666666666667,4,3,1,70,0,1
86154,431.654676258993,4,3,1,70,1,1
86154,-66.6666666666667,4,3,1,70,0,1
87009,456.273764258555,4,3,1,70,1,1
87009,-66.6666666666667,4,3,1,70,0,1
87464,434.782608695652,4,3,1,70,1,1
87464,-66.6666666666667,4,3,1,70,0,1
87898,447.761194029851,4,3,1,70,1,1
87898,-66.6666666666667,4,3,1,70,0,1
89689,437.956204379562,4,3,1,70,1,1
89689,-57.1428571428571,4,3,1,70,0,0
90126,-57.1428571428571,4,3,1,70,0,1
90564,-57.1428571428571,4,3,1,70,0,0
91440,458.015267175573,4,3,1,70,1,1
91440,-100,4,3,1,70,0,1
92813,461.538461538462,4,3,1,70,1,1
93274,434.782608695652,4,3,1,70,1,1
94578,465.116279069767,4,3,1,70,1,1
95043,441.176470588235,4,3,1,70,1,1
98572,446.096654275093,4,3,1,70,1,1
103461,-66.6666666666667,4,3,1,70,0,1
103925,437.31778425656,4,3,1,70,1,0
103925,-50,4,3,1,70,0,1
105675,454.545454545455,4,3,1,70,1,1
105675,-86.9565217391304,4,3,1,70,0,1
105684,-86.9565217391304,4,3,1,80,0,1
107493,437.956204379562,4,3,1,80,1,1
107493,-86.9565217391304,4,3,1,80,0,1
109243,446.096654275093,4,3,1,80,1,1
109243,-86.9565217391304,4,3,1,80,0,1
114596,437.956204379562,4,3,1,80,1,1
114596,-86.9565217391304,4,3,1,80,0,1
116347,447.761194029851,4,3,1,80,1,1
116347,-86.9565217391304,4,3,1,80,0,1
118138,442.80442804428,4,3,1,80,1,1
118138,-86.9565217391304,4,3,1,80,0,1
119909,-86.9565217391304,4,3,1,80,0,1
123451,451.127819548872,4,3,1,80,1,1
123451,-86.9565217391304,4,3,1,80,0,1
125255,441.176470588235,4,3,1,80,1,1
125365,-86.9565217391304,4,3,1,80,0,1
128784,447.761194029851,4,3,1,80,1,1
128784,-86.9565217391304,4,3,1,80,0,1
130575,447.761194029851,4,3,1,80,1,1
130575,-86.9565217391304,4,3,1,80,0,1
133261,434.782608695652,4,3,1,80,1,1
134128,451.127819548872,4,3,1,50,1,0
134353,-200,4,3,1,50,0,0
135255,-133.333333333333,4,3,1,50,0,0
136834,434.782608695652,4,3,1,50,1,0
137051,413.793103448276,4,3,1,50,1,0
137051,-133.333333333333,4,3,1,50,0,0
137703,444.444444444444,4,3,1,50,1,0
137703,-133.333333333333,4,3,1,50,0,0
138591,431.654676258993,4,3,1,50,1,0
138803,-133.333333333333,4,3,1,50,0,0
139022,447.761194029851,4,3,1,50,1,0
139133,-133.333333333333,4,3,1,50,0,0
139469,447.761194029851,4,3,1,50,1,0
139469,-133.333333333333,4,3,1,50,0,0
140812,333.333333333333,4,3,1,50,1,0
140895,300,4,3,1,50,1,0
141045,441.176470588235,4,3,1,50,1,0
141154,-133.333333333333,4,3,1,50,0,0
141265,441.176470588235,4,3,1,50,1,0
141485,-133.333333333333,4,3,1,50,0,0
142147,434.782608695652,4,3,1,50,1,0
142364,-133.333333333333,4,3,1,50,0,0
143016,452.830188679245,4,3,1,50,1,0
143016,-133.333333333333,4,3,1,50,0,0
144148,428.571428571429,4,3,1,50,1,0
144148,-133.333333333333,4,3,1,50,0,0
144827,447.761194029851,4,3,1,50,1,0
144827,-133.333333333333,4,3,1,50,0,0
145722,425.531914893617,4,3,1,50,1,0
145934,-133.333333333333,4,3,1,50,0,0
146147,447.761194029851,4,3,1,50,1,0
146258,-133.333333333333,4,3,1,50,0,0
147709,382.165605095541,4,3,0,50,1,0
147709,-133.333333333333,4,3,0,50,0,0
148376,444.444444444444,4,3,1,50,1,0
148376,-133.333333333333,4,3,1,50,0,0
149264,428.571428571429,4,3,1,50,1,0
149264,-133.333333333333,4,3,1,50,0,0
150153,444.444444444444,4,3,1,50,1,0
150153,-133.333333333333,4,3,1,50,0,0
153264,375,4,3,1,50,1,0
153357,-133.333333333333,4,3,1,50,0,0
153708,444.444444444444,4,3,1,50,1,0
153708,-133.333333333333,4,3,1,50,0,0
154596,413.793103448276,4,3,1,50,1,0
154596,-133.333333333333,4,3,1,50,0,0
155485,444.444444444444,4,3,1,50,1,0
155485,-133.333333333333,4,3,1,50,0,0
156818,315.789473684211,4,3,1,50,1,0
156896,444.444444444444,4,3,1,50,1,0
156896,-133.333333333333,4,3,1,50,0,0
157262,444.444444444444,4,3,1,50,1,0
157262,-133.333333333333,4,3,1,50,0,0
158373,413.793103448276,4,3,1,50,1,0
158373,-133.333333333333,4,3,1,50,0,0
159039,444.444444444444,4,3,1,50,1,0
159039,-133.333333333333,4,3,1,50,0,0
160150,413.793103448276,4,3,1,50,1,0
160150,-133.333333333333,4,3,1,50,0,0
160816,444.444444444444,4,3,1,50,1,0
160816,-133.333333333333,4,3,1,50,0,0
161709,461.538461538462,4,3,1,50,1,0
162055,-133.333333333333,4,3,1,50,0,0
162632,442.80442804428,4,3,1,50,1,0
162632,-100,4,3,1,50,0,0
163074,-133.333333333333,4,3,1,40,0,0
168831,-250,4,3,1,40,0,0
169716,-133.333333333333,4,3,1,40,0,0
172152,-200,4,3,1,40,0,0
172816,-133.333333333333,4,3,1,40,0,0
173259,-200,4,3,1,40,0,0
174698,-50,4,3,1,40,0,0
175030,-100,4,3,1,60,0,0
175473,-133.333333333333,4,3,1,60,0,0
176358,-333.333333333333,4,3,1,60,0,0
176801,444.444444444444,4,3,1,50,1,0
176801,-80,4,3,1,50,0,0
177689,-125,4,3,1,50,0,0
178356,-80,4,3,1,50,0,0
179467,-125,4,3,1,50,0,0
180912,-100,4,3,1,50,0,0
182689,-80,4,3,1,50,0,0
184134,-111.111111111111,4,3,1,50,0,0
189467,-80,4,3,1,50,0,0
191467,-111.111111111111,4,3,1,50,0,0
197023,-90.9090909090909,4,3,1,50,0,0
198578,-111.111111111111,4,3,1,50,0,0
203023,-80,4,3,1,50,0,0
205245,-111.111111111111,4,3,1,50,0,0
211023,-90.9090909090909,4,3,1,50,0,0
212356,-111.111111111111,4,3,1,50,0,0
215912,-90.9090909090909,4,3,1,60,0,0
216356,-111.111111111111,4,3,1,60,0,0
217245,-66.6666666666667,4,3,1,60,0,0
217689,447.761194029851,4,3,1,50,1,0
217689,-100,4,3,1,60,0,0
218134,-66.6666666666667,4,3,1,60,0,0
218584,428.571428571429,4,3,1,50,1,0
218584,-66.6666666666667,4,3,1,60,0,0
219441,458.015267175573,4,3,1,50,1,0
220356,444.444444444444,4,3,1,50,1,0
221244,447.761194029851,4,3,1,50,1,0
221244,-133.333333333333,4,3,1,50,0,1
222139,-133.333333333333,4,3,1,50,0,0
224826,441.176470588235,4,3,1,50,1,0
224826,-133.333333333333,4,3,1,50,0,0
226590,444.444444444444,4,3,1,50,1,0
226590,-133.333333333333,4,3,1,50,0,0
230145,437.956204379562,4,3,1,50,1,0
230145,-133.333333333333,4,3,1,50,0,0
231896,447.761194029851,4,3,1,50,1,0
231896,-133.333333333333,4,3,1,50,0,0
233687,437.956204379562,4,3,1,50,1,0
233687,-133.333333333333,4,3,1,60,0,0
235000,-50,4,3,1,70,0,0
235438,451.127819548872,4,3,1,70,1,1
235438,-90.9090909090909,4,3,1,70,0,1
237242,444.444444444444,4,3,1,70,1,1
237242,-90.9090909090909,4,3,1,70,0,1
239006,-90.9090909090909,4,3,1,70,0,1
241228,-66.6666666666667,4,3,1,70,0,1
242561,-90.9090909090909,4,3,1,70,0,1
248797,434.782608695652,4,3,1,70,1,1
248797,-66.6666666666667,4,3,1,70,0,1
249666,451.127819548872,4,3,1,70,1,1
249666,-66.6666666666667,4,3,1,70,0,1
249672,-66.6666666666667,4,3,1,80,0,1
251470,431.654676258993,4,3,1,70,1,1
251470,-66.6666666666667,4,3,1,80,0,1
252764,468.75,4,3,1,70,1,1
252764,-66.6666666666667,4,3,1,80,0,1
253232,447.761194029851,4,3,1,80,1,1
253232,-66.6666666666667,4,3,1,80,0,1
255918,441.176470588235,4,3,1,80,1,1
256799,413.793103448276,4,3,1,80,1,1
256799,-66.6666666666667,4,3,1,80,0,1
257109,-66.6666666666667,4,3,1,80,0,1
257212,461.538461538462,4,3,1,80,1,1
257212,-66.6666666666667,4,3,1,80,0,1
258596,434.782608695652,4,3,1,80,1,1
258596,-66.6666666666667,4,3,1,80,0,1
259465,461.538461538462,4,3,1,80,1,1
259465,-66.6666666666667,4,3,1,80,0,1
259926,472.44094488189,4,3,1,80,1,1
259926,-66.6666666666667,4,3,1,80,0,1
260162,408.163265306122,4,3,1,80,1,1
260366,444.444444444444,4,3,1,80,1,1
260366,-66.6666666666667,4,3,1,80,0,1
263921,441.176470588235,4,3,1,90,1,0
263921,-66.6666666666667,4,3,1,90,0,1
264362,-50,4,3,1,90,0,1
264689,-66.6666666666667,4,3,1,90,0,1
267450,451.127819548872,4,3,1,90,1,0
267450,-66.6666666666667,4,3,1,90,0,1
269254,400,4,3,1,90,1,1
269254,-66.6666666666667,4,3,1,90,0,1
269654,444.444444444444,4,3,1,90,1,1
269654,-66.6666666666667,4,3,1,90,0,1
270987,461.538461538462,4,3,1,90,1,1
270987,-66.6666666666667,4,3,1,90,0,1
271448,451.127819548872,4,3,1,90,1,1
271448,-66.6666666666667,4,3,1,90,0,1
272350,437.956204379562,4,3,1,90,1,1
272568,-66.6666666666667,4,3,1,90,0,1
272787,451.127819548872,4,3,1,90,1,1
272787,-66.6666666666667,4,3,1,90,0,1
274591,434.782608695652,4,3,1,90,1,1
274591,-66.6666666666667,4,3,1,90,0,1
275025,447.761194029851,4,3,1,90,1,1
275025,-66.6666666666667,4,3,1,90,0,1
275696,-65.359477124183,4,3,1,90,0,1
275920,428.571428571429,4,3,1,90,1,1
276348,444.444444444444,4,3,1,90,1,0
276348,-66.6666666666667,4,3,1,90,0,1
277681,-66.6666666666667,4,3,1,90,0,0
278125,434.782608695652,4,3,1,80,1,0
278125,-66.6666666666667,4,3,1,80,0,1
278134,-66.6666666666667,4,3,1,70,0,1
278994,-400,4,3,1,40,0,1
279864,-400,4,3,1,40,0,0

[Colours]
Combo1 : 247,140,140
Combo2 : 210,150,243
Combo3 : 192,249,151
Combo4 : 164,196,249

[HitObjects]
454,333,9730,5,6,1:2:0:0:
445,324,10164,1,0,1:0:0:0:
436,315,10599,1,0,1:0:0:0:
427,306,11034,1,0,1:0:0:0:
66,94,11469,5,2,1:2:0:0:
77,87,11913,1,0,1:0:0:0:
88,80,12357,1,0,1:0:0:0:
99,74,12802,1,0,1:0:0:0:
412,216,13246,5,2,1:2:0:0:
401,209,13691,1,0,1:0:0:0:
390,202,14135,1,0,1:0:0:0:
379,196,14580,1,0,1:0:0:0:
186,31,15024,5,2,1:2:0:0:
174,26,15468,1,0,1:0:0:0:
161,22,15913,1,0,1:0:0:0:
149,19,16357,1,0,1:0:0:0:
149,19,16580,1,2,3:3:0:0:
256,192,16691,12,0,17679,3:0:0:0:
329,270,17904,5,8,0:2:0:0:
317,284,18130,1,8,0:2:0:0:
274,301,18242,1,8,0:2:0:0:
231,292,18355,1,0,3:2:0:0:
173,249,18468,1,8,0:2:0:0:
135,182,18581,6,0,P|123:155|114:128,1,57.5,4|0,1:2|0:2,0:2:0:0:
210,107,18803,2,0,P|211:78|213:49,1,57.5,0|0,1:2|0:2,0:2:0:0:
96,247,19025,6,0,P|137:147|245:150,1,230,10|0,0:2|0:2,0:2:0:0:
245,150,19581,1,8,0:2:0:0:
245,150,19692,1,0,1:2:0:0:
415,54,19914,2,0,P|409:81|403:110,1,57.5,10|0,0:2|0:2,0:2:0:0:
498,148,20136,2,0,P|480:170|463:193,1,57.5,2|0,3:2|0:2,0:2:0:0:
313,278,20358,5,0,1:2:0:0:
487,374,20580,2,0,P|430:362|375:345,1,115,0|8,1:2|0:2,0:2:0:0:
376,345,20914,2,0,P|400:332|426:317,1,57.5,0|0,0:2|0:2,0:2:0:0:
291,359,21136,1,0,1:2:0:0:
215,344,21247,2,0,P|241:354|269:363,1,57.5,0|8,3:2|0:2,0:2:0:0:
137,365,21469,2,0,P|111:375|83:384,1,57.5,0|0,1:2|0:2,0:2:0:0:
31,257,21692,5,10,0:1:0:0:
0,190,21803,2,0,B|-22:225|-22:225|10:289,1,115,2|0,0:1|0:2,0:2:0:0:
104,294,22136,2,0,P|110:267|109:238,1,57.5,2|0,1:1|0:2,0:2:0:0:
154,166,22361,2,0,P|138:141|117:122,1,57.5,0|0,1:2|0:2,0:2:0:0:
260,211,22587,6,0,P|313:196|336:145,1,115,10|0,0:2|0:2,0:2:0:0:
467,91,22925,2,0,P|446:111|430:135,1,57.5,0|2,1:2|0:2,0:2:0:0:
399,0,23263,2,0,P|389:27|384:55,1,57.5,2|0,1:2|0:2,0:2:0:0:
366,256,23489,2,0,P|352:207|336:144,1,115,10|2,0:2|3:2,0:2:0:0:
512,319,23940,2,0,P|484:309|457:301,1,57.5,0|0,1:2|0:2,0:2:0:0:
404,384,24160,2,0,P|383:364|361:344,1,57.5,0|0,1:2|0:2,0:2:0:0:
251,343,24381,5,8,0:2:0:0:
173,275,24491,2,0,P|148:223|145:166,1,115,0|0,0:2|1:2,0:2:0:0:
64,222,24822,2,0,L|8:237,1,57.5,0|0,0:2|0:2,0:2:0:0:
204,113,25042,1,0,1:2:0:0:
145,167,25153,2,0,L|200:151,1,57.5,0|8,0:2|0:2,0:2:0:0:
365,0,25373,5,0,0:2:0:0:
429,46,25484,1,0,3:2:0:0:
429,46,25594,1,8,0:2:0:0:
499,32,25704,2,0,L|451:63,1,57.5,2|0,1:1|0:2,0:2:0:0:
450,150,25925,2,0,L|419:199,1,57.5,0|0,1:2|0:2,0:2:0:0:
311,63,26145,2,0,P|304:149|281:232,1,172.5,10|0,0:2|1:2,0:2:0:0:
281,232,26587,6,0,P|288:259|304:283,1,57.5,2|0,0:2|0:2,0:2:0:0:
231,332,26807,2,0,P|216:356|211:384,1,57.5,2|0,1:2|0:2,0:2:0:0:
474,198,27028,2,0,P|416:200|363:221,1,115,10|2,0:2|3:2,0:2:0:0:
147,306,27469,2,0,L|91:291,1,57.5,0|0,1:2|0:2,0:2:0:0:
120,207,27689,2,0,L|75:170,1,57.5,0|0,1:2|0:2,0:2:0:0:
204,110,27910,5,10,0:2:0:0:
255,168,28020,2,0,P|241:142|230:116,1,57.5,0|2,0:2|0:2,0:2:0:0:
319,84,28241,1,0,1:2:0:0:
319,84,28351,2,0,P|317:55|318:26,1,57.5,0|0,0:2|0:2,0:2:0:0:
413,54,28572,2,0,P|419:25|429:0,1,57.5,2|0,1:2|0:2,0:2:0:0:
133,16,28792,5,8,0:2:0:0:
61,30,28903,2,2,B|109:63|109:63|162:84,1,115,2|0,0:1|0:2,0:1:0:0:
162,84,29234,6,0,P|133:84|107:96,1,57.5,2|0,1:1|0:2,0:2:0:0:
29,144,29457,2,0,P|9:164|0:191,1,57.5,0|0,1:2|0:2,0:2:0:0:
0,274,29681,1,10,0:2:0:0:
80,87,29905,1,2,0:2:0:0:
24,41,30017,2,0,P|33:126|75:201,1,172.5,0|0,1:2|1:2,0:2:0:0:
68,326,30577,2,0,P|120:303|176:291,1,115,8|0,0:2|3:2,0:2:0:0:
432,20,31025,6,0,B|448:36|468:45|468:45|435:53|405:79,1,115,2|0,1:1|1:2,0:2:0:0:
258,83,31472,2,2,B|246:99|222:108|222:108|291:120|332:173,1,172.5,14|8,0:1|0:2,0:1:0:0:
406,236,31920,5,2,1:1:0:0:
460,231,32032,1,8,0:2:0:0:
496,196,32144,1,8,0:3:0:0:
508,147,32256,1,8,0:2:0:0:
460,83,32368,5,10,1:1:0:0:
405,141,32480,1,8,0:2:0:0:
332,173,32592,1,8,0:3:0:0:
253,174,32704,1,4,0:3:0:0:
195,128,32808,6,0,P|219:142|244:158,1,57.5,4|0,1:2|0:2,0:2:0:0:
236,257,33029,2,0,P|260:271|285:287,1,57.5,0|0,1:2|0:2,0:2:0:0:
67,325,33251,2,0,P|40:276|41:219,1,115,10|0,0:2|0:2,0:2:0:0:
158,361,33584,2,0,P|155:332|164:305,1,57.5,0|0,1:2|0:2,0:2:0:0:
329,252,33917,2,0,P|303:265|285:287,1,57.5,2|0,1:2|0:2,0:2:0:0:
409,259,34139,1,10,0:2:0:0:
492,169,34361,2,0,P|470:115|452:61,1,115,2|0,0:2|1:2,0:2:0:0:
452,61,34694,5,8,0:2:0:0:
452,61,34805,1,0,1:2:0:0:
285,287,35026,2,0,P|306:233|324:179,1,115,8|0,0:2|0:2,0:2:0:0:
290,98,35359,2,0,P|236:77|182:59,1,115,0|8,1:2|0:2,0:2:0:0:
101,84,35692,2,0,P|87:108|90:136,1,57.5,0|0,1:2|0:2,0:2:0:0:
107,349,35914,1,10,0:1:0:0:
191,318,36025,2,0,P|207:265|177:219,1,115,2|0,0:1|2:2,0:2:0:0:
0,355,36358,6,0,B|40:373|40:373|107:349,1,115,2|0,1:1|1:2,0:2:0:0:
326,220,36805,2,0,P|399:265|476:302,1,172.5,10|0,0:2|1:2,0:2:0:0:
477,303,37253,2,0,P|490:328|503:354,1,57.5,2|0,0:2|0:2,0:2:0:0:
413,113,37477,2,0,P|414:141|415:170,1,57.5,2|0,1:2|0:2,0:2:0:0:
296,363,37701,1,10,0:2:0:0:
269,284,37925,2,0,P|242:234|249:177,1,115,2|0,0:2|1:2,0:2:0:0:
362,9,38369,1,0,1:2:0:0:
250,93,38590,5,8,0:2:0:0:
323,78,38700,2,0,P|266:70|210:56,1,115,0|0,0:2|1:2,0:2:0:0:
134,15,39031,2,0,P|109:29|83:41,1,57.5,0|0,0:2|0:2,0:2:0:0:
76,126,39251,1,0,1:2:0:0:
0,106,39362,2,0,P|24:120|50:132,1,57.5,0|8,0:2|0:2,0:2:0:0:
106,218,39582,1,0,0:2:0:0:
175,180,39693,1,8,0:2:0:0:
175,180,39803,1,8,0:2:0:0:
252,160,39913,6,0,P|204:230|212:315,1,172.5,6|0,1:2|0:2,0:2:0:0:
211,313,40360,2,0,P|238:320|266:328,1,57.5,10|0,0:2|0:2,0:2:0:0:
49,262,40584,1,2,0:2:0:0:
5,323,40696,2,0,P|59:306|116:293,1,115,0|0,1:2|0:2,0:2:0:0:
116,293,41032,2,0,P|121:266|117:237,1,57.5,2|0,1:2|0:2,0:2:0:0:
290,382,41256,2,0,P|283:354|267:330,1,57.5,8|0,0:2|0:2,0:2:0:0:
308,148,41480,6,0,P|280:155|252:161,1,57.5,2|0,0:2|0:2,0:2:0:0:
474,55,41704,2,0,P|481:27|490:0,1,57.5,2|0,1:2|0:2,0:2:0:0:
473,258,41922,2,0,P|493:278|512:299,1,57.5,2|0,1:2|0:2,0:2:0:0:
418,141,42141,1,10,0:2:0:0:
182,49,42360,1,2,0:2:0:0:
257,63,42470,2,0,P|185:105|168:188,1,172.5,0|2,1:2|1:2,0:2:0:0:
349,82,43017,2,0,P|349:53|341:25,1,57.5,8|0,0:2|0:2,0:2:0:0:
168,187,43236,2,0,P|188:166|202:141,1,57.5,2|0,0:2|0:2,0:2:0:0:
49,262,43455,6,0,B|22:238|22:238|36:160,1,115,2|0,1:1|1:2,0:2:0:0:
286,336,43935,1,8,0:2:0:0:
307,260,44042,2,0,L|319:316,1,57.5,0|2,0:2|0:2,0:2:0:0:
460,277,44258,1,0,1:2:0:0:
439,201,44366,2,0,L|426:257,2,57.5,0|0|0,0:2|0:2|1:2,0:2:0:0:
327,70,44798,2,0,P|334:126|347:183,1,115,10|0,0:2|0:2,0:2:0:0:
294,134,45131,1,8,0:2:0:0:
347,183,45242,6,2,B|306:192|306:192|187:138,1,172.5,2|0,1:1|0:2,0:1:0:0:
0,11,45686,2,0,B|20:15|20:15|53:0,1,57.5,6|0,1:1|0:2,0:2:0:0:
269,9,46019,5,8,0:2:0:0:
248,58,46130,1,2,1:1:0:0:
250,112,46242,1,8,0:2:0:0:
269,148,46353,1,8,0:3:0:0:
275,168,46464,1,8,0:2:0:0:
271,205,46575,5,10,1:1:0:0:
198,243,46686,1,8,0:2:0:0:
265,307,46797,1,8,0:3:0:0:
262,315,46908,1,4,0:3:0:0:
184,384,47019,6,0,P|163:329|126:298,1,103.499996841431,6|0,1:2|1:2,0:0:0:0:
408,219,47463,2,0,P|387:235|363:246,1,51.7499984207154,10|0,0:2|0:0,0:0:0:0:
130,300,47685,2,0,P|114:320|103:344,1,51.7499984207154,2|0,2:2|1:2,0:0:0:0:
111,285,48130,2,0,P|96:334|75:381,1,103.499996841431,2|8,1:2|0:2,0:0:0:0:
266,298,48574,1,2,2:2:0:0:
233,224,48796,1,2,1:2:0:0:
298,312,49019,1,2,1:2:0:0:
199,222,49241,2,0,P|150:211|49:180,2,155.249995262146,10|0|2,0:2|1:2|1:2,0:0:0:0:
398,51,50130,6,0,B|449:42|449:42|489:74,1,103.499996841431,10|2,0:1|2:2,0:0:0:0:
341,152,50463,1,8,0:2:0:0:
282,84,50574,6,0,P|231:72|182:55,1,103.499996841431,6|0,1:2|1:2,0:0:0:0:
512,186,51018,2,0,P|486:191|461:197,1,51.7499984207154,10|0,0:2|0:0,0:0:0:0:
198,78,51241,2,0,P|172:72|147:66,1,51.7499984207154,2|0,2:2|1:2,0:0:0:0:
475,217,51685,2,0,P|424:227|373:238,2,103.499996841431,2|8|0,1:2|0:2|0:0,0:0:0:0:
11,205,52352,6,0,B|119:217|58:250|187:263,1,155.249995262146,2|0,1:2|0:0,0:0:0:0:
185,329,52796,2,0,P|186:303|193:278,1,51.7499984207154,14|0,0:2|0:0,0:0:0:0:
31,364,53018,2,0,P|43:341|60:321,1,51.7499984207154,14|8,1:2|0:2,0:0:0:0:
255,220,53241,1,0,1:2:0:0:
285,213,53352,1,8,0:2:0:0:
314,211,53463,1,10,0:3:0:0:
345,216,53574,1,8,0:2:0:0:
407,256,53685,5,4,1:3:0:0:
391,328,53796,1,8,0:2:0:0:
459,368,53907,1,8,0:3:0:0:
459,368,54018,1,4,0:3:0:0:
474,293,54130,6,0,P|450:247|428:199,1,103.499996841431,6|0,1:2|1:2,0:0:0:0:
490,302,54574,2,0,P|490:276|494:250,1,51.7499984207154,10|0,0:2|0:0,0:0:0:0:
343,189,54796,1,2,2:2:0:0:
297,131,54907,2,0,P|306:180|344:215,1,103.499996841431,0|0,1:2|0:0,0:0:0:0:
428,201,55241,2,0,P|428:175|422:150,1,51.7499984207154,2|0,1:2|0:0,0:0:0:0:
350,64,55463,1,8,0:2:0:0:
278,329,55685,2,0,P|300:316|318:297,1,51.7499984207154,2|8,2:2|0:2,0:0:0:0:
311,140,55907,5,2,1:2:0:0:
229,91,56130,2,0,P|203:97|178:102,1,51.7499984207154,2|0,1:2|0:0,0:0:0:0:
22,52,56352,6,0,B|100:47|85:105|161:122,2,155.249995262146,10|0|2,0:2|1:2|1:2,0:0:0:0:
240,173,57241,1,10,0:1:0:0:
311,140,57352,2,0,B|301:111|301:111|286:96,1,51.7499984207154
364,199,57574,1,8,0:2:0:0:
178,333,57685,6,0,L|77:355,1,103.499996841431,6|0,1:2|1:2,0:0:0:0:
365,318,58130,1,10,0:2:0:0:
205,239,58352,1,2,2:2:0:0:
115,217,58463,2,0,L|14:194,1,103.499996841431,0|0,1:2|0:0,0:0:0:0:
372,180,58796,2,0,L|422:168,1,51.7499984207154,0|0,1:2|0:0,0:0:0:0:
220,257,59018,6,2,B|253:203|216:142|194:172|181:106|209:63,1,189.750005790711,10|8,0:2|0:2,2:0:0:0:
337,58,59463,6,0,P|313:79|286:96,1,63.2500019302369,2|8,1:1|0:2,0:0:0:0:
176,125,59685,1,0,1:2:0:0:
439,166,59907,6,2,P|378:96|286:96,1,189.750005790711,14|8,0:2|0:2,0:1:0:0:
422,19,60352,5,2,1:1:0:0:
396,60,60463,1,8,0:2:0:0:
359,89,60574,1,10,0:3:0:0:
316,110,60685,1,8,0:2:0:0:
308,182,60796,5,6,1:3:0:0:
238,152,60907,1,8,0:2:0:0:
246,225,61018,1,8,0:3:0:0:
193,275,61130,1,4,0:3:0:0:
266,295,61241,6,0,P|216:310|167:327,1,103.499996841431,6|0,1:2|1:2,0:0:0:0:
488,243,61685,2,0,L|438:258,1,51.7499984207154,10|0,0:2|0:0,0:0:0:0:
192,272,61907,1,2,2:2:0:0:
256,313,62018,2,0,P|184:291|152:222,1,155.249995262146,0|2,1:2|1:2,0:0:0:0:
394,384,62574,2,0,B|385:358|385:358|389:334,1,51.7499984207154,8|0,0:2|0:0,0:0:0:0:
443,262,62796,1,2,2:2:0:0:
443,262,62907,1,8,0:2:0:0:
257,328,63018,6,0,P|233:339|210:351,1,51.7499984207154,2|0,1:2|0:0,0:0:0:0:
239,201,63241,2,0,P|226:223|214:246,1,51.7499984207154,2|0,1:2|0:0,0:0:0:0:
183,48,63463,2,0,P|162:95|158:146,1,103.499996841431,10|0,0:2|0:0,0:0:0:0:
101,219,63796,2,0,P|113:241|121:266,1,51.7499984207154,0|0,1:2|0:0,0:0:0:0:
269,109,64018,1,0,0:0:0:0:
188,103,64130,2,0,P|175:125|159:145,1,51.7499984207154,2|0,1:2|0:0,0:0:0:0:
326,200,64352,6,0,B|377:182|377:182|416:152,1,103.499996841431,10|2,0:1|2:2,0:0:0:0:
427,50,64685,1,8,0:2:0:0:
477,0,64796,6,0,P|485:50|502:99,1,103.499996841431,6|0,1:2|1:2,0:0:0:0:
477,383,65241,2,0,P|481:358|485:332,1,51.7499984207154,10|0,0:2|0:0,0:0:0:0:
469,164,65463,1,2,2:2:0:0:
502,100,65574,2,0,P|503:151|477:195,1,103.499996841431,0|0,1:2|0:0,0:0:0:0:
338,274,65907,2,0,P|312:274|288:265,1,51.7499984207154,2|0,1:2|0:0,0:0:0:0:
495,207,66130,1,8,0:2:0:0:
486,333,66352,2,0,P|464:318|449:297,1,51.7499984207154,0|8,0:0|0:2,0:0:0:0:
289,254,66574,6,0,P|278:194|255:124,1,103.499996841431,6|0,1:2|1:2,0:0:0:0:
362,104,67018,2,0,B|306:82|255:125|288:122|247:165|183:144,1,189.750005790711,14|8,0:2|0:2,0:0:0:0:
121,90,67463,5,0,1:2:0:0:
103,63,67574,1,8,0:2:0:0:
98,29,67685,1,10,0:3:0:0:
72,65,67796,1,8,0:2:0:0:
58,137,67906,1,4,1:3:0:0:
87,207,68018,1,8,0:2:0:0:
151,251,68130,1,8,0:3:0:0:
151,251,68241,1,4,0:3:0:0:
228,298,68352,6,0,L|328:271,1,103.499996841431,6|0,1:2|1:2,0:0:0:0:
448,99,68796,2,0,L|506:86,1,51.7499984207154,8|0,0:2|0:0,0:0:0:0:
348,187,69018,2,0,P|372:195|393:210,1,51.7499984207154,0|0,1:2|0:0,0:0:0:0:
286,139,69241,5,2,2:2:0:0:
342,23,69463,2,0,P|356:44|365:68,1,51.7499984207154,2|0,1:2|0:0,0:0:0:0:
266,137,69685,2,0,P|221:198|225:274,1,155.249995262146,8|8,0:2|0:2,0:0:0:0:
153,330,70130,6,0,P|143:354|130:376,1,51.7499984207154,2|0,1:2|0:0,0:0:0:0:
265,242,70352,2,0,P|246:260|225:274,1,51.7499984207154,2|0,1:2|0:0,0:0:0:0:
125,352,70574,2,0,P|106:370|85:384,1,51.7499984207154,10|0,0:2|0:0,0:0:0:0:
304,255,70796,2,0,P|279:263|254:267,1,51.7499984207154,2|8,2:2|0:2,0:0:0:0:
228,367,71018,5,0,1:2:0:0:
196,329,71130,1,8,0:2:0:0:
221,292,71241,1,4,1:3:0:0:
253,326,71352,1,8,0:2:0:0:
343,352,71463,5,10,0:2:0:0:
424,314,71574,1,8,0:2:0:0:
448,224,71685,1,4,0:3:0:0:
407,143,71796,1,4,0:3:0:0:
326,82,71907,6,0,P|265:64|206:40,1,126.500003860474,6|0,1:2|1:2,0:0:0:0:
483,107,72352,2,0,P|468:85|448:69,1,51.7499984207154,8|0,0:2|0:0,0:0:0:0:
277,20,72574,1,2,2:2:0:0:
225,80,72685,2,0,P|210:101|190:117,1,51.7499984207154,0|0,1:2|0:0,0:0:0:0:
204,2,72907,1,8,0:2:0:0:
301,0,73018,2,0,P|305:25|303:51,1,51.7499984207154,0|0,1:2|0:0,0:0:0:0:
163,182,73241,6,2,B|122:145|162:51|275:102|266:185|245:229|208:263,1,258.75000987053,10|8,0:2|0:2,0:2:0:0:
68,370,73685,1,2,1:1:0:0:
73,365,73904,1,0,1:2:0:0:
383,212,74124,6,2,B|312:260|312:260|228:242,1,172.5,12|0,0:2|0:0,0:1:0:0:
150,262,74454,1,8,0:2:0:0:
227,242,74564,2,0,P|202:256|175:267,1,57.5,2|8,1:1|0:2,0:0:0:0:
414,126,74783,2,0,P|398:150|380:172,1,57.5,4|8,0:3|0:2,0:0:0:0:
332,291,75003,5,8,1:2:0:0:
263,324,75113,1,8,0:2:0:0:
181,341,75223,1,8,0:2:0:0:
105,333,75333,1,8,0:2:0:0:
97,339,75443,5,0,1:2:0:0:
387,332,75617,6,0,L|333:311,1,57.5,0|0,0:0|2:0,0:0:0:0:
0,287,75908,6,2,B|6:273|6:273|126:306|126:306|195:249|195:249,1,230,0|0,1:2|1:2,0:1:0:0:
114,187,76472,6,0,L|94:139,1,51.7499984207154,8|0,0:2|0:0,0:0:0:0:
326,175,76702,1,8,0:2:0:0:
343,244,76789,2,0,L|362:196,1,51.7499984207154,8|0,1:2|0:0,0:0:0:0:
196,248,77038,1,8,0:2:0:0:
204,147,77138,1,8,0:2:0:0:
77,143,77239,6,2,P|130:212|233:97,1,230,6|0,1:2|0:0,0:1:0:0:
113,225,77574,2,0,B|97:295|6:284|-16:231|11:161|74:165,1,230,2|0,1:2|0:0,0:0:0:0:
279,233,77910,2,0,P|287:178|247:140,1,115,2|0,1:2|0:0,0:0:0:0:
511,24,78134,2,0,P|518:78|391:62,1,172.500006580353,10|0,0:2|0:0,0:0:0:0:
511,202,78470,2,0,P|463:158|385:194,1,86.2500032901765,2|0,2:2|0:0,0:0:0:0:
247,140,78806,2,0,P|199:183|121:148,1,86.2500032901765,2|0,1:2|0:0,0:0:0:0:
384,275,79030,6,0,P|320:310|263:353,1,143.75,2|0,2:2|1:2,0:0:0:0:
483,368,79363,2,0,P|456:303|382:294,1,143.75,2|0,2:2|1:2,0:0:0:0:
251,367,79696,2,0,P|217:357|198:327,1,71.875,2|0,2:2|0:0,0:0:0:0:
412,359,79918,2,0,P|381:294|356:226,1,143.75,10|0,0:2|0:0,0:0:0:0:
27,306,80252,2,0,P|37:346|75:363,1,86.2500032901765,2|0,2:2|0:0,0:0:0:0:
258,270,80585,2,0,P|222:293|183:312,1,86.2500032901765,2|0,2:2|0:0,0:0:0:0:
367,218,80807,6,2,P|308:159|307:75,1,172.500006580353,6|0,1:2|0:0,0:1:0:0:
178,190,81141,2,0,P|240:180|334:63,1,172.500006580353,2|0,1:2|0:0,0:0:0:0:
448,231,81474,2,0,P|445:193|369:141,1,86.2500032901765,2|0,1:2|0:0,0:0:0:0:
208,101,81696,2,0,P|205:138|129:190,1,86.2500032901765,10|0,0:2|0:0,0:0:0:0:
282,90,82030,2,0,B|261:131|218:91|253:38|283:22|344:22|370:35|397:87,1,230,2|0,2:2|0:0,0:0:0:0:
423,145,82363,2,0,P|395:113|399:71,1,86.2500032901765,2|0,1:2|0:0,0:0:0:0:
189,179,82585,6,0,B|151:151|84:157|109:195|59:214|9:190,1,172.500006580353,2|0,2:2|1:2,0:0:0:0:
271,150,82911,2,0,P|245:183|204:195,1,86.2500032901765,2|0,2:2|0:0,0:0:0:0:
132,247,83128,1,0,1:2:0:0:
126,321,83237,2,0,P|100:287|59:275,1,86.2500032901765,2|0,2:2|0:0,0:0:0:0:
317,139,83454,2,0,P|260:201|259:285,1,172.500006580353,10|0,0:2|0:0,0:0:0:0:
140,72,83800,1,2,2:2:0:0:
70,50,83915,2,0,P|161:52|91:125,1,172.500006580353,8|2,0:2|2:2,0:0:0:0:
437,49,84261,5,0,0:0:0:0:
375,0,84377,2,2,P|451:32|456:113,1,172.500006580353,6|0,1:2|0:0,0:1:0:0:
335,135,84710,2,0,P|335:177|307:207,1,86.2500032901765,2|0,1:2|0:0,0:0:0:0:
449,62,85043,2,0,P|419:31|377:30,1,86.2500032901765,2|0,1:2|0:0,0:0:0:0:
293,220,85265,6,0,P|213:199|192:120,1,172.500006580353,10|0,0:2|0:0,0:0:0:0:
296,12,85599,2,0,B|256:-10|257:80|310:76|359:94|389:14,1,172.500006580353,2|0,2:2|0:0,0:0:0:0:
180,129,85932,2,0,P|168:92|109:81,1,86.2500032901765,2|0,1:2|0:0,0:0:0:0:
391,51,86154,2,0,P|379:88|320:99,1,86.2500032901765,2|0,2:2|0:0,0:0:0:0:
267,82,86369,1,0,1:2:0:0:
201,166,86477,2,0,P|184:81|140:8,1,172.500006580353,2|0,2:2|1:2,0:0:0:0:
110,98,86801,2,0,P|83:130|93:182,1,86.2500032901765,2|0,2:2|0:0,0:0:0:0:
358,86,87009,2,0,P|316:89|204:200,1,172.500006580353,10|0,0:2|0:0,0:0:0:0:
161,302,87351,5,2,2:2:0:0:
228,274,87464,2,0,P|164:330|99:276,1,172.500006580353,8|10,0:2|0:2,0:0:0:0:
331,162,87790,5,8,0:2:0:0:
362,233,87898,2,2,P|361:147|406:75,1,172.500006580353,6|0,1:2|0:0,0:1:0:0:
485,84,88233,2,0,P|496:42|492:0,1,86.2500032901765,2|0,1:2|0:0,0:0:0:0:
240,269,88569,2,0,P|242:226|229:185,1,86.2500032901765,2|0,1:2|0:0,0:0:0:0:
349,239,88793,2,2,P|358:154|412:88,1,172.500006580353,10|0,0:2|0:0,0:1:0:0:
489,106,89129,2,0,P|505:66|506:23,1,86.2500032901765,2|0,2:2|0:0,0:0:0:0:
223,259,89465,2,0,P|230:216|222:174,1,86.2500032901765,2|0,2:2|0:0,0:0:0:0:
497,21,89689,6,2,P|407:13|397:103,1,201.25000191927,2|0,1:2|0:0,0:1:0:0:
267,13,90017,2,2,P|246:57|199:67,1,100.625000959635,2|12,1:2|0:2,0:1:0:0:
441,196,90345,2,2,P|435:147|408:105,1,100.625000959635,2|0,2:2|0:0,0:1:0:0:
291,295,90564,5,2,1:1:0:0:
355,217,90674,5,8,0:2:0:0:
325,124,90783,5,8,0:2:0:0:
271,293,91002,5,8,0:2:0:0:
347,208,91221,5,8,0:2:0:0:
318,132,91331,5,8,0:2:0:0:
223,99,91440,6,0,P|167:113|111:125,1,115,6|0,1:2|0:0,0:0:0:0:
101,205,91783,2,0,P|75:155|21:139,1,115,2|0,2:2|0:0,0:0:0:0:
361,194,92127,2,0,P|361:222|349:248,1,57.5,2|0,2:2|0:0,0:0:0:0:
245,308,92356,2,0,P|300:322|356:334,1,115,2|0,1:2|0:0,0:0:0:0:
395,362,92698,1,2,2:2:0:0:
457,299,92813,2,0,L|512:285,1,57.5,8|0,0:2|0:0,0:0:0:0:
293,218,93043,2,0,L|349:205,1,57.5,2|0,2:2|0:0,0:0:0:0:
171,368,93274,6,0,P|155:312|156:255,1,115,2|0,1:2|0:0,0:0:0:0:
153,181,93600,2,0,P|164:207|185:227,1,57.5,2|8,2:2|0:2,0:0:0:0:
257,91,93926,1,2,2:2:0:0:
512,0,94143,1,2,1:2:0:0:
479,63,94252,1,0,0:0:0:0:
409,88,94360,1,0,0:0:0:0:
338,78,94578,2,0,P|387:107|437:134,1,115,8|2,0:2|2:2,0:0:0:0:
428,231,94926,5,0,0:0:0:0:
360,272,95043,2,0,P|371:245|389:223,1,57.5,2|0,1:2|0:0,0:0:0:0:
266,365,95373,2,0,P|247:343|236:316,1,57.5,2|8,2:2|0:2,0:0:0:0:
512,242,95704,2,0,P|498:188|455:151,1,115,2|2,2:2|1:2,0:0:0:0:
377,136,96035,1,8,0:2:0:0:
307,177,96145,1,0,0:0:0:0:
455,152,96366,2,0,P|402:172|346:159,1,115,8|2,0:2|2:2,0:0:0:0:
299,93,96697,1,0,0:0:0:0:
282,246,96807,6,0,P|277:188|261:133,1,115,2|0,1:2|0:0,0:0:0:0:
221,108,97138,1,2,2:2:0:0:
145,56,97248,2,0,P|148:32|158:0,1,57.5,8|0,0:2|0:0,0:0:0:0:
76,93,97469,2,0,P|67:121|57:147,1,57.5,2|8,2:2|0:2,0:0:0:0:
248,27,97690,1,2,1:2:0:0:
469,29,97910,2,0,P|421:60|375:94,1,115,0|12,0:0|0:2,0:0:0:0:
374,94,98351,5,10,0:2:0:0:
374,94,98462,1,8,0:2:0:0:
403,176,98572,2,0,P|389:200|378:227,1,57.5,6|0,1:2|0:0,0:0:0:0:
279,330,98906,2,0,P|271:357|261:384,1,57.5,2|8,2:2|0:2,0:0:0:0:
258,251,99241,1,2,2:2:0:0:
428,321,99464,2,0,P|420:264|421:207,1,115,2|0,1:2|0:0,0:0:0:0:
192,272,99798,2,0,P|218:258|236:237,1,57.5,2|8,2:2|0:2,0:0:0:0:
421,207,100133,2,0,B|452:206|452:206|475:218,1,57.5,2|0,2:2|0:0,0:0:0:0:
285,121,100356,5,2,1:2:0:0:
238,176,100467,1,8,0:2:0:0:
170,199,100579,2,0,P|226:206|284:206,1,115,0|8,0:0|0:2,0:0:0:0:
33,53,101025,2,0,P|42:81|59:104,1,57.5,2|8,2:2|0:2,0:0:0:0:
209,0,101248,5,2,1:2:0:0:
154,47,101360,1,8,0:2:0:0:
212,104,101471,2,0,P|181:56|178:0,1,115,0|8,0:0|0:2,0:0:0:0:
102,302,101917,1,2,2:2:0:0:
28,266,102029,1,8,0:2:0:0:
143,338,102140,6,0,L|261:311,1,115,6|0,1:2|0:0,0:0:0:0:
273,326,102475,1,2,2:2:0:0:
350,262,102586,2,0,L|407:262,1,57.5,8|0,0:2|0:0,0:0:0:0:
370,143,102809,2,0,P|420:164|466:132,1,115,2|2,2:2|1:2,0:0:0:0:
450,0,103144,1,0,0:0:0:0:
407,67,103256,2,0,P|401:39|397:11,1,57.5,0|2,0:0|2:2,0:0:0:0:
251,301,103479,6,0,P|268:216|276:127,1,172.500006580353,12|2,0:2|2:2,0:0:0:0:
183,38,103813,1,8,0:2:0:0:
261,0,103925,1,2,1:2:0:0:
101,40,104034,2,2,B|74:54|30:16|82:-56|211:39|106:61|135:61|158:118|206:116,1,230,8|2,0:2|2:2,0:1:0:0:
303,98,104362,2,2,P|251:88|248:191,1,115,12|0,0:1|0:0,0:1:0:0:
2,37,104580,2,2,P|48:45|33:210,1,230,2|2,2:2|1:1,0:1:0:0:
181,295,104908,5,8,0:2:0:0:
126,238,105018,1,8,0:2:0:0:
106,165,105127,1,8,0:2:0:0:
135,92,105236,1,4,1:3:0:0:
205,43,105346,1,8,0:2:0:0:
287,48,105455,1,8,0:2:0:0:
357,94,105564,1,8,0:2:0:0:
426,167,105675,6,2,P|396:107|373:45,1,132.250002522469,4|0,1:2|1:2,0:1:0:0:
305,318,106015,2,0,P|298:285|308:254,1,66.1250012612343,0|8,0:0|0:2,0:0:0:0:
487,117,106356,2,0,P|462:95|430:87,1,66.1250012612343,0|8,0:0|0:2,0:0:0:0:
361,201,106584,1,0,1:2:0:0:
427,239,106697,1,8,0:2:0:0:
500,243,106811,2,0,P|436:249|391:296,1,132.250002522469,0|8,1:2|0:2,0:0:0:0:
172,326,107265,2,0,P|145:346|116:362,1,66.1250012612343,0|8,0:0|0:2,0:0:0:0:
314,317,107493,6,2,P|284:259|223:238,1,132.250002522469,4|0,1:2|1:2,0:1:0:0:
186,162,107821,2,0,P|153:155|118:179,1,66.1250012612343,0|8,0:0|0:2,0:0:0:0:
42,153,108149,2,0,P|14:170|5:204,1,66.1250012612343,0|8,0:0|0:2,0:0:0:0:
298,84,108368,1,0,1:2:0:0:
298,84,108478,1,8,0:2:0:0:
274,158,108587,2,0,P|253:96|237:32,1,132.250002522469,0|8,1:2|0:2,0:0:0:0:
424,206,109025,5,0,0:0:0:0:
482,163,109135,1,8,0:2:0:0:
360,238,109243,2,2,P|392:242|424:251,1,66.1250012612343,4|0,1:2|0:0,0:1:0:0:
195,169,109466,2,2,P|162:164|130:155,1,66.1250012612343,0|0,1:2|0:0,0:1:0:0:
355,139,109689,6,0,P|305:183|254:224,1,132.250002522469,8|0,0:2|0:0,0:0:0:0:
275,295,110023,2,0,P|248:275|220:258,1,66.1250012612343,8|0,0:2|1:2,0:0:0:0:
284,167,110246,1,8,0:2:0:0:
289,92,110358,2,0,P|278:60|264:30,1,66.1250012612343,0|0,1:2|0:0,0:0:0:0:
512,58,110581,2,0,P|449:75|393:45,1,132.250002522469,8|0,0:2|0:0,0:0:0:0:
271,20,110915,1,8,0:2:0:0:
425,48,111027,6,0,L|368:80,1,66.1250012612343,4|0,1:2|0:0,0:0:0:0:
287,186,111250,2,0,L|229:218,1,66.1250012612343,0|0,1:2|0:0,0:0:0:0:
75,132,111473,6,0,P|59:67|42:3,1,132.250002522469,12|0,0:2|0:0,0:0:0:0:
159,34,111808,1,8,0:2:0:0:
155,107,111919,1,0,1:2:0:0:
83,137,112031,5,8,0:2:0:0:
100,183,112142,1,8,0:3:0:0:
141,216,112254,1,8,0:2:0:0:
150,293,112365,5,8,1:2:0:0:
213,333,112477,1,8,0:2:0:0:
286,329,112588,1,8,0:3:0:0:
345,284,112700,1,4,0:3:0:0:
400,342,112811,6,2,P|379:280|368:215,1,132.250002522469,4|0,1:2|1:2,0:1:0:0:
478,76,113146,2,0,P|464:106|456:138,1,66.1250012612343,0|8,0:0|0:2,0:0:0:0:
347,152,113480,2,0,P|360:182|368:214,1,66.1250012612343,0|8,0:0|0:2,0:0:0:0:
300,87,113703,1,0,1:2:0:0:
331,19,113815,1,8,0:2:0:0:
400,0,113927,2,0,P|365:54|302:69,1,132.250002522469,0|8,1:2|0:2,0:0:0:0:
269,218,114373,1,0,0:0:0:0:
269,218,114484,1,8,0:2:0:0:
213,150,114596,6,2,P|155:119|89:114,1,132.250002522469,4|0,1:2|1:2,0:1:0:0:
29,61,114924,2,0,P|25:28|10:0,1,66.1250012612343,0|8,0:0|0:2,0:0:0:0:
57,198,115252,1,0,0:0:0:0:
57,198,115362,1,8,0:2:0:0:
110,265,115471,2,0,B|130:239|130:239|140:208,1,66.1250012612343,0|8,1:2|0:2,0:0:0:0:
349,337,115690,2,0,P|339:272|368:214,1,132.250002522469,0|8,1:2|0:2,0:0:0:0:
469,260,116128,1,0,0:0:0:0:
424,319,116238,1,8,0:2:0:0:
341,230,116347,6,2,P|320:167|299:104,1,132.250002522469,4|0,1:2|1:2,0:1:0:0:
500,0,116794,2,0,B|480:65|480:65|474:76|474:76|458:125,1,132.250002522469,8|0,0:2|0:0,0:0:0:0:
354,57,117130,1,8,0:2:0:0:
299,104,117242,2,0,P|267:108|235:116,1,66.1250012612343,0|8,1:2|0:2,0:0:0:0:
511,179,117466,2,0,P|479:169|446:162,1,66.1250012612343,0|0,1:2|0:0,0:0:0:0:
208,187,117690,2,0,P|160:230|96:227,1,132.250002522469,8|0,0:2|0:0,0:0:0:0:
108,149,118026,1,8,0:2:0:0:
226,368,118138,6,2,L|165:340,1,66.1250012612343,4|0,1:2|0:0,0:1:0:0:
111,153,118359,2,2,L|50:125,1,66.1250012612343,0|0,1:2|0:0,0:1:0:0:
206,115,118580,2,2,P|205:147|217:178,1,66.1250012612343,8|0,0:2|0:0,0:1:0:0:
293,47,118802,1,0,0:0:0:0:
400,136,118912,1,8,0:2:0:0:
463,87,119023,2,0,P|431:97|400:107,1,66.1250012612343,0|8,1:2|0:2,0:0:0:0:
166,341,119245,2,0,P|134:330|103:320,1,66.1250012612343,0|8,1:2|0:2,0:0:0:0:
359,378,119466,5,8,1:2:0:0:
281,331,119577,1,8,0:2:0:0:
235,254,119687,1,8,1:1:0:0:
240,171,119798,1,8,1:1:0:0:
283,108,119909,6,2,B|219:87|219:87|154:97,1,132.250002522469,4|0,1:2|1:2,0:1:0:0:
315,205,120241,2,0,B|296:232|296:232|269:250,1,66.1250012612343,0|8,0:0|0:2,0:0:0:0:
286,112,120573,2,0,P|293:79|287:47,1,66.1250012612343,0|8,0:0|0:2,0:0:0:0:
86,58,120794,1,0,1:2:0:0:
13,87,120905,1,8,0:2:0:0:
0,163,121016,1,0,1:2:0:0:
358,285,121237,6,0,B|289:284|289:284|240:324,1,132.250002522469,8|0,0:2|0:0,0:0:0:0:
294,324,121569,1,8,0:2:0:0:
395,204,121680,6,2,P|370:143|353:79,1,132.250002522469,4|0,1:2|1:2,0:1:0:0:
459,10,122012,2,0,P|444:39|434:71,1,66.1250012612343,0|8,0:0|0:2,0:0:0:0:
239,176,122344,2,0,P|221:204|200:229,1,66.1250012612343,0|8,0:0|0:2,0:0:0:0:
358,84,122566,1,0,1:2:0:0:
358,84,122676,1,8,0:2:0:0:
293,33,122787,2,0,L|227:43,1,66.1250012612343,0|0,1:2|0:0,0:0:0:0:
201,229,123008,6,0,P|135:212|70:207,1,132.250002522469,8|0,0:2|0:0,0:0:0:0:
174,128,123340,1,8,0:2:0:0:
128,188,123451,2,2,P|121:254|130:319,1,132.250002522469,4|0,1:2|1:2,0:1:0:0:
186,102,123902,2,0,P|144:50|91:11,1,132.250002522469,8|0,0:2|0:0,0:0:0:0:
16,65,124240,1,8,0:2:0:0:
92,54,124353,1,0,1:2:0:0:
153,8,124466,1,8,0:2:0:0:
304,4,124578,6,0,P|272:14|243:29,1,66.1250012612343,0|0,1:2|0:0,0:0:0:0:
422,160,124804,2,0,P|453:170|482:185,1,66.1250012612343,8|0,0:2|0:0,0:0:0:0:
499,93,125029,1,0,0:0:0:0:
450,31,125142,1,8,0:2:0:0:
307,90,125255,5,0,1:2:0:0:
374,48,125365,2,2,P|352:109|301:150,1,132.250002522469,8|0,0:2|0:0,0:1:0:0:
500,100,125696,6,0,B|446:78|397:112|415:117|374:167|310:150,1,198.375003783703,12|8,0:2|0:2,0:0:0:0:
233,225,126137,5,0,1:2:0:0:
184,169,126247,1,8,0:2:0:0:
114,146,126357,1,8,0:3:0:0:
42,150,126468,1,8,0:2:0:0:
134,102,126578,5,8,1:2:0:0:
77,177,126688,1,8,0:2:0:0:
0,225,126799,1,8,0:3:0:0:
0,225,126909,1,4,0:3:0:0:
45,286,127019,6,2,P|108:302|171:324,1,132.250002522469,4|0,1:2|1:2,0:1:0:0:
228,384,127350,2,0,P|211:355|209:322,1,66.1250012612343,0|8,0:0|0:2,0:0:0:0:
414,137,127681,1,0,0:0:0:0:
347,97,127791,1,8,0:2:0:0:
392,29,127902,1,0,1:2:0:0:
392,29,128012,1,8,0:2:0:0:
475,85,128122,2,0,B|488:115|488:115|490:149,1,66.1250012612343,0|0,1:2|0:0,0:0:0:0:
316,0,128343,2,0,B|253:10|253:10|219:70,1,132.250002522469,8|0,0:2|0:0,0:0:0:0:
176,150,128674,5,8,0:2:0:0:
220,70,128784,2,2,P|158:83|146:144,1,132.250002522469,4|0,1:2|1:2,0:1:0:0:
97,211,129119,2,0,P|94:243|110:271,1,66.1250012612343,0|8,0:0|0:2,0:0:0:0:
152,350,129455,2,0,P|182:360|213:350,1,66.1250012612343,0|8,0:0|0:2,0:0:0:0:
401,135,129679,5,0,1:2:0:0:
401,135,129791,1,8,0:2:0:0:
367,201,129903,2,0,P|423:167|487:150,1,132.250002522469,0|8,1:2|0:2,0:0:0:0:
183,274,130351,1,0,0:0:0:0:
229,210,130463,1,8,0:2:0:0:
285,303,130575,6,2,P|266:239|253:174,1,132.250002522469,4|0,1:2|1:2,0:1:0:0:
328,74,130910,2,0,P|337:42|346:10,1,66.1250012612343,0|8,0:0|0:2,0:0:0:0:
140,144,131246,2,0,P|162:119|183:94,1,66.1250012612343,0|8,0:0|0:2,0:0:0:0:
246,212,131470,1,0,1:2:0:0:
309,167,131582,1,8,0:2:0:0:
382,191,131694,2,0,B|449:193|449:193|507:164,1,132.250002522469,0|8,1:2|0:2,0:0:0:0:
320,245,132142,5,0,0:0:0:0:
217,335,132254,1,8,0:2:0:0:
149,291,132366,6,2,P|182:299|214:306,1,66.1250012612343,4|0,1:2|0:0,0:1:0:0:
375,313,132589,2,2,P|407:320|439:328,1,66.1250012612343,0|0,1:2|0:0,0:1:0:0:
297,381,132813,6,0,P|299:283|247:200,1,198.375003783703,8|8,0:2|0:2,0:0:0:0:
150,162,133261,1,0,1:2:0:0:
82,137,133369,1,8,0:2:0:0:
51,72,133478,1,0,1:2:0:0:
89,4,133587,1,8,0:2:0:0:
166,21,133695,5,8,1:2:0:0:
125,71,133804,1,8,0:2:0:0:
189,79,133913,1,8,1:1:0:0:
160,55,134021,1,8,1:1:0:0:
70,145,134128,6,0,L|79:201,1,57.5,6|0,1:2|0:0,0:0:0:0:
268,80,134353,2,0,B|260:114|244:130|244:130|260:114|281:74|353:25,1,201.25,0|0,1:2|2:0,0:0:0:0:
420,14,135255,6,0,P|462:7|503:18,1,86.2500032901765,0|0,1:2|0:0,0:0:0:0:
391,87,135594,2,0,P|385:46|348:29,1,86.2500032901765,0|0,1:2|2:0,0:0:0:0:
268,80,135932,1,2,1:2:0:0:
504,18,136158,2,0,P|384:56|323:166,1,258.75000987053,0|0,1:2|0:0,0:0:0:0:
281,78,137051,2,0,P|239:68|208:39,1,86.2500032901765,0|0,1:2|2:0,0:0:0:0:
139,62,137361,2,0,P|98:70|79:108,1,86.2500032901765,0|0,1:2|2:0,0:0:0:0:
375,193,137703,6,0,P|374:165|338:143,1,43.1250016450883,2|0,1:2|2:0,0:0:0:0:
315,265,137925,2,0,B|283:237|270:215|292:102|338:196|392:99|343:30,1,258.75000987053,0|0,1:2|0:0,0:0:0:0:
350,40,138806,2,0,P|381:69|418:92,1,86.2500032901765,0|0,1:2|2:0,0:0:0:0:
319,123,139133,2,0,P|290:153|293:195,1,86.2500032901765,0|0,1:2|2:0,0:0:0:0:
248,120,139469,2,0,P|241:82|229:35,2,86.2500032901765,2|0|0,1:2|1:2|0:0,0:0:0:0:
198,41,140140,2,0,L|207:0,1,43.1250016450883,0|0,3:0|3:0,0:0:0:0:
251,124,140364,2,0,P|212:142|175:165,1,86.2500032901765,0|0,0:0|1:2,0:0:0:0:
81,231,140812,5,0,0:0:0:0:
102,265,140895,1,0,1:2:0:0:
175,165,141155,2,0,P|160:181|153:201,1,43.1250016450883,0|6,0:0|1:2,0:0:0:0:
167,285,141485,6,0,P|152:268|287:127,1,258.75000987053,0|0,1:2|0:0,0:0:0:0:
287,267,142364,2,0,P|260:301|263:343,1,86.2500032901765,0|0,1:2|2:0,0:0:0:0:
346,329,142690,2,0,P|304:341|282:377,1,86.2500032901765,0|0,1:2|2:0,0:0:0:0:
421,253,143016,1,2,1:2:0:0:
263,342,143242,2,0,P|213:271|166:198,1,172.500006580353,0|0,1:2|0:0,0:0:0:0:
224,90,143921,1,0,0:0:0:0:
167,199,144148,6,0,P|129:179|86:180,1,86.2500032901765,0|0,1:2|2:0,0:0:0:0:
53,256,144469,2,0,P|40:296|2:313,1,86.2500032901765,0|0,1:2|2:0,0:0:0:0:
87,180,144827,2,0,P|69:167|60:148,1,43.1250016450883,2|0,1:2|2:0,0:0:0:0:
89,365,145050,2,0,P|67:237|34:112,1,258.75000987053,0|0,1:2|0:0,0:0:0:0:
34,112,145934,6,0,P|62:145|102:159,1,86.2500032901765,0|0,1:2|2:0,0:0:0:0:
188,203,146258,2,0,P|226:154|214:92,1,129.375004935265,0|2,1:2|1:2,0:0:0:0:
142,54,146818,2,0,P|240:133|367:133,1,258.75000987053,0|0,1:2|0:0,0:0:0:0:
489,22,147709,2,0,P|448:34|427:71,1,86.2500032901765,0|0,1:2|2:0,0:0:0:0:
495,113,147995,2,0,P|457:93|416:104,1,86.2500032901765,0|0,1:2|2:0,0:0:0:0:
416,103,148376,5,6,1:2:0:0:
455,182,148598,2,0,P|453:96|428:13,1,172.500006580353,0|0,1:2|0:0,0:0:0:0:
366,176,149264,2,0,P|376:218|393:258,1,86.2500032901765,0|0,0:0|1:2,0:0:0:0:
311,90,149799,2,0,P|284:123|290:164,1,86.2500032901765,0|0,1:2|2:0,0:0:0:0:
393,258,150153,1,2,1:2:0:0:
290,164,150376,2,0,P|168:142|86:234,1,258.75000987053,0|0,1:2|0:0,0:0:0:0:
270,234,151264,2,0,P|234:259|212:295,1,86.2500032901765,0|0,1:2|2:0,0:0:0:0:
132,332,151597,2,0,P|90:340|58:305,1,86.2500032901765,0|0,1:2|2:0,0:0:0:0:
60,312,151930,5,2,1:2:0:0:
310,302,152153,2,0,P|184:287|75:351,1,258.75000987053,0|0,1:2|0:0,0:0:0:0:
417,346,153042,2,0,P|415:303|387:272,1,86.2500032901765,0|0,1:2|2:0,0:0:0:0:
412,183,153357,2,0,P|381:154|361:112,1,86.2500032901765,0|0,1:2|2:0,0:0:0:0:
333,24,153709,1,2,1:2:0:0:
387,272,153931,2,0,P|370:188|342:106,1,172.500006580353,0|0,1:2|0:0,0:0:0:0:
336,27,154596,2,0,P|330:69|310:107,1,86.2500032901765,0|0,0:0|1:2,0:0:0:0:
153,183,155009,5,0,0:0:0:0:
142,91,155113,2,0,P|118:127|119:169,1,86.2500032901765,0|0,1:2|2:0,0:0:0:0:
249,284,155485,6,0,P|221:295|179:270,1,43.1250016450883,6|0,1:2|2:0,0:0:0:0:
60,307,155707,2,0,B|117:265|197:286|170:328|228:325|299:322|244:273|309:239|400:269,1,345.000013160706,0|0,1:2|1:2,0:0:0:0:
384,264,156818,1,0,0:0:0:0:
311,248,156896,2,0,P|275:271|260:310,1,86.2500032901765,0|0,1:2|2:0,0:0:0:0:
396,187,157262,2,0,L|380:146,1,43.1250016450883,2|0,1:2|2:0,0:0:0:0:
260,310,157484,2,0,P|284:209|294:141,1,172.500006580353,0|0,1:2|0:0,0:0:0:0:
307,52,158151,5,0,0:0:0:0:
307,52,158373,2,0,P|266:40|229:59,1,86.2500032901765,0|0,1:2|2:0,0:0:0:0:
166,125,158683,2,0,P|124:120|97:87,1,86.2500032901765,0|0,1:2|2:0,0:0:0:0:
86,10,159040,1,2,1:2:0:0:
238,75,159261,2,0,B|171:39|84:73|155:107|55:143|-6:96,1,258.75000987053,0|0,1:2|0:0,0:0:0:0:
0,100,160150,2,0,P|42:104|71:134,1,86.2500032901765,0|0,1:2|2:0,0:0:0:0:
153,169,160460,2,0,P|180:202|173:243,1,86.2500032901765,0|0,1:2|2:0,0:0:0:0:
160,332,160816,5,2,1:2:0:0:
173,242,161038,2,0,P|99:137|69:12,1,258.75000987053,0|2,1:2|1:3,0:0:0:0:
83,121,161939,1,0,0:0:0:0:
38,185,162055,2,0,P|39:123|94:93,1,129.375004935265,0|0,1:2|2:0,0:0:0:0:
270,6,162632,6,0,B|323:51|260:145|258:70|208:137|233:189,1,172.5,4|0,3:2|0:0,0:0:0:0:
160,202,163074,2,0,P|187:275|264:257,1,172.500006580353,2|0,2:2|0:0,0:0:0:0:
302,120,163739,2,0,P|259:122|228:150,2,86.2500032901765,2|2|2,2:2|2:2|2:2,0:0:0:0:
265,258,164403,2,0,P|179:262|101:297,3,172.500006580353
359,274,165953,5,0,0:0:0:0:
398,313,166063,1,0,0:0:0:0:
461,352,166174,2,0,B|387:373|288:300|386:282|276:221|175:256,1,301.875011515618,4|0,0:2|0:0,0:0:0:0:
198,250,167060,2,0,P|218:240|234:226,1,43.1250016450883,2|0,2:2|0:0,0:0:0:0:
123,235,167281,2,0,P|121:256|125:277,1,43.1250016450883,2|0,2:2|0:0,0:0:0:0:
172,179,167502,2,0,P|154:166|133:160,1,43.1250016450883,2|0,2:2|0:0,0:0:0:0:
166,218,167724,1,2,2:2:0:0:
246,151,167945,2,0,P|190:223|27:255,1,258.75000987053
333,384,168831,6,0,B|316:345|332:307|340:327|356:285|336:245,1,138
203,234,169716,2,0,P|338:283|450:191,1,301.875011515618,4|0,0:2|0:0,0:0:0:0:
450,191,170602,2,0,P|422:223|428:264,2,86.2500032901765,2|2|2,2:2|2:2|2:2,0:0:0:0:
338,250,171266,2,0,P|314:167|280:87,1,172.500006580353,2|0,2:2|0:0,0:0:0:0:
435,66,171930,1,2,2:2:0:0:
281,87,172152,2,0,P|226:97|184:60,1,115,2|2,2:2|2:2,0:0:0:0:
438,69,172816,2,0,P|412:83|390:102,1,43.1250016450883
217,134,173037,2,0,P|195:152|169:166,1,43.1250016450883,2|0,2:2|0:0,0:0:0:0:
338,179,173259,6,0,P|263:137|177:129,1,172.5,6|2,2:2|2:2,0:0:0:0:
402,92,174144,1,0,0:0:0:0:
407,99,174255,1,0,0:0:0:0:
453,161,174366,2,0,P|441:187|436:215,1,57.5,0|2,0:0|2:2,0:0:0:0:
512,350,174698,6,2,B|438:413|379:401|328:343|379:292,1,230,0|0,0:0|0:0,2:0:0:0:
437,214,175030,2,0,P|394:252|338:251,1,115,2|0,3:1|0:0,0:0:0:0:
511,327,175473,2,0,P|462:288|399:290,1,129.375004935265,2|0,2:1|0:0,0:0:0:0:
338,251,175916,2,0,P|286:282|296:342,1,129.375004935265,2|0,2:1|0:0,0:0:0:0:
296,342,176358,6,0,L|282:283,1,51.7499984207154
309,351,176801,6,0,P|317:310|306:317,1,71.875,2|0,1:2|0:0,0:0:0:0:
347,240,177023,2,0,P|266:233|298:288,1,143.75,2|2,0:2|1:2,0:0:0:0:
253,127,177356,2,0,P|315:130|308:215,1,143.75,2|2,0:2|0:2,0:0:0:0:
176,155,177689,2,0,P|168:133|172:111,1,46,2|0,1:2|0:0,0:0:0:0:
233,225,177912,1,2,0:2:0:0:
239,298,178023,2,0,P|248:277|267:264,1,46,2|0,0:2|1:2,0:0:0:0:
165,290,178245,1,2,0:2:0:0:
141,360,178356,2,0,P|148:338|117:276,1,71.875,2|0,0:2|0:0,0:0:0:0:
186,164,178578,6,0,P|180:129|205:106,1,71.875,2|0,1:2|0:0,0:0:0:0:
150,89,178801,2,0,P|184:83|158:178,1,143.75,2|2,0:2|1:2,0:0:0:0:
292,122,179134,2,0,P|241:107|217:204,1,143.75,2|2,0:2|0:2,0:0:0:0:
225,246,179467,1,2,1:2:0:0:
301,131,179689,1,2,0:2:0:0:
257,60,179801,2,0,P|236:49|213:49,2,46,2|0|2,0:2|1:2|0:2,0:0:0:0:
394,114,180134,2,0,B|405:78|405:78|406:64|406:64|417:25,1,92,2|2,0:2|1:2,0:0:0:0:
493,32,180578,6,0,P|449:45|401:32,1,92,2|2,0:2|1:2,0:0:0:0:
309,141,180912,2,0,P|320:77|257:37,1,115,2|2,0:2|0:2,0:0:0:0:
114,187,181245,2,0,P|112:158|190:103,1,115,2|2,1:2|0:2,0:0:0:0:
284,28,181578,2,0,P|254:45|246:89,1,57.5,2|0,0:2|1:2,0:0:0:0:
451,119,181912,6,0,P|417:127|380:102,1,57.5,2|0,0:2|0:0,0:0:0:0:
367,52,182134,1,2,1:2:0:0:
393,195,182356,2,0,P|364:147|309:140,1,115,2|2,0:2|1:2,0:0:0:0:
397,119,182689,2,0,P|348:170|278:172,1,143.75,2|2,0:2|0:2,0:0:0:0:
336,256,183023,1,2,1:2:0:0:
396,197,183134,2,0,P|372:223|368:258,1,71.875,0|2,0:0|0:2,0:0:0:0:
458,303,183356,2,0,P|400:266|345:305,1,143.75,2|2,0:2|0:2,0:0:0:0:
427,122,183689,2,0,P|463:122|488:146,1,71.875,2|0,0:2|0:0,0:0:0:0:
335,313,183912,6,2,B|313:281|313:281|323:249,1,71.875,2|0,1:2|0:0,0:1:0:0:
445,296,184134,2,2,B|390:235|314:316|368:318|335:351|299:368|254:351,1,206.999993682861,2|0,0:2|0:0,0:1:0:0:
141,301,184689,1,2,0:2:0:0:
216,296,184801,2,0,P|291:314|367:327,1,155.249995262146,2|2,1:2|0:2,0:0:0:0:
330,186,185245,2,0,P|316:208|313:233,1,51.7499984207154,0|2,1:2|0:2,0:0:0:0:
470,162,185467,2,0,P|445:168|424:184,1,51.7499984207154,2|0,0:2|0:0,0:0:0:0:
425,226,185689,6,0,P|375:211|330:186,1,103.499996841431,2|2,1:2|0:2,0:0:0:0:
507,92,186134,2,0,P|484:81|455:86,1,51.7499984207154,2|2,1:2|0:2,0:0:0:0:
313,231,186356,2,0,P|264:241|230:204,1,103.499996841431,0|2,0:0|1:2,0:0:0:0:
399,166,186689,1,0,0:0:0:0:
338,223,186801,2,0,P|259:217|200:300,1,155.249995262146,2|2,0:2|0:2,0:0:0:0:
231,204,187245,2,0,B|217:162|217:162|217:151|217:151|202:105,1,103.499996841431,2|2,0:2|1:1,0:0:0:0:
351,23,187689,6,2,P|309:50|303:100,1,103.499996841431,2|2,0:2|1:2,0:1:0:0:
392,82,188023,2,0,P|414:13|331:39,1,155.249995262146,2|2,0:2|1:2,0:0:0:0:
294,91,188467,1,0,0:0:0:0:
231,138,188578,2,0,P|280:121|325:154,1,103.499996841431,2|0,0:2|1:2,0:0:0:0:
454,257,188912,1,2,0:2:0:0:
417,326,189023,2,0,B|409:293|414:270|423:286|434:253|421:221,1,103.499996841431,2|2,0:2|1:1,0:0:0:0:
512,384,189467,6,0,L|503:349,1,35.9375,8|0,0:2|0:0,0:0:0:0:
344,240,189689,1,2,1:1:0:0:
327,311,189801,6,0,L|318:276,1,35.9375,8|0,0:2|0:0,0:0:0:0:
231,137,190134,6,0,B|217:147|211:136|199:147|199:147|144:126|91:125,1,143.75,10|8,0:1|0:2,0:0:0:0:
0,17,190467,1,8,0:2:0:0:
68,40,190578,1,8,0:1:0:0:
126,99,190689,1,8,0:1:0:0:
154,185,190801,1,4,0:3:0:0:
171,219,190912,1,8,0:1:0:0:
226,293,191023,6,0,B|161:267|161:267|97:308,1,143.75,6|0,1:2|1:2,0:0:0:0:
231,137,191467,2,0,P|219:113|212:88,1,51.7499984207154,10|0,0:2|0:0,0:0:0:0:
82,371,191689,2,0,P|94:348|102:323,1,51.7499984207154,2|0,2:2|1:2,0:0:0:0:
233,302,192134,2,0,P|204:258|179:213,2,103.499996841431,2|8|2,1:2|0:2|2:2,0:0:0:0:
352,368,192689,5,8,0:2:0:0:
418,338,192800,2,0,P|430:315|450:223,1,103.499996841431,2|2,1:2|1:2,0:0:0:0:
259,382,193245,2,0,P|259:305|233:232,1,155.249995262146,10|0,0:2|1:2,0:0:0:0:
120,194,193800,1,8,0:2:0:0:
51,172,193912,2,0,P|68:192|84:213,1,51.7499984207154,2|0,1:2|0:0,0:0:0:0:
233,233,194134,6,2,P|267:194|290:147,1,103.499996841431,8|2,0:2|2:2,0:1:0:0:
277,28,194467,1,8,0:2:0:0:
340,90,194578,6,0,B|301:53|301:53|283:-10,1,103.499996841431,6|0,1:2|1:2,0:0:0:0:
462,248,195023,2,0,P|452:224|441:200,1,51.7499984207154,10|0,0:2|0:0,0:0:0:0:
351,84,195245,2,0,P|351:58|350:32,1,51.7499984207154,2|0,2:2|1:2,0:0:0:0:
315,248,195689,2,0,P|304:197|290:147,2,103.499996841431,2|8|0,1:2|0:2|0:0,0:0:0:0:
446,341,196245,1,8,0:2:0:0:
512,376,196356,2,0,B|465:367|465:367|451:368|451:368|391:355,1,103.499996841431,2|0,1:2|1:2,0:0:0:0:
41,361,196800,6,0,B|23:341|23:341|18:316,1,51.7499984207154,14|0,0:2|0:0,0:0:0:0:
280,263,197023,2,0,P|303:206|276:151,1,126.500003860474,14|0,1:2|1:2,0:0:0:0:
185,122,197356,5,8,0:2:0:0:
112,167,197467,1,10,0:3:0:0:
80,243,197578,1,8,0:2:0:0:
166,167,197689,5,4,1:3:0:0:
84,133,197800,1,8,0:2:0:0:
52,55,197912,1,8,0:3:0:0:
52,55,198023,1,4,0:3:0:0:
150,16,198134,6,0,P|211:35|273:47,1,126.500003860474,6|0,1:2|1:2,0:0:0:0:
490,17,198578,2,0,P|464:13|440:21,1,51.7499984207154,10|0,0:2|0:0,0:0:0:0:
272,46,198800,2,0,P|246:49|222:41,1,51.7499984207154,2|0,2:2|1:2,0:0:0:0:
500,33,199245,2,0,P|448:39|397:33,1,103.499996841431,2|8,1:2|0:2,0:0:0:0:
139,22,199689,6,0,P|113:18|89:26,1,51.7499984207154,2|8,2:2|0:2,0:0:0:0:
378,49,199912,1,2,1:2:0:0:
484,16,200134,1,2,1:2:0:0:
49,63,200356,2,0,B|64:85|90:100|147:97|171:21,1,155.249995262146,10|0,0:2|1:2,0:0:0:0:
168,29,200800,2,0,P|190:41|211:56,1,51.7499984207154
95,121,201023,2,0,P|106:144|116:168,1,51.7499984207154,2|0,1:2|0:0,0:0:0:0:
93,305,201245,5,10,0:1:0:0:
145,363,201356,2,0,B|126:334|126:334|145:245,1,103.499996841431,0|8,0:0|0:2,0:0:0:0:
338,194,201689,6,0,B|385:200|425:233|385:268|460:298,1,155.249995262146,6|0,1:2|0:0,0:0:0:0:
469,372,202134,2,0,B|474:346|474:346|463:322,1,51.7499984207154,10|0,0:2|0:0,0:0:0:0:
491,163,202356,1,2,2:2:0:0:
415,179,202467,2,0,P|376:111|345:40,1,155.249995262146,0|0,1:2|1:2,0:0:0:0:
374,45,203023,6,2,B|409:89|366:142|318:129|282:79|305:77|324:107|276:32|238:57|210:56|173:92|206:141,1,287.5,10|2,0:2|1:2,0:0:0:0:
259,166,203578,1,8,0:2:0:0:
247,88,203689,1,0,1:2:0:0:
178,112,203800,1,4,0:3:0:0:
189,185,203912,2,0,P|281:79|341:15,1,215.625,14|8,0:2|0:2,0:0:0:0:
326,86,204356,5,0,1:2:0:0:
256,77,204467,1,8,0:2:0:0:
206,22,204578,1,10,0:3:0:0:
136,31,204689,1,8,0:2:0:0:
127,39,204800,5,4,1:3:0:0:
168,106,204912,1,8,0:2:0:0:
93,129,205023,1,8,0:3:0:0:
93,129,205134,1,4,0:3:0:0:
49,212,205245,6,0,P|24:166|3:119,1,103.499996841431,6|0,1:2|1:2,0:0:0:0:
263,200,205689,2,0,P|245:218|231:240,1,51.7499984207154,10|0,0:2|0:0,0:0:0:0:
448,186,206023,2,0,P|424:196|398:201,1,51.7499984207154,0|0,1:2|0:0,0:0:0:0:
512,313,206356,1,2,1:2:0:0:
345,299,206578,2,0,P|295:286|252:257,1,103.499996841431,8|2,0:2|2:2,0:0:0:0:
174,148,206912,1,8,0:2:0:0:
153,221,207023,2,0,B|146:170|146:170|124:122,1,103.499996841431,2|2,1:2|1:2,0:0:0:0:
0,364,207467,6,0,P|13:261|29:159,1,206.999993682861,14|0,0:2|1:2,0:0:0:0:
100,101,208023,5,8,0:2:0:0:
133,97,208134,1,2,1:2:0:0:
111,69,208245,1,8,0:2:0:0:
116,88,208356,5,8,1:2:0:0:
188,123,208467,1,8,0:2:0:0:
272,117,208578,1,8,0:2:0:0:
340,71,208689,1,8,0:2:0:0:
355,0,208800,6,0,P|380:59|399:93,1,103.499996841431,6|0,1:2|1:2,0:0:0:0:
437,250,209245,1,10,0:2:0:0:
407,0,209467,2,0,P|406:25|408:51,1,51.7499984207154,2|0,2:2|1:2,0:0:0:0:
486,162,209912,2,0,P|451:200|436:249,1,103.499996841431,2|8,1:2|0:2,0:0:0:0:
219,359,210356,1,0,0:0:0:0:
219,359,210467,1,8,0:2:0:0:
275,308,210578,2,0,P|262:257|252:207,1,103.499996841431,6|0,1:2|1:2,0:0:0:0:
498,130,211023,6,0,P|411:160|335:109,1,189.750005790711,14|8,0:2|0:2,0:0:0:0:
256,21,211467,1,0,1:2:0:0:
220,50,211578,1,8,0:2:0:0:
178,63,211689,1,10,0:3:0:0:
135,60,211800,1,8,0:2:0:0:
71,88,211912,5,4,1:3:0:0:
104,119,212023,1,8,0:2:0:0:
88,161,212134,1,8,0:3:0:0:
56,132,212245,1,4,0:3:0:0:
128,48,212356,6,0,P|152:39|177:33,1,51.7499984207154,6|0,1:2|0:0,0:0:0:0:
271,268,212578,2,0,P|247:256|223:248,1,51.7499984207154,0|0,1:2|0:0,0:0:0:0:
269,137,212800,1,8,0:2:0:0:
344,134,212912,2,0,P|320:146|296:154,1,51.7499984207154,0|2,0:0|2:2,0:0:0:0:
481,174,213134,2,0,P|439:203|420:250,1,103.499996841431,0|8,1:2|0:2,0:0:0:0:
354,301,213467,2,0,P|348:326|352:351,1,51.7499984207154,0|0,1:2|0:0,0:0:0:0:
453,108,213689,2,0,P|458:133|446:214,1,103.499996841431,10|2,0:2|2:2,0:0:0:0:
368,290,214023,1,8,0:2:0:0:
216,233,214134,6,0,P|191:225|165:226,1,51.7499984207154,2|0,1:2|0:0,0:0:0:0:
348,143,214356,2,0,P|366:125|379:102,1,51.7499984207154,2|0,1:2|0:0,0:0:0:0:
179,210,214578,2,0,P|185:235|198:257,1,51.7499984207154,10|0,0:2|0:0,0:0:0:0:
307,97,214800,2,0,P|332:96|357:103,1,51.7499984207154,2|8,2:2|0:2,0:0:0:0:
182,282,215023,2,0,P|195:232|207:181,1,103.499996841431,0|4,1:2|1:3,0:0:0:0:
340,0,215467,6,2,B|364:36|351:98|336:54|328:121|345:156,1,155.249995262146,8|4,0:2|0:3,0:1:0:0:
411,201,215912,6,0,B|358:170|358:170|293:176,1,126.500003860474,6|0,1:2|1:2,0:0:0:0:
87,78,216356,2,0,P|62:72|38:64,1,51.7499984207154,8|0,0:2|0:0,0:0:0:0:
227,130,216578,1,2,2:2:0:0:
293,176,216689,2,0,P|247:165|221:273,1,155.249995262146,0|0,1:2|1:2,0:0:0:0:
225,271,217245,6,2,B|248:210|211:185|176:168|207:100,1,172.500006580353,10|0,0:2|0:0,0:2:0:0:
378,34,217578,1,8,0:2:0:0:
452,42,217689,6,0,B|407:76|407:76|332:63,1,115,2|0,1:1|1:2,0:0:0:0:
0,138,218136,2,2,P|25:61|105:65,1,172.500006580353,12|0,0:2|0:0,0:1:0:0:
182,30,218472,1,8,0:2:0:0:
249,0,218584,2,0,P|221:29|212:78,1,86.2500032901765,2|8,1:1|0:2,0:0:0:0:
260,172,218798,5,4,0:3:0:0:
337,200,218905,1,8,0:2:0:0:
416,167,219012,1,10,1:1:0:0:
410,89,219119,1,8,0:2:0:0:
494,74,219226,1,8,0:2:0:0:
506,4,219334,1,8,0:2:0:0:
512,0,219441,5,0,1:2:0:0:
452,81,219899,1,0,1:2:0:0:
360,163,220356,1,0,1:2:0:0:
284,190,220467,1,8,0:2:0:0:
141,207,220689,1,8,0:2:0:0:
64,183,220800,1,8,0:2:0:0:
8,78,221022,1,8,0:2:0:0:
0,0,221133,1,8,0:2:0:0:
27,8,221244,6,0,P|32:51|51:135,2,129.375004935265,6|2|2,1:2|2:2|2:2,0:0:0:0:
217,0,222139,5,2,1:2:0:0:
142,123,222475,1,2,2:2:0:0:
142,123,222587,1,0,1:2:0:0:
267,203,222811,1,2,2:2:0:0:
222,23,223035,1,2,1:2:0:0:
162,120,223370,1,2,2:2:0:0:
162,120,223482,1,0,1:2:0:0:
261,184,223706,1,2,2:2:0:0:
234,38,223930,1,2,1:2:0:0:
184,117,224266,1,2,2:2:0:0:
184,117,224378,1,0,1:2:0:0:
266,170,224602,1,2,2:2:0:0:
320,86,224826,6,0,P|382:71|446:61,2,129.375004935265,2|2|2,1:2|2:2|2:2,0:0:0:0:
173,309,225708,5,2,1:2:0:0:
249,186,226039,1,2,2:2:0:0:
249,186,226149,1,0,1:2:0:0:
124,106,226370,1,2,2:2:0:0:
169,286,226590,1,2,1:2:0:0:
229,189,226923,1,2,2:2:0:0:
229,189,227034,1,0,1:2:0:0:
130,125,227256,1,2,2:2:0:0:
157,271,227478,1,2,1:2:0:0:
207,192,227812,1,2,2:2:0:0:
207,192,227923,1,8,0:2:0:0:
125,139,228145,1,2,2:2:0:0:
423,188,228367,6,0,P|386:204|342:217,1,86.2500032901765,6|0,1:2|2:2,0:0:0:0:
334,242,228701,2,0,P|318:257|307:276,1,43.1250016450883,2|0,2:2|1:2,0:0:0:0:
235,315,229034,2,0,P|234:336|246:361,1,43.1250016450883,2|0,2:2|2:0,0:0:0:0:
418,203,229256,1,2,1:2:0:0:
464,62,229590,1,2,2:2:0:0:
464,62,229701,1,0,1:2:0:0:
307,20,229923,1,2,2:2:0:0:
95,212,230145,5,2,1:2:0:0:
61,315,230473,1,2,2:2:0:0:
61,315,230582,1,0,1:2:0:0:
175,345,230801,1,2,2:2:0:0:
382,319,231020,5,2,1:2:0:0:
458,280,231349,1,2,2:2:0:0:
458,280,231458,1,0,1:2:0:0:
411,198,231677,1,2,2:2:0:0:
198,148,231896,5,6,1:2:0:0:
253,241,232231,1,2,2:2:0:0:
253,241,232343,1,0,1:2:0:0:
309,149,232567,1,2,2:2:0:0:
147,138,232791,1,2,1:2:0:0:
272,276,233127,1,2,2:2:0:0:
272,276,233239,1,0,1:2:0:0:
333,101,233463,1,2,2:2:0:0:
102,153,233687,1,2,1:1:0:0:
305,300,234015,1,2,2:1:0:0:
305,300,234124,1,4,1:2:0:0:
347,56,234343,1,2,2:1:0:0:
347,56,234453,1,8,0:2:0:0:
280,13,234562,5,2,1:1:0:0:
249,45,234672,1,8,0:2:0:0:
212,65,234781,1,8,0:3:0:0:
174,77,234891,1,8,0:2:0:0:
108,43,235000,6,0,B|54:33|54:33|-9:4,1,115,8|8,1:2|0:2,0:0:0:0:
311,136,235219,5,8,0:1:0:0:
240,93,235329,1,8,0:1:0:0:
204,166,235438,6,2,P|222:104|243:45,1,126.500003860474,6|0,1:2|0:0,0:1:0:0:
319,122,235776,2,0,P|329:91|341:62,1,63.2500019302369,2|8,2:2|0:2,0:0:0:0:
164,227,236114,2,0,P|173:196|185:167,1,63.2500019302369,2|0,2:2|0:0,0:0:0:0:
371,67,236340,1,2,1:2:0:0:
305,30,236453,2,0,P|246:16|211:64,1,126.500003860474,8|2,0:2|2:2,0:0:0:0:
311,136,236791,2,0,P|334:156|350:197,1,63.2500019302369,8|0,0:2|0:0,0:0:0:0:
446,49,237016,2,0,P|415:57|384:87,1,63.2500019302369,2|0,2:2|0:0,0:0:0:0:
268,206,237242,6,0,P|207:190|146:173,1,126.500003860474,2|0,1:2|0:0,0:0:0:0:
69,64,237575,1,2,2:2:0:0:
134,35,237686,2,0,P|114:59|106:90,1,63.2500019302369,8|0,0:2|0:0,0:0:0:0:
28,254,237908,2,0,P|8:229|0:198,1,63.2500019302369,2|8,2:2|0:2,0:0:0:0:
147,174,238130,1,2,1:2:0:0:
190,116,238242,2,0,P|178:179|151:235,1,126.500003860474,0|2,0:0|2:2,0:0:0:0:
46,313,238575,2,0,P|42:251|75:198,1,126.500003860474,8|2,0:2|2:2,0:0:0:0:
194,235,238908,1,8,0:2:0:0:
238,176,239020,6,2,P|295:150|353:124,1,126.500003860474,6|0,1:2|0:0,0:1:0:0:
248,65,239353,2,0,P|222:46|192:38,1,63.2500019302369,2|8,2:2|0:2,0:0:0:0:
436,112,239686,2,0,P|425:82|405:58,1,63.2500019302369,2|0,2:2|0:0,0:0:0:0:
337,247,239908,2,0,P|333:184|353:124,1,126.500003860474,2|0,1:2|0:0,0:0:0:0:
449,34,240242,1,2,2:2:0:0:
353,125,240353,2,0,P|330:147|302:160,1,63.2500019302369,8|0,0:2|0:0,0:0:0:0:
503,368,240575,2,0,P|480:346|452:333,1,63.2500019302369,2|0,2:2|0:0,0:0:0:0:
337,246,240797,6,0,P|287:285|226:301,1,126.500003860474,2|0,1:2|0:0,0:0:0:0:
180,238,241131,1,2,2:2:0:0:
227,302,241242,6,0,P|151:271|97:332,1,172.500006580353,12|2,0:2|2:2,0:0:0:0:
0,277,241575,1,8,0:2:0:0:
56,229,241686,1,2,1:2:0:0:
169,343,241797,6,0,P|148:259|125:176,1,172.500006580353,12|2,0:2|2:2,0:0:0:0:
0,142,242131,6,0,P|74:106|80:24,1,172.500006580353,12|0,0:2|0:0,0:0:0:0:
8,43,242464,1,0,0:0:0:0:
174,60,242575,5,6,1:2:0:0:
174,60,242908,2,0,L|235:40,1,63.2500019302369,2|8,2:2|0:2,0:0:0:0:
60,161,243242,2,0,L|-1:141,1,63.2500019302369,2|0,2:2|0:0,0:0:0:0:
345,23,243464,2,0,P|285:6|233:39,1,126.500003860474,2|0,1:2|0:0,0:0:0:0:
100,44,243797,2,0,P|98:75|109:104,1,63.2500019302369,2|8,2:2|0:2,0:0:0:0:
347,27,244131,2,0,P|318:39|297:62,1,63.2500019302369,2|0,2:2|0:0,0:0:0:0:
512,0,244353,6,2,P|473:50|427:93,1,126.500003860474,2|0,1:2|0:0,0:1:0:0:
391,173,244686,2,0,P|364:155|334:146,1,63.2500019302369,2|8,2:2|0:2,0:0:0:0:
480,175,245020,2,0,P|473:144|458:116,1,63.2500019302369,2|8,2:2|0:2,0:0:0:0:
240,162,245242,2,2,P|256:90|307:60,1,126.500003860474,2|0,1:2|0:0,0:1:0:0:
128,40,245575,2,0,P|166:54|202:49,1,63.2500019302369,2|8,2:2|0:2,0:0:0:0:
146,300,245908,5,2,2:2:0:0:
217,245,246020,1,8,0:2:0:0:
240,162,246131,2,2,P|231:100|190:53,1,126.500003860474,6|0,1:2|0:0,0:1:0:0:
69,78,246464,2,0,P|37:75|8:86,1,63.2500019302369,2|8,2:2|0:2,0:0:0:0:
190,53,246797,2,0,P|169:28|141:16,1,63.2500019302369,2|0,2:2|0:0,0:0:0:0:
243,166,247020,1,2,1:1:0:0:
266,273,247242,2,0,P|290:252|302:224,1,63.2500019302369,0|2,0:0|2:2,0:0:0:0:
121,238,247464,6,0,P|210:208|303:224,1,189.750005790711,12|8,0:2|0:2,0:0:0:0:
422,338,247908,5,2,1:1:0:0:
452,352,248020,1,8,0:2:0:0:
486,351,248131,1,2,0:3:0:0:
505,208,248353,6,0,P|482:229|471:259,1,63.2500019302369,12|0,0:2|0:0,0:0:0:0:
360,33,248575,2,2,P|351:63|356:94,1,63.2500019302369,2|8,2:2|0:2,0:0:0:0:
508,212,248797,6,0,P|463:177|407:175,1,86.2500032901765,2|8,1:2|0:2,0:0:0:0:
342,266,249014,5,8,0:2:0:0:
328,286,249123,1,8,0:2:0:0:
326,311,249231,1,4,1:3:0:0:
322,228,249340,5,8,0:2:0:0:
259,193,249449,1,8,0:2:0:0:
191,221,249557,1,8,0:2:0:0:
327,222,249666,6,0,P|307:183|284:147,1,86.2500032901765,6|0,1:2|0:0,0:0:0:0:
460,42,249891,1,0,1:2:0:0:
390,74,250004,2,0,P|413:38|434:0,1,86.2500032901765,0|8,0:0|0:2,0:0:0:0:
237,175,250342,2,0,P|243:133|219:98,1,86.2500032901765,0|8,0:0|0:2,0:0:0:0:
106,302,250568,5,0,1:2:0:0:
41,253,250681,2,0,P|57:212|68:170,1,86.2500032901765,8|0,0:2|1:2,0:0:0:0:
98,110,250906,2,0,P|56:104|87:159,1,86.2500032901765,0|8,0:0|0:2,0:0:0:0:
294,239,251244,1,0,0:0:0:0:
294,239,251357,1,8,0:2:0:0:
351,289,251470,6,2,P|321:210|363:138,1,172.500006580353,4|0,1:2|1:2,0:1:0:0:
431,95,251793,2,0,P|465:128|448:172,1,86.2500032901765,0|8,0:0|0:2,0:0:0:0:
351,193,252117,1,0,0:0:0:0:
273,210,252225,2,0,P|239:243|232:290,2,86.2500032901765,8|0|8,0:2|1:2|0:2,0:0:0:0:
416,73,252549,2,0,P|333:96|248:109,1,172.500006580353,0|8,1:2|0:2,0:0:0:0:
350,110,252998,2,0,P|308:97|266:89,1,86.2500032901765,0|8,0:0|0:2,0:0:0:0:
27,0,253232,6,2,P|28:81|105:108,1,172.500006580353,4|0,1:2|1:2,0:1:0:0:
142,36,253567,2,0,P|102:51|85:89,1,86.2500032901765,0|8,0:0|0:2,0:0:0:0:
249,163,253903,1,0,0:0:0:0:
249,163,254015,1,8,0:2:0:0:
267,88,254127,2,0,P|248:127|217:157,2,86.2500032901765,0|8|0,1:2|0:2|1:2,0:0:0:0:
405,71,254463,2,0,P|386:32|333:20,1,86.2500032901765,0|8,0:0|0:2,0:0:0:0:
85,89,254799,2,0,P|126:74|171:103,1,86.2500032901765,0|8,0:0|0:2,0:0:0:0:
190,256,255023,5,4,1:2:0:0:
190,256,255134,1,0,0:0:0:0:
208,331,255246,2,2,P|157:261|119:183,2,172.500006580353,0|12|0,1:2|0:2|0:0,0:1:0:0:
287,316,255806,1,8,0:2:0:0:
362,335,255918,5,0,1:2:0:0:
399,320,256028,1,8,0:2:0:0:
423,286,256138,1,8,0:3:0:0:
432,242,256248,1,8,0:2:0:0:
388,175,256359,1,8,1:2:0:0:
391,98,256469,1,8,0:2:0:0:
451,50,256579,1,8,0:3:0:0:
512,100,256690,1,4,0:3:0:0:
507,107,256799,6,2,P|422:88|337:74,1,172.500006580353,4|0,1:2|1:2,0:1:0:0:
294,8,257109,2,0,P|254:19|233:55,1,86.2500032901765,0|8,0:0|0:2,0:0:0:0:
501,113,257442,2,0,P|492:71|484:28,1,86.2500032901765,0|8,0:0|0:2,0:0:0:0:
149,99,257673,1,0,1:2:0:0:
75,104,257788,2,0,P|116:113|145:149,1,86.2500032901765,8|0,0:2|1:2,0:0:0:0:
416,5,258135,2,0,P|392:49|277:107,1,172.500006580353,8|0,0:2|0:0,0:0:0:0:
222,51,258481,1,8,0:2:0:0:
408,86,258596,6,2,P|339:133|327:216,1,172.500006580353,4|0,1:2|1:2,0:1:0:0:
204,242,258922,1,0,0:0:0:0:
335,307,259030,2,0,P|323:266|289:240,1,86.2500032901765,8|0,0:2|0:0,0:0:0:0:
478,114,259248,2,0,P|466:155|417:165,1,86.2500032901765,0|8,0:0|0:2,0:0:0:0:
207,246,259465,1,0,1:2:0:0:
163,307,259580,2,0,P|183:269|155:227,2,86.2500032901765,8|0|0,0:2|1:2|0:0,0:0:0:0:
454,293,259926,2,0,P|370:269|290:240,1,172.500006580353,8|8,0:2|0:3,0:0:0:0:
368,222,260264,1,4,0:3:0:0:
505,192,260366,6,2,P|470:167|428:168,1,86.2500032901765,4|0,1:2|0:0,0:1:0:0:
256,321,260588,1,0,1:2:0:0:
204,381,260699,2,0,P|218:340|216:297,1,86.2500032901765,0|8,0:0|0:2,0:0:0:0:
72,180,260921,1,0,0:0:0:0:
2,198,261032,2,0,P|36:172|59:136,1,86.2500032901765,0|8,0:0|0:2,0:0:0:0:
239,146,261254,5,0,1:2:0:0:
220,101,261366,1,8,0:2:0:0:
220,55,261477,1,0,1:2:0:0:
239,6,261588,1,0,0:0:0:0:
248,230,261699,6,0,P|264:146|293:65,1,172.500006580353,12|0,0:2|0:0,0:0:0:0:
367,20,262032,1,8,0:2:0:0:
413,115,262143,5,4,1:2:0:0:
428,139,262254,1,8,0:2:0:0:
442,161,262366,1,0,1:2:0:0:
454,179,262477,1,0,0:0:0:0:
507,235,262588,6,0,P|402:190|316:136,1,172.500006580353,12|0,0:1|0:0,0:0:0:0:
272,159,262921,1,8,0:2:0:0:
407,291,263032,6,0,P|381:324|341:340,1,86.2500032901765,0|8,1:2|0:2,0:0:0:0:
150,357,263254,5,8,1:3:0:0:
96,297,263366,1,8,0:2:0:0:
136,222,263477,5,4,1:3:0:0:
113,156,263588,1,8,0:2:0:0:
177,112,263699,5,8,1:3:0:0:
193,80,263810,1,4,1:3:0:0:
26,7,263921,6,0,B|49:48|49:48|83:66,1,86.2500032901765,4|0,1:2|0:0,0:0:0:0:
237,70,264141,2,0,B|266:101|266:101|278:120|278:120|300:146,1,86.2500032901765,0|0,1:2|0:0,0:0:0:0:
327,283,264362,6,2,B|281:248|281:248|257:184|257:184|377:114,1,230,8|0,0:2|0:0,0:1:0:0:
432,118,264693,2,2,L|309:71,1,86.2500032901765,8|0,0:2|1:2,0:1:0:0:
195,135,264913,1,8,0:2:0:0:
250,79,265023,2,2,L|127:126,2,86.2500032901765,0|0|12,1:2|0:0|0:2,0:1:0:0:
340,108,265354,1,0,0:0:0:0:
284,180,265465,1,0,0:0:0:0:
331,252,265575,1,8,0:2:0:0:
406,216,265685,6,2,B|353:192|353:192|312:209|312:209|244:278,1,172.500006580353,4|0,1:2|1:2,0:1:0:0:
156,98,266126,2,0,B|162:137|162:137|212:197,1,86.2500032901765,12|0,0:2|0:0,0:0:0:0:
265,299,266347,1,0,0:0:0:0:
352,314,266457,2,2,B|314:287|314:287|236:286|236:286|161:188|161:188|56:145,1,345.000013160706,8|8,0:2|0:2,0:1:0:0:
61,42,267009,1,0,1:2:0:0:
157,23,267119,1,8,0:2:0:0:
103,108,267229,1,8,0:3:0:0:
174,179,267340,1,4,0:3:0:0:
108,283,267450,6,0,B|64:249|64:249|68:208,1,86.2500032901765,4|0,1:2|0:0,0:0:0:0:
304,65,267675,2,0,B|270:85|270:85|260:99|260:99|226:105,1,86.2500032901765,0|0,1:2|0:0,0:0:0:0:
345,193,267901,6,2,L|143:52,1,172.500006580353,8|0,0:2|0:0,0:1:0:0:
503,25,268239,2,0,B|463:62|463:62|441:113,2,86.2500032901765,8|0|8,0:2|1:2|0:2,0:0:0:0:
412,247,268577,6,2,B|389:236|389:236|354:112,1,86.2500032901765,0|0,1:2|0:0,0:1:0:0:
451,384,268803,6,2,B|421:313|421:313|430:218|430:218|374:150|374:150|345:103,1,258.75000987053,12|8,0:2|0:2,0:2:0:0:
464,80,269254,2,0,B|440:106|440:106|409:112|409:112|355:128,1,86.2500032901765,0|8,1:2|0:2,0:0:0:0:
154,270,269454,6,0,B|98:215|98:215|102:165,1,86.2500032901765,4|0,1:2|0:0,0:0:0:0:
270,85,269654,1,0,1:2:0:0:
341,40,269765,6,0,B|285:95|285:95|289:145,1,86.2500032901765,12|0,0:2|0:0,0:0:0:0:
438,167,269987,1,0,0:0:0:0:
456,249,270098,6,0,B|455:170|455:170|493:137,1,86.2500032901765,4|8,1:1|0:2,0:0:0:0:
290,366,270320,5,8,0:3:0:0:
234,300,270431,1,8,0:2:0:0:
197,379,270542,5,8,1:2:0:0:
156,343,270654,1,8,0:2:0:0:
78,372,270765,5,8,0:3:0:0:
64,358,270876,1,4,0:3:0:0:
159,301,270987,6,0,B|129:284|129:284|103:287|103:287|57:276,1,86.2500032901765,4|0,1:2|0:0,0:0:0:0:
318,275,271217,2,0,B|320:320|320:320|317:346|317:346|328:392,1,86.2500032901765,0|0,1:2|0:0,0:0:0:0:
0,299,271448,6,0,B|56:276|56:276|10:182,1,86.2500032901765,8|0,0:2|0:0,0:0:0:0:
244,277,271673,1,0,0:0:0:0:
221,208,271786,6,2,B|260:251|260:251|173:271|173:271|36:396,1,258.75000987053,8|0,0:2|1:2,0:1:0:0:
203,384,272237,2,0,L|157:287,1,86.2500032901765,0|8,0:0|0:2,0:0:0:0:
215,30,272568,6,2,L|134:182,1,172.500006580353,0|6,0:0|1:1,0:1:0:0:
222,103,273012,2,2,B|135:140|135:140|141:255,1,172.500006580353,2|8,1:2|0:2,0:1:0:0:
403,172,273463,5,2,0:1:0:0:
382,246,273576,2,0,L|331:28,1,172.500006580353,8|8,0:2|0:2,0:0:0:0:
363,49,273914,2,0,B|331:73|331:73|351:159,1,86.2500032901765,2|0,1:1|0:0,0:0:0:0:
512,138,274140,6,0,B|496:130|496:130|505:78|505:78|500:28,1,86.2500032901765,10|0,0:1|0:0,0:0:0:0:
252,333,274365,6,0,B|268:325|268:325|259:273|259:273|264:223,1,86.2500032901765,2|8,0:1|0:2,0:0:0:0:
31,309,274591,6,2,B|47:301|47:301|38:249|38:249|356:324,1,345.000013160706,4|8,1:2|0:2,0:1:0:0:
401,122,275248,1,0,0:0:0:0:
466,182,275360,6,0,B|452:157|452:157|331:183|331:183|276:128,1,172.500006580353,10|8,0:2|0:2,0:0:0:0:
260,101,275696,6,2,B|289:73|289:73|344:52|344:52|358:85|358:85|324:213|324:213|306:216|306:216|222:322,1,345.000013160706,2|2,1:3|0:3,0:1:0:0:
96,157,276241,1,8,0:2:0:0:
81,227,276348,6,0,B|78:196|78:196|64:188|64:188|32:137,1,86.2500032901765,4|8,1:2|0:2,0:0:0:0:
158,300,276570,1,0,1:2:0:0:
230,323,276681,1,8,0:2:0:0:
177,271,276792,1,0,1:2:0:0:
139,340,276903,1,8,0:2:0:0:
211,371,277014,1,8,0:2:0:0:
258,314,277125,1,8,0:2:0:0:
246,231,277236,5,0,1:2:0:0:
255,155,277348,1,8,0:2:0:0:
302,104,277459,1,0,1:2:0:0:
313,100,277570,1,8,0:2:0:0:
396,105,277681,5,8,1:2:0:0:
362,178,277792,1,8,0:2:0:0:
423,247,277903,1,8,1:3:0:0:
352,323,278014,1,4,1:3:0:0:
433,368,278125,6,2,B|474:275|474:275|-19:144,1,603.750023031236,6|0,1:2|2:2,0:1:0:0:
0,160,278994,6,2,B|7:165|7:165|116:133,1,115,2|4,0:2|0:2,0:2:0:0:
256,192,279972,12,2,286168,1:3:0:0:
