osu file format v14

[General]
AudioFilename: a1.mp3
AudioLeadIn: 0
PreviewTime: 68329
Countdown: 0
SampleSet: Soft
StackLeniency: 0.7
Mode: 0
LetterboxInBreaks: 0
WidescreenStoryboard: 1

[Editor]
DistanceSpacing: 1.6
BeatDivisor: 4
GridSize: 4
TimelineZoom: 1.600006

[Metadata]
Title:Youshi Tanrei na Uso
TitleUnicode:容姿端麗な嘘
Artist:THE ORAL CIGARETTES
ArtistUnicode:THE ORAL CIGARETTES
Creator:Maiev
Version:dkblaze's Tears
Source:
Tags:dkblaze Kisses and Kills TOC StunterLetsPlay Stunter Yuuma Asuka_- Asuka cut ver version japanese rock jrock j-rock
BeatmapID:2221938
BeatmapSetID:1029803

[Difficulty]
HPDrainRate:6.5
CircleSize:4
OverallDifficulty:9
ApproachRate:9.4
SliderMultiplier:1.8
SliderTickRate:1

[Events]
//Background and Video events
0,0,"bg.jpg",0,0
//Break Periods
//Storyboard Layer 0 (Background)
//Storyboard Layer 1 (Fail)
//Storyboard Layer 2 (Pass)
//Storyboard Layer 3 (Foreground)
//Storyboard Layer 4 (Overlay)
//Storyboard Sound Samples

[TimingPoints]
3794,454.545454545455,4,2,10,65,1,0
3794,-100,4,2,10,65,0,0
10612,-71.4285714285714,4,2,10,65,0,0
10953,-100,4,2,10,5,0,0
11066,-83.3333333333333,4,2,10,75,0,0
24703,-58.8235294117647,4,2,10,75,0,0
24816,-58.8235294117647,4,2,10,5,0,0
24930,-45.4545454545455,4,2,10,75,0,0
25044,-45.4545454545455,4,2,10,5,0,0
25157,-333.333333333333,4,2,10,75,0,0
25498,-333.333333333333,4,2,10,5,0,0
25612,-83.3333333333333,4,2,10,70,0,0
27544,-83.3333333333333,4,2,10,5,0,0
27657,-83.3333333333333,4,2,10,70,0,0
28453,-83.3333333333333,4,2,10,5,0,0
28566,-83.3333333333333,4,2,10,70,0,0
31180,-83.3333333333333,4,2,10,5,0,0
31294,-83.3333333333333,4,2,10,70,0,0
32089,-83.3333333333333,4,2,10,5,0,0
32203,-83.3333333333333,4,2,10,70,0,0
32884,-100,4,2,10,70,0,0
34703,-83.3333333333333,4,2,10,70,0,0
34816,-83.3333333333333,4,2,10,5,0,0
34930,-83.3333333333333,4,2,10,70,0,0
35725,-83.3333333333333,4,2,10,5,0,0
35839,-83.3333333333333,4,2,10,70,0,0
38225,-83.3333333333333,4,2,10,5,0,0
38339,-100,4,2,10,70,0,0
40157,-83.3333333333333,4,2,10,75,0,0
53794,-58.8235294117647,4,2,10,75,0,0
53907,-58.8235294117647,4,2,10,5,0,0
54021,-45.4545454545455,4,2,10,75,0,0
54134,-45.4545454545455,4,2,10,5,0,0
54248,-166.666666666667,4,2,10,75,0,0
54589,-166.666666666667,4,2,10,5,0,0
54703,-100,4,2,10,70,0,0
58339,-58.8235294117647,4,2,10,70,0,0
61975,-100,4,2,10,70,0,0
68339,-500,4,2,10,70,0,0
69134,-500,4,2,10,5,0,0
69248,-62.5,4,2,10,80,0,1
92316,-62.5,4,2,10,5,0,1
92430,-62.5,4,2,10,80,0,1
94703,-76.9230769230769,4,2,10,75,0,0
108112,-76.9230769230769,4,2,10,5,0,0
108225,-76.9230769230769,4,2,10,75,0,0

[Colours]
Combo1 : 137,254,216
Combo2 : 255,181,145
Combo3 : 159,203,255
Combo4 : 255,183,183

[HitObjects]
147,177,3794,5,8,3:2:0:0:
177,374,4021,1,8,3:2:0:0:
46,205,4248,6,0,L|55:155,2,45,2|2|2,3:2|0:0|0:0,0:0:0:0:
18,233,4589,1,2,0:0:0:0:
376,318,4816,1,0,0:0:0:0:
376,318,4930,2,0,P|382:298|382:274,1,45,2|0,0:0|0:0,0:0:0:0:
265,194,5157,2,0,L|329:203,1,45,2|0,3:2|0:0,0:0:0:0:
358,89,5384,2,0,L|294:98,1,45,2|0,0:0|0:0,0:0:0:0:
121,116,5612,5,8,3:2:0:0:
402,173,5839,1,8,3:2:0:0:
247,50,6066,5,2,3:2:0:0:
247,50,6180,2,0,P|235:71|234:102,1,45,2|0,0:0|0:0,0:0:0:0:
265,194,6407,1,2,0:0:0:0:
62,348,6634,1,0,0:0:0:0:
51,358,6748,2,0,L|42:292,1,45,2|0,0:0|0:0,0:0:0:0:
149,220,6975,2,0,L|140:286,1,45,2|0,3:2|0:0,0:0:0:0:
21,182,7203,2,0,L|12:116,1,45,2|0,0:0|0:0,0:0:0:0:
184,8,7430,5,8,3:2:0:0:
142,264,7657,1,8,3:2:0:0:
293,105,7884,5,2,3:2:0:0:
293,105,7998,2,0,P|271:99|249:101,1,45,2|0,0:0|0:0,0:0:0:0:
148,149,8225,1,2,0:0:0:0:
323,288,8453,1,0,0:0:0:0:
257,372,8566,2,0,L|248:306,1,45,2|0,0:0|0:0,0:0:0:0:
357,181,8794,2,0,L|432:193,1,45,2|0,3:2|0:0,0:0:0:0:
466,326,9021,2,0,L|421:333,1,45,2|0,0:0|0:0,0:0:0:0:
244,245,9248,5,6,3:2:0:0:
207,245,9362,1,8,0:0:0:0:
175,228,9475,1,8,0:0:0:0:
157,196,9589,1,8,0:0:0:0:
180,136,9703,5,2,3:2:0:0:
157,82,9816,1,8,0:0:0:0:
100,65,9930,1,8,0:0:0:0:
44,83,10044,1,8,0:0:0:0:
6,145,10157,5,2,3:2:0:0:
63,188,10271,1,8,0:0:0:0:
134,188,10384,1,8,0:0:0:0:
191,144,10498,1,8,0:0:0:0:
264,117,10612,6,0,B|302:107|302:107|345:142|345:142|405:137|405:137|373:123,1,188.999994232178,6|0,3:2|0:0,0:0:0:0:
287,190,11066,6,0,P|298:216|301:246,1,53.9999983520508,6|0,3:2|0:0,0:0:0:0:
414,296,11294,2,0,P|414:272|430:246,1,53.9999983520508,2|0,0:0|0:0,0:0:0:0:
385,32,11521,1,10,3:2:0:0:
385,32,11634,2,0,L|392:86,1,53.9999983520508,2|0,0:0|0:0,0:0:0:0:
512,165,11862,2,0,L|503:218,1,53.9999983520508,10|0,0:0|3:0,0:0:0:0:
335,312,12089,2,0,L|332:258,1,53.9999983520508,10|0,0:0|0:0,0:0:0:0:
509,384,12316,1,2,0:0:0:0:
509,384,12430,2,0,P|490:368|461:362,1,53.9999983520508,10|0,3:2|0:0,0:0:0:0:
282,376,12657,2,0,P|257:386|230:384,1,53.9999983520508,2|8,0:0|0:0,0:0:0:0:
168,322,12884,5,0,3:0:0:0:
10,374,13112,1,2,0:0:0:0:
0,315,13225,1,2,0:0:0:0:
55,245,13339,1,10,3:2:0:0:
63,190,13453,2,0,L|70:137,1,53.9999983520508,2|0,0:0|0:0,0:0:0:0:
228,180,13680,2,0,L|166:187,1,53.9999983520508,10|0,3:3|3:0,0:0:0:0:
110,0,13907,1,10,3:3:0:0:
110,0,14021,2,0,L|120:75,1,53.9999983520508,2|0,0:0|0:0,0:0:0:0:
228,180,14248,2,0,L|238:105,1,53.9999983520508,10|0,3:2|0:0,0:0:0:0:
0,5,14475,2,0,L|10:80,1,53.9999983520508,2|8,0:0|0:3,0:0:0:0:
5,247,14703,6,0,P|31:239|57:246,1,53.9999983520508,2|0,3:2|0:0,0:0:0:0:
239,343,14930,2,0,L|229:270,1,53.9999983520508,2|0,0:0|0:0,0:0:0:0:
103,382,15157,1,10,3:2:0:0:
103,382,15271,2,0,L|93:309,1,53.9999983520508,2|0,0:0|0:0,0:0:0:0:
199,170,15498,2,0,P|172:174|147:163,1,53.9999983520508,10|0,0:0|3:0,0:0:0:0:
299,51,15725,2,0,L|289:124,1,53.9999983520508,10|0,0:0|0:0,0:0:0:0:
418,202,15953,1,2,0:0:0:0:
418,202,16066,2,0,P|393:190|367:194,1,53.9999983520508,10|0,3:2|0:0,0:0:0:0:
481,335,16294,2,0,L|488:281,1,53.9999983520508,2|8,0:0|0:0,0:0:0:0:
509,77,16521,5,14,3:2:0:0:
492,37,16634,1,8,0:0:0:0:
452,18,16748,1,10,0:0:0:0:
408,18,16862,1,8,0:0:0:0:
332,83,16975,5,2,3:2:0:0:
332,83,17089,2,0,L|339:136,1,53.9999983520508,10|0,0:0|0:0,0:0:0:0:
253,227,17316,2,0,L|245:280,1,53.9999983520508,10|0,0:0|3:0,0:0:0:0:
385,245,17544,1,10,0:0:0:0:
385,245,17657,2,0,P|363:228|337:226,1,53.9999983520508,2|8,0:0|0:0,0:0:0:0:
150,313,17884,5,2,3:2:0:0:
140,250,17997,1,8,0:0:0:0:
130,187,18112,1,10,0:0:0:0:
120,124,18225,1,8,0:0:0:0:
110,61,18339,6,0,L|163:70,1,53.9999983520508,2|0,3:2|0:0,0:0:0:0:
33,86,18566,2,0,P|26:60|31:34,1,53.9999983520508,2|0,0:0|0:0,0:0:0:0:
239,62,18794,1,10,3:2:0:0:
239,62,18907,2,0,P|240:88|228:112,1,53.9999983520508,2|0,0:0|0:0,0:0:0:0:
140,250,19134,2,0,L|213:243,1,53.9999983520508,10|0,0:0|3:0,0:0:0:0:
352,166,19362,2,0,L|279:159,1,53.9999983520508,10|0,0:0|0:0,0:0:0:0:
426,244,19589,1,2,0:0:0:0:
426,244,19703,2,0,L|434:180,1,53.9999983520508,10|0,3:2|0:0,0:0:0:0:
337,33,19930,2,0,L|345:97,1,53.9999983520508,2|8,0:0|0:0,0:0:0:0:
289,280,20157,5,0,3:0:0:0:
0,133,20384,1,2,0:0:0:0:
57,148,20498,1,2,0:0:0:0:
114,83,20612,1,10,3:2:0:0:
172,93,20725,2,0,L|166:148,1,53.9999983520508,2|0,0:0|0:0,0:0:0:0:
42,250,20953,2,0,P|67:239|94:241,1,53.9999983520508,10|0,3:3|3:0,0:0:0:0:
252,104,21180,1,10,3:3:0:0:
252,104,21294,2,0,L|246:159,1,53.9999983520508,2|0,0:0|0:0,0:0:0:0:
159,354,21521,2,0,L|153:300,1,53.9999983520508,10|0,3:2|0:0,0:0:0:0:
331,137,21748,2,0,L|326:191,1,53.9999983520508,2|8,0:0|0:3,0:0:0:0:
400,347,21975,6,0,P|428:352|456:343,1,53.9999983520508,2|0,3:2|0:0,0:0:0:0:
512,201,22203,2,0,L|506:254,1,53.9999983520508,2|0,0:0|0:0,0:0:0:0:
405,97,22430,1,10,3:2:0:0:
405,97,22544,2,0,L|411:150,1,53.9999983520508,2|0,0:0|0:0,0:0:0:0:
228,201,22771,2,0,P|214:177|212:150,1,53.9999983520508,10|0,0:0|3:0,0:0:0:0:
342,27,22998,2,0,P|328:51|305:66,1,53.9999983520508,10|0,0:0|0:0,0:0:0:0:
135,15,23225,1,2,0:0:0:0:
135,15,23339,2,0,P|162:14|187:26,1,53.9999983520508,10|0,3:2|0:0,0:0:0:0:
302,231,23566,2,0,L|296:284,1,53.9999983520508,2|0,0:0|0:0,0:0:0:0:
468,384,23794,5,14,3:2:0:0:
463,319,23907,1,8,0:0:0:0:
458,254,24021,1,10,0:0:0:0:
453,189,24134,1,8,0:0:0:0:
384,227,24248,5,2,3:2:0:0:
384,227,24362,2,0,P|373:202|374:175,1,53.9999983520508,10|0,0:0|0:0,0:0:0:0:
481,11,24589,1,10,0:0:0:0:
451,83,24703,6,0,P|415:96|377:94,1,76.5000014591217,2|0,3:2|0:0,0:0:0:0:
245,18,24930,6,0,P|198:3|151:15,1,99.0000030212403,2|0,3:2|0:0,0:0:0:0:
12,110,25157,6,0,L|17:157,1,40.4999987640381,2|0,3:2|0:0,0:0:0:0:
27,233,25612,5,6,3:2:0:0:
27,233,25839,1,2,3:2:0:0:
161,272,26066,1,8,0:0:0:0:
232,119,26634,5,8,0:0:0:0:
229,141,26748,1,0,3:0:0:0:
4,30,26975,1,8,0:0:0:0:
253,38,27430,6,0,P|226:33|200:41,1,53.9999983520508,2|0,3:2|0:0,0:0:0:0:
31,288,27771,1,2,3:2:0:0:
31,288,27884,2,0,L|23:226,1,53.9999983520508,8|0,0:0|0:0,0:0:0:0:
10,145,28112,1,2,3:2:0:0:
213,228,28339,2,0,L|273:225,1,53.9999983520508,2|0,3:2|0:0,0:0:0:0:
365,41,28680,1,2,3:2:0:0:
365,40,28794,2,0,P|330:81|330:134,1,107.999996704102,8|2,0:0|3:2,0:0:0:0:
469,264,29248,5,2,3:2:0:0:
469,264,29475,1,2,3:2:0:0:
280,353,29703,1,8,0:0:0:0:
251,186,30270,5,8,0:0:0:0:
255,208,30384,1,0,3:0:0:0:
484,91,30611,1,8,0:0:0:0:
308,8,30953,1,8,0:0:0:0:
308,8,31066,6,0,L|248:18,1,53.9999983520508,2|0,3:2|0:0,0:0:0:0:
33,0,31407,1,2,3:2:0:0:
33,0,31521,2,0,P|54:16|63:41,1,53.9999983520508,8|0,0:0|0:0,0:0:0:0:
26,147,31748,1,2,3:2:0:0:
251,186,31975,2,0,L|257:121,1,53.9999983520508,2|0,3:2|0:0,0:0:0:0:
17,264,32316,1,2,3:2:0:0:
16,264,32430,2,0,L|78:255,1,53.9999983520508,8|0,0:0|0:0,0:0:0:0:
144,301,32657,1,2,3:2:0:0:
251,186,32884,5,2,3:2:0:0:
251,186,33112,1,2,3:2:0:0:
430,259,33339,1,8,0:0:0:0:
415,95,33907,5,8,0:0:0:0:
392,99,34021,2,0,L|400:159,1,45,0|0,3:0|0:0,0:0:0:0:
505,286,34248,2,0,L|497:346,3,45,10|2|2|10,0:0|0:0|0:0|0:0,0:0:0:0:
430,259,34703,6,0,P|402:258|379:272,1,53.9999983520508,2|0,3:2|0:0,0:0:0:0:
194,384,35044,1,2,3:2:0:0:
194,384,35157,2,0,L|185:313,1,53.9999983520508,8|0,0:0|0:0,0:0:0:0:
175,247,35384,1,2,3:2:0:0:
267,53,35612,2,0,L|321:59,1,53.9999983520508,2|0,3:2|0:0,0:0:0:0:
23,142,35953,1,2,3:2:0:0:
23,142,36066,2,0,L|148:128,1,107.999996704102,8|2,0:0|3:2,0:0:0:0:
259,233,36521,5,2,3:2:0:0:
259,233,36748,1,2,3:2:0:0:
405,69,36975,1,8,0:0:0:0:
281,138,37544,5,8,0:0:0:0:
303,141,37657,1,0,3:0:0:0:
155,6,37884,2,0,B|121:38|121:38|246:23,1,161.999995056153,8|0,0:0|0:0,0:0:0:0:
310,13,38339,5,10,3:2:0:0:
408,209,38566,1,10,3:2:0:0:
35,346,39248,5,10,3:2:0:0:
83,111,39475,1,10,3:2:0:0:
82,110,40157,6,0,P|106:124|133:124,1,53.9999983520508,6|0,3:2|0:0,0:0:0:0:
225,0,40384,2,0,L|217:68,1,53.9999983520508,2|0,0:0|0:0,0:0:0:0:
382,34,40612,1,10,3:2:0:0:
382,34,40725,2,0,L|374:102,1,53.9999983520508,2|0,0:0|0:0,0:0:0:0:
209,182,40953,2,0,L|267:172,1,53.9999983520508,2|0,0:0|3:0,0:0:0:0:
397,284,41181,2,0,L|343:274,1,53.9999983520508,2|0,0:0|0:0,0:0:0:0:
190,315,41408,1,2,0:0:0:0:
190,315,41521,2,0,L|182:379,1,53.9999983520508,10|0,3:2|0:0,0:0:0:0:
80,240,41748,2,0,L|74:294,1,53.9999983520508,2|0,0:0|0:0,0:0:0:0:
93,137,41975,5,2,3:2:0:0:
373,242,42203,1,2,0:0:0:0:
327,213,42316,1,2,0:0:0:0:
246,261,42430,1,10,3:2:0:0:
199,234,42544,2,0,L|205:180,1,53.9999983520508,2|0,0:0|0:0,0:0:0:0:
378,119,42771,2,0,P|353:130|326:130,1,53.9999983520508,10|0,0:3|3:0,0:0:0:0:
171,4,42998,1,10,0:3:0:0:
171,4,43112,6,0,L|177:57,1,53.9999983520508,2|0,0:0|0:0,0:0:0:0:
0,181,43339,2,0,L|6:127,1,53.9999983520508,10|0,3:2|0:0,0:0:0:0:
176,9,43566,2,0,L|182:62,1,53.9999983520508,2|8,0:0|0:3,0:0:0:0:
67,246,43794,6,0,P|92:234|118:233,1,53.9999983520508,2|0,3:2|0:0,0:0:0:0:
291,347,44021,2,0,L|297:293,1,53.9999983520508,2|0,0:0|0:0,0:0:0:0:
164,376,44248,1,10,3:2:0:0:
164,376,44362,2,0,L|170:322,1,53.9999983520508,2|0,0:0|0:0,0:0:0:0:
318,208,44589,2,0,P|291:205|265:212,1,53.9999983520508,10|0,0:0|3:0,0:0:0:0:
395,380,44816,2,0,L|388:326,1,53.9999983520508,10|0,0:0|0:0,0:0:0:0:
472,208,45044,1,2,0:0:0:0:
472,208,45157,2,0,P|445:204|423:191,1,53.9999983520508,10|0,3:2|0:0,0:0:0:0:
413,0,45384,2,0,L|406:53,1,53.9999983520508,2|0,0:0|0:0,0:0:0:0:
272,144,45612,5,10,3:2:0:0:
213,153,45725,1,8,0:0:0:0:
154,141,45839,1,10,0:0:0:0:
104,107,45953,1,8,0:0:0:0:
78,11,46066,5,2,3:2:0:0:
78,11,46180,2,0,L|71:76,1,53.9999983520508,10|0,0:0|0:0,0:0:0:0:
0,172,46407,2,0,B|33:197|33:197|26:267,1,107.999996704102,10|10,0:0|0:0,0:0:0:0:
177,226,46748,2,0,L|107:216,1,53.9999983520508,2|8,0:0|0:0,0:0:0:0:
53,367,46975,5,2,3:2:0:0:
111,356,47089,1,8,0:0:0:0:
169,346,47203,1,10,0:0:0:0:
227,336,47316,1,8,0:0:0:0:
286,326,47430,6,0,L|338:336,1,53.9999983520508,2|0,3:2|0:0,0:0:0:0:
512,238,47657,2,0,L|504:300,1,53.9999983520508,2|0,0:0|0:0,0:0:0:0:
417,190,47884,1,10,3:2:0:0:
417,190,47998,2,0,L|409:252,1,53.9999983520508,2|0,0:0|0:0,0:0:0:0:
236,193,48225,2,0,P|262:198|287:189,1,53.9999983520508,10|0,0:0|3:0,0:0:0:0:
232,24,48453,2,0,L|240:86,1,53.9999983520508,10|0,0:0|0:0,0:0:0:0:
360,0,48680,1,2,0:0:0:0:
360,0,48794,2,0,L|368:62,1,53.9999983520508,10|0,3:2|0:0,0:0:0:0:
512,139,49021,2,0,L|459:128,1,53.9999983520508,2|8,0:0|0:0,0:0:0:0:
236,193,49248,5,2,3:2:0:0:
512,139,49475,1,2,0:0:0:0:
505,198,49589,1,2,0:0:0:0:
433,259,49703,1,10,3:2:0:0:
425,317,49816,2,0,L|417:374,1,53.9999983520508,2|0,0:0|0:0,0:0:0:0:
240,321,50044,2,0,L|232:267,1,53.9999983520508,10|0,0:3|3:0,0:0:0:0:
248,99,50271,1,10,0:3:0:0:
248,98,50384,6,0,L|190:89,1,53.9999983520508,2|0,0:0|0:0,0:0:0:0:
80,271,50612,2,0,L|138:262,1,53.9999983520508,10|0,3:2|0:0,0:0:0:0:
253,93,50839,2,0,L|195:84,1,53.9999983520508,2|8,0:0|0:3,0:0:0:0:
5,0,51066,6,0,P|23:20|31:45,1,53.9999983520508,2|0,3:2|0:0,0:0:0:0:
0,229,51294,2,0,L|10:158,1,53.9999983520508,2|0,0:0|0:0,0:0:0:0:
111,289,51521,1,10,3:2:0:0:
111,289,51634,2,0,L|121:218,1,53.9999983520508,2|0,0:0|0:0,0:0:0:0:
164,40,51862,2,0,P|158:67|165:92,1,53.9999983520508,10|0,0:0|3:0,0:0:0:0:
353,169,52089,2,0,P|329:156|301:156,1,53.9999983520508,10|0,0:0|0:0,0:0:0:0:
191,304,52316,1,2,0:0:0:0:
191,304,52430,2,0,L|201:233,1,53.9999983520508,10|0,3:2|0:0,0:0:0:0:
38,369,52657,2,0,L|28:298,1,53.9999983520508,2|0,0:0|0:0,0:0:0:0:
0,101,52884,5,10,3:2:0:0:
48,135,52998,1,8,0:0:0:0:
107,141,53112,1,10,0:0:0:0:
162,121,53225,1,8,0:0:0:0:
223,40,53339,5,2,3:2:0:0:
223,40,53453,2,0,L|210:120,1,53.9999983520508,10|0,0:0|0:0,0:0:0:0:
381,258,53680,1,10,0:0:0:0:
361,181,53794,6,0,P|333:154|295:147,1,76.5000014591217,0|0,3:0|0:0,0:0:0:0:
237,317,54021,6,0,P|283:331|331:316,1,99.0000030212403,2|0,3:2|0:0,0:0:0:0:
451,131,54248,6,0,B|434:93|434:93|424:138,1,80.9999975280763,2|0,3:2|0:0,0:0:0:0:
446,207,54703,5,6,3:2:0:0:
446,207,54930,1,2,3:2:0:0:
347,294,55157,2,0,L|243:282,1,90,10|2,0:0|0:0,0:0:0:0:
205,233,55498,1,8,0:0:0:0:
128,278,55612,5,0,3:0:0:0:
132,260,55725,1,8,0:0:0:0:
177,337,55839,2,0,P|158:350|136:356,1,45,2|0,3:2|0:0,0:0:0:0:
5,205,56066,1,8,0:0:0:0:
5,205,56294,2,0,L|13:142,1,45,2|8,0:0|0:0,0:0:0:0:
22,87,56521,5,2,3:2:0:0:
22,87,56748,1,2,3:2:0:0:
160,152,56975,2,0,L|263:141,1,90,10|2,0:0|0:0,0:0:0:0:
311,189,57316,1,10,0:0:0:0:
385,119,57430,5,0,3:0:0:0:
383,139,57544,1,8,0:0:0:0:
464,109,57657,2,0,P|458:87|446:68,1,45,2|0,3:2|0:0,0:0:0:0:
301,22,57884,1,10,0:0:0:0:
240,220,58112,1,2,0:0:0:0:
428,341,58339,5,10,3:2:0:0:
432,319,58453,1,10,0:0:0:0:
346,247,58566,5,10,0:0:0:0:
342,225,58680,2,0,L|328:138,1,76.5000014591217,10|0,0:0|3:0,0:0:0:0:
388,84,58907,1,10,0:0:0:0:
499,236,59134,1,8,0:0:0:0:
432,319,59248,6,0,B|368:323|368:323|349:341|349:341|280:346,1,153.000002918243,2|8,3:2|0:3,0:0:0:0:
30,214,59703,2,0,B|0:187|0:187|131:203,1,153.000002918243,2|8,3:2|0:3,0:0:0:0:
322,21,60157,5,10,3:2:0:0:
299,18,60271,1,10,0:0:0:0:
215,113,60384,5,10,0:0:0:0:
192,116,60498,2,0,L|116:126,1,76.5000014591217,10|0,0:0|3:0,0:0:0:0:
27,67,60725,1,10,0:0:0:0:
220,8,60953,1,8,0:0:0:0:
301,100,61066,6,0,B|308:156|308:156|278:192|278:192|287:255,1,153.000002918243,2|8,3:2|0:3,0:0:0:0:
483,30,61521,2,0,B|513:3|513:3|382:19,1,153.000002918243,2|8,3:2|0:3,0:0:0:0:
210,43,61975,5,2,3:2:0:0:
210,43,62203,1,2,3:2:0:0:
262,177,62430,2,0,P|302:195|346:189,1,90,10|2,0:0|0:0,0:0:0:0:
402,136,62771,1,8,0:0:0:0:
477,189,62884,5,0,3:0:0:0:
474,171,62998,1,8,0:0:0:0:
414,235,63112,2,0,L|407:292,1,45,2|0,3:2|0:0,0:0:0:0:
502,384,63339,1,8,0:0:0:0:
502,384,63566,2,0,P|486:370|459:363,1,45,2|8,0:0|0:0,0:0:0:0:
317,384,63794,5,2,3:2:0:0:
317,384,64021,1,2,3:2:0:0:
129,227,64248,2,0,L|231:217,1,90,10|2,0:0|0:0,0:0:0:0:
293,212,64589,1,8,0:0:0:0:
226,125,64703,5,0,3:0:0:0:
229,142,64816,1,8,0:0:0:0:
309,114,64930,2,0,L|316:63,1,45,2|0,3:2|0:0,0:0:0:0:
188,0,65157,1,8,0:0:0:0:
188,0,65384,1,2,0:0:0:0:
40,239,65612,5,6,3:2:0:0:
42,247,65839,1,10,0:0:0:0:
229,95,66066,5,10,3:2:0:0:
233,77,66294,1,10,0:0:0:0:
293,318,66521,5,10,3:2:0:0:
299,344,66748,1,10,0:0:0:0:
454,53,66975,5,10,3:2:0:0:
466,0,67203,1,10,0:0:0:0:
495,307,67430,5,8,3:2:0:0:
473,312,67544,1,8,0:0:0:0:
408,247,67657,1,8,0:0:0:0:
370,241,67771,1,8,0:0:0:0:
299,344,67884,1,0,3:0:0:0:
230,358,67998,1,8,0:0:0:0:
181,198,68112,1,8,0:0:0:0:
94,181,68225,1,8,0:0:0:0:
15,248,68339,6,0,L|22:315,1,63,2|0,0:0|0:0,0:0:0:0:
112,365,69248,6,0,P|147:364|176:343,1,72,6|0,3:2|0:0,0:0:0:0:
96,203,69475,1,2,0:0:0:0:
151,146,69589,2,0,L|141:229,1,72,2|8,0:0|3:2,0:0:0:0:
14,91,69816,2,0,L|24:174,1,72,2|0,0:0|0:0,0:0:0:0:
216,253,70044,2,0,L|234:95,1,144,10|8,0:0|0:0,0:0:0:0:
67,21,70384,2,0,P|94:43|129:46,1,72,2|0,0:0|0:0,0:0:0:0:
290,0,70612,2,0,L|298:71,1,72,10|0,3:2|0:0,0:0:0:0:
410,192,70839,2,0,L|418:120,1,72,2|8,0:0|0:0,0:0:0:0:
246,180,71066,5,2,3:2:0:0:
303,249,71180,2,0,L|447:236,1,144,0|0,0:0|0:0,0:0:0:0:
163,186,71521,2,0,L|183:337,1,144,10|0,3:2|0:0,0:0:0:0:
42,170,71862,1,8,0:0:0:0:
45,148,71975,5,2,3:2:0:0:
0,239,72089,2,0,P|33:251|68:247,1,72,8|2,0:0|0:0,0:0:0:0:
150,106,72316,1,8,0:0:0:0:
251,254,72430,5,0,3:0:0:0:
306,270,72544,1,8,0:3:0:0:
363,264,72657,1,0,3:0:0:0:
410,231,72771,1,8,0:3:0:0:
430,177,72884,6,0,L|418:98,1,72,2|0,3:2|0:0,0:0:0:0:
251,21,73112,1,2,0:0:0:0:
215,83,73225,2,0,L|300:71,1,72,2|8,0:0|3:2,0:0:0:0:
467,18,73453,2,0,L|455:97,1,72,2|0,0:0|0:0,0:0:0:0:
485,317,73680,2,0,P|427:278|358:289,1,144,10|8,0:0|0:0,0:0:0:0:
192,161,74021,2,0,L|202:239,1,72,2|0,0:0|0:0,0:0:0:0:
352,168,74248,2,0,L|362:90,1,72,10|0,3:2|0:0,0:0:0:0:
331,248,74475,2,0,P|364:253|397:237,1,72,2|0,0:0|0:0,0:0:0:0:
296,47,74703,5,14,3:2:0:0:
225,35,74816,1,8,0:0:0:0:
154,23,74930,1,8,0:0:0:0:
83,11,75044,1,8,0:0:0:0:
4,102,75157,5,2,3:2:0:0:
53,154,75271,2,0,L|45:72,1,72,8|0,0:0|0:0,0:0:0:0:
0,207,75498,1,8,0:0:0:0:
105,281,75612,5,2,3:2:0:0:
53,331,75725,2,0,L|61:249,1,72,8|2,0:0|0:0,0:0:0:0:
133,177,75953,1,8,0:0:0:0:
191,262,76066,5,0,3:0:0:0:
260,279,76180,1,8,0:0:0:0:
329,296,76294,1,8,0:0:0:0:
398,313,76407,1,8,0:0:0:0:
467,330,76521,6,0,B|433:291|433:291|450:181,1,144,2|2,3:2|0:0,0:0:0:0:
503,61,76862,1,2,0:0:0:0:
454,114,76975,2,0,P|420:122|385:113,1,72,8|0,3:2|0:0,0:0:0:0:
184,0,77203,2,0,L|205:161,1,144,2|0,0:0|3:0,0:0:0:0:
330,61,77544,1,8,0:0:0:0:
265,30,77657,2,0,L|281:154,1,72,0|0,0:0|0:0,0:0:0:0:
440,151,77884,2,0,L|368:140,1,72,10|0,3:2|0:0,0:0:0:0:
287,277,78112,2,0,L|215:287,1,72,2|0,0:0|0:0,0:0:0:0:
19,171,78339,6,0,P|12:101|61:51,1,144,2|0,3:2|0:0,0:0:0:0:
185,137,78680,1,2,0:0:0:0:
130,184,78794,2,0,L|138:106,1,72,8|0,3:2|0:0,0:0:0:0:
206,268,79021,2,0,B|127:278|153:219|71:234,1,144,2|0,0:0|3:0,0:0:0:0:
250,341,79362,2,0,L|265:192,1,144,10|0,0:3|0:0,0:0:0:0:
377,313,79703,2,0,L|384:390,1,72,10|0,3:2|0:0,0:0:0:0:
502,214,79930,2,0,L|509:136,1,72,2|8,0:0|0:0,0:0:0:0:
238,115,80157,6,0,B|297:119|297:119|320:136|320:136|375:140,1,144,2|0,3:2|0:0,0:0:0:0:
0,13,80612,2,0,L|7:90,1,72,10|0,3:2|0:0,0:0:0:0:
108,212,80839,5,2,0:0:0:0:
113,177,80953,1,10,0:0:0:0:
0,311,81066,5,2,3:2:0:0:
48,256,81180,2,0,P|118:247|185:273,1,144,8|0,0:0|0:0,0:0:0:0:
262,384,81521,1,8,3:2:0:0:
262,384,81748,2,0,L|268:298,1,72,8|0,0:0|0:0,0:0:0:0:
472,160,81975,5,14,3:2:0:0:
479,224,82089,1,8,0:0:0:0:
486,288,82203,1,8,0:0:0:0:
493,352,82316,1,8,0:0:0:0:
361,202,82430,5,2,3:2:0:0:
314,247,82544,2,0,L|401:237,1,72,8|0,0:0|0:0,0:0:0:0:
218,150,82771,1,8,0:0:0:0:
185,323,82884,5,2,3:2:0:0:
182,337,83112,5,2,3:2:0:0:
29,30,83339,6,0,L|40:115,1,72,2|0,3:2|0:0,0:0:0:0:
9,334,83566,1,8,0:0:0:0:
84,307,83680,1,8,0:0:0:0:
146,356,83794,6,0,B|176:374|176:374|270:363,1,72,2|0,3:2|0:0,0:0:0:0:
385,238,84021,1,2,0:0:0:0:
331,180,84134,2,0,L|343:271,1,72,2|8,0:0|3:2,0:0:0:0:
477,104,84362,2,0,L|465:195,1,72,2|0,0:0|0:0,0:0:0:0:
500,384,84589,2,0,P|438:348|367:352,1,144,10|8,0:0|0:0,0:0:0:0:
226,179,84930,2,0,P|244:209|243:246,1,72,2|0,0:0|0:0,0:0:0:0:
95,125,85157,2,0,L|180:116,1,72,10|0,3:2|0:0,0:0:0:0:
84,307,85384,2,0,L|-1:298,1,72,2|8,0:0|0:0,0:0:0:0:
0,82,85612,5,2,3:2:0:0:
65,53,85725,2,0,L|44:222,1,144,0|0,0:0|0:0,0:0:0:0:
278,144,86066,2,0,L|90:163,1,144,10|0,3:2|0:0,0:0:0:0:
231,27,86407,1,8,0:0:0:0:
209,23,86521,5,2,3:2:0:0:
321,0,86634,2,0,P|327:34|313:74,1,72,8|2,0:0|0:0,0:0:0:0:
196,191,86862,1,8,0:0:0:0:
308,310,86975,5,0,3:0:0:0:
370,326,87089,1,8,0:3:0:0:
433,312,87203,1,0,3:0:0:0:
478,266,87316,1,4,0:3:0:0:
493,202,87430,6,0,L|392:211,1,72,2|0,3:2|0:0,0:0:0:0:
254,86,87657,1,0,0:0:0:0:
314,42,87771,2,0,L|302:134,1,72,2|8,0:0|3:2,0:0:0:0:
127,177,87998,2,0,P|163:176|194:190,1,72,2|0,0:0|0:0,0:0:0:0:
81,376,88225,2,0,L|62:233,1,144,10|8,0:0|0:0,0:0:0:0:
163,384,88566,2,0,L|148:269,1,72,2|0,0:0|0:0,0:0:0:0:
345,214,88794,2,0,L|335:285,1,72,10|0,3:2|0:0,0:0:0:0:
186,78,89021,2,0,P|217:92|253:85,1,72,2|8,0:0|0:0,0:0:0:0:
441,0,89248,5,14,3:2:0:0:
450,64,89362,1,8,0:0:0:0:
459,128,89475,1,8,0:0:0:0:
468,192,89589,1,8,0:0:0:0:
322,255,89703,5,0,3:0:0:0:
273,202,89816,2,0,L|366:217,1,72,8|2,0:0|0:0,0:0:0:0:
283,334,90044,1,8,0:0:0:0:
181,240,90157,5,2,3:2:0:0:
138,298,90271,2,0,L|209:286,1,72,8|0,0:0|0:0,0:0:0:0:
141,173,90498,1,8,0:0:0:0:
3,357,90612,5,2,3:2:0:0:
11,285,90725,1,8,0:0:0:0:
19,213,90839,1,8,0:0:0:0:
27,141,90953,1,8,0:0:0:0:
35,69,91066,6,0,B|79:103|79:103|203:87,1,144,2|0,3:2|0:0,0:0:0:0:
366,270,91521,2,0,L|355:194,1,72,10|0,3:2|0:0,0:0:0:0:
479,101,91748,1,2,0:0:0:0:
475,125,91862,1,8,0:0:0:0:
320,55,91975,5,2,3:2:0:0:
375,0,92089,2,0,P|396:66|357:123,1,144,8|0,0:0|0:0,0:0:0:0:
155,57,92430,2,0,B|121:28|121:28|219:41,1,144,10|0,3:2|0:0,0:0:0:0:
483,77,92884,5,2,3:2:0:0:
173,381,93112,5,10,3:2:0:0:
145,203,93339,1,10,3:2:0:0:
117,26,93566,1,10,3:2:0:0:
457,332,94703,6,0,L|399:322,1,58.4999973220826,6|0,3:2|0:0,0:0:0:0:
272,188,94930,2,0,L|284:262,1,58.4999973220826,2|0,0:0|0:0,0:0:0:0:
373,134,95157,1,10,3:2:0:0:
373,134,95271,2,0,L|361:208,1,58.4999973220826,2|0,0:0|0:0,0:0:0:0:
216,79,95498,2,0,P|240:94|269:99,1,58.4999973220826,10|0,0:0|3:0,0:0:0:0:
430,0,95725,2,0,L|346:14,1,58.4999973220826,10|0,0:0|0:0,0:0:0:0:
512,172,95953,1,2,0:0:0:0:
512,172,96066,2,0,L|500:98,1,58.4999973220826,10|0,3:2|0:0,0:0:0:0:
363,191,96293,2,0,L|351:265,1,58.4999973220826,2|8,0:0|0:0,0:0:0:0:
326,384,96521,5,2,3:2:0:0:
0,176,96748,1,2,0:0:0:0:
62,191,96862,1,2,0:0:0:0:
130,139,96975,1,10,3:2:0:0:
193,152,97089,2,0,L|181:226,1,58.4999973220826,2|0,0:0|0:0,0:0:0:0:
24,324,97316,2,0,P|13:297|18:268,1,58.4999973220826,10|0,0:3|3:0,0:0:0:0:
273,208,97543,1,10,0:3:0:0:
273,208,97657,2,0,L|261:282,1,58.4999973220826,2|0,0:0|0:0,0:0:0:0:
161,71,97884,2,0,L|230:61,1,58.4999973220826,10|0,3:2|0:0,0:0:0:0:
404,169,98112,2,0,L|335:159,1,58.4999973220826,2|8,0:0|0:3,0:0:0:0:
503,17,98339,6,0,P|516:42|513:71,1,58.4999973220826,2|0,3:2|0:0,0:0:0:0:
412,226,98566,2,0,L|402:154,1,58.4999973220826,2|0,0:0|0:0,0:0:0:0:
274,287,98793,1,10,3:2:0:0:
274,287,98907,2,0,L|284:215,1,58.4999973220826,2|0,0:0|0:0,0:0:0:0:
483,308,99134,2,0,P|459:324|430:330,1,58.4999973220826,10|0,0:0|3:0,0:0:0:0:
250,153,99362,2,0,L|260:225,1,58.4999973220826,10|0,0:0|0:0,0:0:0:0:
378,96,99589,1,2,0:0:0:0:
378,96,99703,2,0,L|368:168,1,58.4999973220826,10|0,3:2|0:0,0:0:0:0:
320,354,99930,2,0,P|342:336|352:309,1,58.4999973220826,2|0,0:0|0:0,0:0:0:0:
85,192,100157,5,10,3:2:0:0:
77,256,100271,1,8,0:0:0:0:
69,320,100384,1,10,0:0:0:0:
61,384,100498,1,8,0:0:0:0:
213,307,100612,5,2,3:2:0:0:
158,261,100725,2,0,L|167:329,1,58.4999973220826,10|0,0:0|0:0,0:0:0:0:
282,229,100953,1,10,0:0:0:0:
207,122,101066,5,0,3:0:0:0:
170,175,101180,2,0,L|248:162,1,58.4999973220826,10|2,0:0|0:0,0:0:0:0:
358,36,101407,1,8,0:0:0:0:
473,124,101521,5,2,3:2:0:0:
480,189,101635,1,8,0:0:0:0:
489,254,101748,1,10,0:0:0:0:
496,319,101862,1,8,0:0:0:0:
503,384,101975,6,0,L|401:364,1,58.4999973220826,2|0,3:2|0:0,0:0:0:0:
252,245,102203,2,0,L|244:186,1,58.4999973220826,2|0,0:0|0:0,0:0:0:0:
123,319,102430,1,10,3:2:0:0:
123,319,102543,2,0,L|131:260,1,58.4999973220826,2|0,0:0|0:0,0:0:0:0:
308,331,102771,2,0,P|283:347|254:348,1,58.4999973220826,10|0,0:0|3:0,0:0:0:0:
331,173,102998,2,0,L|339:232,1,58.4999973220826,10|0,0:0|0:0,0:0:0:0:
200,118,103225,1,2,0:0:0:0:
200,118,103339,2,0,L|208:177,1,58.4999973220826,10|0,3:2|0:0,0:0:0:0:
412,87,103566,2,0,P|383:83|357:96,1,58.4999973220826,2|8,0:0|0:0,0:0:0:0:
252,245,103793,5,2,3:2:0:0:
7,90,104021,1,2,0:0:0:0:
70,80,104134,1,2,0:0:0:0:
136,137,104248,1,10,3:2:0:0:
199,127,104362,2,0,L|207:68,1,58.4999973220826,2|0,0:0|0:0,0:0:0:0:
105,227,104589,2,0,L|113:286,1,58.4999973220826,10|0,0:3|3:0,0:0:0:0:
299,204,104816,1,10,0:3:0:0:
299,204,104930,2,0,L|228:191,1,58.4999973220826,2|0,0:0|0:0,0:0:0:0:
163,361,105157,2,0,L|234:348,1,58.4999973220826,10|0,3:2|0:0,0:0:0:0:
388,157,105384,2,0,L|380:214,1,58.4999973220826,2|0,0:0|0:0,0:0:0:0:
506,384,105612,5,10,3:2:0:0:
449,63,105839,1,10,3:2:0:0:
478,224,106066,1,2,3:2:0:0:
20,77,106521,5,10,3:2:0:0:
308,32,106748,1,10,3:2:0:0:
164,55,106975,1,2,3:2:0:0:
45,377,107430,5,14,3:2:0:0:
14,315,107543,1,8,0:0:0:0:
41,251,107657,1,10,0:0:0:0:
104,221,107771,1,8,0:0:0:0:
193,266,107884,5,2,3:2:0:0:
193,266,107998,2,0,L|202:336,1,58.4999973220826,10|0,0:0|0:0,0:0:0:0:
415,340,108225,2,0,L|430:216,1,116.999994644165,10|0,0:0|0:0,0:0:0:0:
442,149,108566,5,2,3:2:0:0:
445,134,108793,5,2,3:2:0:0:
193,266,109021,5,6,3:2:0:0:
