osu file format v14

[General]
AudioFilename: a1.mp3
AudioLeadIn: 0
PreviewTime: 68329
Countdown: 0
SampleSet: Soft
StackLeniency: 0.7
Mode: 0
LetterboxInBreaks: 0
WidescreenStoryboard: 1

[Editor]
DistanceSpacing: 1
BeatDivisor: 4
GridSize: 4
TimelineZoom: 1.600006

[Metadata]
Title:Youshi Tanrei na Uso
TitleUnicode:容姿端麗な嘘
Artist:THE ORAL CIGARETTES
ArtistUnicode:THE ORAL CIGARETTES
Creator:Maiev
Version:Yuuma's Normal
Source:
Tags:dkblaze Kisses and Kills TOC StunterLetsPlay Stunter Yuuma Asuka_- Asuka cut ver version japanese rock jrock j-rock
BeatmapID:2234869
BeatmapSetID:1029803

[Difficulty]
HPDrainRate:3
CircleSize:3.5
OverallDifficulty:4
ApproachRate:5.5
SliderMultiplier:1.1
SliderTickRate:1

[Events]
//Background and Video events
0,0,"bg.jpg",0,0
//Break Periods
2,58539,60850
//Storyboard Layer 0 (Background)
//Storyboard Layer 1 (Fail)
//Storyboard Layer 2 (Pass)
//Storyboard Layer 3 (Foreground)
//Storyboard Layer 4 (Overlay)
//Storyboard Sound Samples

[TimingPoints]
3794,454.545454545455,4,2,10,65,1,0
11066,-100,4,2,10,75,0,0
25612,-100,4,2,10,70,0,0
40157,-100,4,2,10,75,0,0
54703,-100,4,2,10,70,0,0
69248,-100,4,2,10,80,0,1
94703,-100,4,2,10,75,0,0

[Colours]
Combo1 : 137,254,216
Combo2 : 255,181,145
Combo3 : 159,203,255
Combo4 : 255,183,183

[HitObjects]
75,263,3794,6,0,L|136:253,1,55,8|8,3:2|3:2,0:0:0:0:
327,373,5612,2,0,L|317:312,1,55,8|8,3:2|3:2,0:0:0:0:
437,121,7430,2,0,L|376:131,1,55,8|8,3:2|3:2,0:0:0:0:
185,11,9248,6,0,L|206:125,1,110,6|2,3:2|3:2,0:0:0:0:
229,226,10157,1,2,3:2:0:0:
309,150,10612,1,6,3:2:0:0:
333,256,11066,6,0,P|360:265|387:264,1,55,6|2,3:2|0:0,0:0:0:0:
435,238,11521,2,0,L|445:143,1,82.5,10|10,3:2|0:0,0:0:0:0:
450,101,12089,1,10,0:0:0:0:
393,40,12430,2,0,L|331:47,1,55,10|2,3:2|0:0,0:0:0:0:
293,77,12884,1,0,3:0:0:0:
293,77,13112,2,0,L|163:62,1,110,2|0,0:0|0:0,0:0:0:0:
129,59,13794,2,0,L|96:103,1,55,0|2,3:0|0:0,0:0:0:0:
67,149,14248,1,10,3:2:0:0:
121,243,14703,6,0,L|175:248,1,55,2|2,3:2|0:0,0:0:0:0:
220,281,15157,2,0,L|326:270,1,82.5,10|10,3:2|0:0,0:0:0:0:
357,267,15725,1,10,0:0:0:0:
424,218,16066,2,0,P|428:191|426:163,1,55,10|2,3:2|0:0,0:0:0:0:
403,112,16521,2,0,P|350:99|298:116,1,110,14|2,3:2|3:2,0:0:0:0:
209,180,17430,2,0,P|157:197|104:184,1,110,0|2,3:0|3:2,0:0:0:0:
62,151,18112,1,10,0:0:0:0:
24,112,18339,6,0,L|33:49,1,55,2|2,3:2|0:0,0:0:0:0:
69,17,18794,2,0,P|121:4|172:18,1,82.5,10|10,3:2|0:0,0:0:0:0:
199,30,19362,1,10,0:0:0:0:
256,88,19703,2,0,P|283:89|309:82,1,55,10|2,3:2|0:0,0:0:0:0:
354,51,20157,1,0,3:0:0:0:
354,51,20384,2,0,P|405:31|459:40,1,110,2|0,0:0|0:0,0:0:0:0:
501,77,21066,2,0,L|509:143,1,55,0|2,3:0|0:0,0:0:0:0:
502,187,21521,1,10,3:2:0:0:
424,263,21975,6,0,P|377:277|352:274,1,55,2|2,3:2|0:0,0:0:0:0:
325,246,22430,2,0,P|286:236|245:239,1,82.5,10|10,3:2|0:0,0:0:0:0:
196,265,22998,1,10,0:0:0:0:
127,314,23339,2,0,P|80:328|55:325,1,55,10|2,3:2|0:0,0:0:0:0:
28,297,23794,6,0,L|19:174,1,110,14|2,3:2|3:2,0:0:0:0:
37,78,24703,2,0,L|103:84,1,55,2|2,3:2|3:2,0:0:0:0:
134,119,25157,2,0,L|188:114,1,55,2|2,3:2|0:0,0:0:0:0:
241,96,25612,5,6,3:2:0:0:
333,36,26066,2,0,P|358:26|417:36,1,82.5,8|0,0:0|0:0,0:0:0:0:
451,71,26634,2,0,L|459:167,1,82.5,8|8,0:0|0:0,0:0:0:0:
396,244,27430,2,0,P|353:257|289:219,1,110,2|8,3:2|0:2,0:0:0:0:
261,195,28112,1,2,3:2:0:0:
261,195,28339,2,0,P|242:243|247:301,1,110,2|10,3:2|0:0,0:0:0:0:
142,336,29248,6,0,L|140:272,1,55,2|2,3:2|3:2,0:0:0:0:
109,235,29703,2,0,L|117:137,1,82.5,8|0,0:0|0:0,0:0:0:0:
122,98,30271,2,0,P|172:84|211:86,1,82.5,8|8,0:0|0:0,0:0:0:0:
290,149,31066,2,0,P|340:179|401:174,1,110,2|10,3:2|0:2,0:0:0:0:
420,133,31748,1,2,3:2:0:0:
420,133,31975,2,0,L|412:20,1,110,2|10,3:2|0:0,0:0:0:0:
318,81,32884,6,0,P|291:89|264:89,1,55,2|2,3:2|3:2,0:0:0:0:
216,64,33339,2,0,P|176:52|135:54,1,82.5,8|0,0:0|0:0,0:0:0:0:
95,93,33907,2,0,P|55:104|14:102,1,82.5,8|10,0:0|0:0,0:0:0:0:
2,211,34703,2,0,B|-3:272|-3:272|25:325,1,110,2|8,3:2|0:2,0:0:0:0:
58,361,35384,1,2,3:2:0:0:
58,361,35612,2,0,B|102:344|102:344|176:368,1,110,2|10,3:2|0:0,0:0:0:0:
261,316,36521,6,0,P|314:328|367:316,2,110,2|8|0,3:2|0:0|0:0,0:0:0:0:
313,219,37884,1,8,0:0:0:0:
289,111,38339,2,0,P|315:107|343:110,2,55,10|10|0,3:2|3:2|0:0,0:0:0:0:
198,174,39248,2,0,P|171:178|143:175,2,55,10|10|0,3:2|3:2|0:0,0:0:0:0:
156,73,40157,6,0,P|128:70|101:74,1,55,6|2,3:2|0:0,0:0:0:0:
52,97,40612,2,0,L|58:179,1,82.5,10|2,3:2|0:0,0:0:0:0:
64,234,41180,1,2,0:0:0:0:
103,307,41521,2,0,L|166:295,1,55,10|2,3:2|0:0,0:0:0:0:
199,262,41975,1,2,3:2:0:0:
199,262,42203,2,0,L|311:275,1,110,2|0,0:0|0:0,0:0:0:0:
348,312,42884,2,0,P|384:300|406:283,1,55,0|2,3:0|0:0,0:0:0:0:
445,261,43339,1,10,3:2:0:0:
466,163,43794,6,0,P|437:137|411:127,1,55,2|2,3:2|0:0,0:0:0:0:
375,103,44248,2,0,L|279:114,1,82.5,10|10,3:2|0:0,0:0:0:0:
239,120,44816,1,10,0:0:0:0:
162,154,45157,2,0,P|156:127|157:99,1,55,10|2,3:2|0:0,0:0:0:0:
179,49,45612,2,0,P|233:30|298:46,1,110,10|2,3:2|3:2,0:0:0:0:
375,103,46521,2,0,P|394:157|384:221,1,110,0|2,3:0|3:2,0:0:0:0:
364,258,47203,1,10,0:0:0:0:
323,294,47430,6,0,P|297:306|270:307,1,55,2|2,3:2|0:0,0:0:0:0:
223,282,47884,2,0,P|168:264|120:270,1,82.5,10|10,3:2|0:0,0:0:0:0:
94,289,48453,1,10,0:0:0:0:
18,254,48794,2,0,L|30:182,1,55,10|2,3:2|0:0,0:0:0:0:
81,184,49248,1,2,3:2:0:0:
81,184,49475,2,0,L|67:68,1,110,2|0,0:0|0:0,0:0:0:0:
88,23,50157,2,0,P|115:20|142:27,1,55,0|2,3:0|0:0,0:0:0:0:
178,68,50612,1,8,0:0:0:0:
282,34,51066,6,0,L|356:29,1,55,2|2,3:2|0:0,0:0:0:0:
382,63,51521,2,0,P|372:103|365:163,1,82.5,10|10,3:2|0:0,0:0:0:0:
378,197,52089,1,10,0:0:0:0:
423,268,52430,2,0,P|389:280|357:280,1,55,10|2,3:2|0:0,0:0:0:0:
321,256,52884,2,0,P|266:239|197:249,1,110,10|2,3:2|3:2,0:0:0:0:
113,288,53794,2,0,L|105:228,1,55,0|2,3:0|3:2,0:0:0:0:
57,207,54248,2,0,L|65:147,1,55,2|2,3:2|0:0,0:0:0:0:
75,97,54703,6,0,P|118:88|151:92,1,55,6|2,3:2|3:2,0:0:0:0:
177,115,55157,2,0,P|227:135|280:127,1,110,10|0,0:0|3:0,0:0:0:0:
326,99,55839,1,2,3:2:0:0:
326,99,56066,1,8,0:0:0:0:
429,61,56521,2,0,P|435:108|434:123,1,55,2|2,3:2|3:2,0:0:0:0:
413,166,56975,2,0,P|400:228|412:290,1,110,10|0,0:0|3:0,0:0:0:0:
418,328,57657,1,2,3:2:0:0:
418,328,57884,2,0,P|384:319|354:320,1,55,10|2,0:0|0:0,0:0:0:0:
312,335,58339,5,10,3:2:0:0:
69,44,61975,6,0,P|82:83|85:120,1,55,2|2,3:2|3:2,0:0:0:0:
61,147,62430,2,0,P|51:200|64:259,1,110,10|0,0:0|3:0,0:0:0:0:
86,304,63112,1,2,3:2:0:0:
86,304,63339,1,8,0:0:0:0:
173,236,63794,2,0,P|209:222|237:221,1,55,2|2,3:2|3:2,0:0:0:0:
267,255,64248,2,0,P|325:275|371:267,1,110,10|0,0:0|3:0,0:0:0:0:
421,243,64930,1,2,3:2:0:0:
421,243,65157,1,8,0:0:0:0:
445,142,65612,6,0,L|438:77,1,55,6|10,3:2|0:0,0:0:0:0:
411,41,66066,1,10,3:2:0:0:
357,28,66294,1,10,0:0:0:0:
316,65,66521,2,0,P|275:74|252:73,1,55,10|10,3:2|0:0,0:0:0:0:
217,42,66975,2,0,P|189:43|163:50,1,55,10|10,3:2|0:0,0:0:0:0:
115,79,67430,6,0,B|91:125|117:176|117:176|102:202|102:202|130:250|111:302,1,220,8|2,3:2|0:0,0:0:0:0:
325,359,69248,6,0,P|373:362|430:328,1,110,6|8,3:2|3:2,0:0:0:0:
462,291,69930,1,0,0:0:0:0:
462,291,70157,2,0,L|456:229,1,55,0|2,3:0|0:0,0:0:0:0:
413,201,70612,2,0,L|419:139,1,55,10|2,3:2|0:0,0:0:0:0:
444,97,71066,2,0,P|388:73|327:82,1,110,2|10,3:2|3:2,0:0:0:0:
273,162,71975,2,0,P|217:186|156:177,1,110,2|0,3:2|3:0,0:0:0:0:
81,106,72884,6,0,P|59:155|62:210,1,110,2|8,3:2|3:2,0:0:0:0:
81,263,73566,1,0,0:0:0:0:
81,263,73794,2,0,L|148:267,1,55,0|2,3:0|0:0,0:0:0:0:
173,306,74248,2,0,L|240:310,1,55,10|2,3:2|0:0,0:0:0:0:
265,349,74703,2,0,L|378:355,2,110,14|2|2,3:2|3:2|3:2,0:0:0:0:
324,256,76066,1,0,3:0:0:0:
222,209,76521,6,0,P|210:156|223:103,1,110,2|8,3:2|3:2,0:0:0:0:
262,63,77203,1,2,0:0:0:0:
262,63,77430,2,0,P|319:44|387:62,1,110,0|10,3:0|3:2,0:0:0:0:
465,103,78339,2,0,P|477:156|464:209,1,110,2|8,3:2|3:2,0:0:0:0:
437,258,79021,2,0,P|380:277|312:259,1,110,2|0,0:0|0:0,0:0:0:0:
285,240,79703,2,0,P|258:233|226:233,1,55,10|2,3:2|0:0,0:0:0:0:
189,268,80157,6,0,B|146:278|146:278|76:265,2,110,2|10|2,3:2|3:2|3:2,0:0:0:0:
128,175,81521,1,8,3:2:0:0:
179,77,81975,2,0,P|124:69|71:82,1,110,14|2,3:2|3:2,0:0:0:0:
128,175,82884,2,0,P|182:182|235:169,1,110,2|2,3:2|3:2,0:0:0:0:
317,96,83794,6,0,P|386:71|429:80,1,110,2|8,3:2|3:2,0:0:0:0:
474,92,84475,1,0,0:0:0:0:
474,92,84703,2,0,P|465:137|465:157,1,55,0|2,3:0|0:0,0:0:0:0:
428,186,85157,2,0,P|437:231|437:251,1,55,10|2,3:2|0:0,0:0:0:0:
426,294,85612,2,0,P|384:320|307:312,1,110,2|10,3:2|3:2,0:0:0:0:
255,236,86521,2,0,P|200:234|153:261,1,110,2|0,3:2|3:0,0:0:0:0:
66,329,87430,6,0,L|53:217,1,110,2|8,3:2|3:2,0:0:0:0:
49,168,88112,1,0,0:0:0:0:
49,168,88339,2,0,L|58:113,1,55,0|2,3:0|0:0,0:0:0:0:
67,59,88794,2,0,P|124:49|131:50,1,55,10|2,3:2|0:0,0:0:0:0:
170,71,89248,2,0,P|231:105|280:101,1,110,14|0,3:2|3:0,0:0:0:0:
316,74,89930,1,2,0:0:0:0:
316,74,90157,2,0,P|381:46|428:55,1,110,2|2,3:2|3:2,0:0:0:0:
479,143,91066,6,0,L|472:257,1,110,2|10,3:2|3:2,0:0:0:0:
429,288,91748,1,2,0:0:0:0:
429,288,91975,2,0,L|313:271,1,110,2|10,3:2|3:2,0:0:0:0:
266,262,92657,1,0,0:0:0:0:
174,202,93112,2,0,L|105:216,2,55,10|10|10,3:2|3:2|3:2,0:0:0:0:
439,82,94704,6,0,P|399:75|377:75,1,55,6|2,3:2|0:0,0:0:0:0:
338,102,95158,2,0,P|287:120|252:118,1,82.5,10|10,3:2|0:0,0:0:0:0:
209,95,95726,1,10,0:0:0:0:
131,64,96067,2,0,P|124:93|126:120,1,55,10|2,3:2|0:0,0:0:0:0:
151,168,96522,1,2,3:2:0:0:
151,168,96749,2,0,P|164:220|152:277,1,110,2|0,0:0|0:0,0:0:0:0:
133,326,97431,2,0,P|173:316|195:316,1,55,0|2,3:0|0:0,0:0:0:0:
236,342,97884,1,8,0:0:0:0:
344,320,98340,6,0,L|351:259,1,55,2|2,3:2|0:0,0:0:0:0:
396,235,98794,2,0,L|384:131,1,82.5,10|10,3:2|0:0,0:0:0:0:
376,98,99363,1,10,0:0:0:0:
391,17,99704,2,0,P|348:20|330:27,1,55,10|2,3:2|0:0,0:0:0:0:
300,65,100158,2,0,P|242:87|187:80,1,110,10|2,3:2|3:2,0:0:0:0:
112,11,101067,2,0,P|90:69|97:124,1,110,0|2,3:0|3:2,0:0:0:0:
117,166,101749,1,10,0:0:0:0:
142,216,101976,6,0,P|151:253|148:274,1,55,2|2,3:2|0:0,0:0:0:0:
135,323,102431,2,0,P|171:316|223:313,1,82.5,10|10,3:2|0:0,0:0:0:0:
270,327,102999,1,10,0:0:0:0:
350,356,103340,2,0,P|382:361|406:358,1,55,10|2,3:2|0:0,0:0:0:0:
447,324,103794,1,2,3:2:0:0:
447,324,104022,2,0,B|468:271|468:271|456:216,1,110,2|0,0:0|0:0,0:0:0:0:
424,176,104704,2,0,P|397:173|359:173,1,55,0|2,3:0|0:0,0:0:0:0:
334,214,105157,1,8,0:0:0:0:
233,187,105613,5,10,3:2:0:0:
233,187,105840,1,10,3:2:0:0:
359,79,106522,1,10,3:2:0:0:
359,79,106749,1,10,3:2:0:0:
199,38,107431,2,0,P|154:53|107:83,1,82.5,14|8,3:2|0:0,0:0:0:0:
82,107,107999,1,10,0:0:0:0:
82,107,108226,2,0,P|70:152|72:196,1,82.5,10|2,0:0|3:2,0:0:0:0:
102,235,108794,2,0,P|109:281|108:309,1,55,2|6,3:2|3:2,0:0:0:0:
