osu file format v14

[General]
AudioFilename: audio.mp3
AudioLeadIn: 0
PreviewTime: 71181
Countdown: 1
SampleSet: Soft
StackLeniency: 0.7
Mode: 0
LetterboxInBreaks: 0
WidescreenStoryboard: 0

[Editor]
DistanceSpacing: 1.3
BeatDivisor: 4
GridSize: 4
TimelineZoom: 1

[Metadata]
Title:Youshi Tanrei na Uso
TitleUnicode:Youshi Tanrei na Uso
Artist:THE ORAL CIGARETTES
ArtistUnicode:THE ORAL CIGARETTES
Creator:Bustabonejones
Version:Dissapointing Lie
Source:
Tags:epic
BeatmapID:2056237
BeatmapSetID:982534

[Difficulty]
HPDrainRate:6
CircleSize:4
OverallDifficulty:8.5
ApproachRate:9.6
SliderMultiplier:3.4
SliderTickRate:1

[Events]
//Background and Video events
0,0,"bgoc.jpg",0,0
//Break Periods
//Storyboard Layer 0 (Background)
//Storyboard Layer 1 (Fail)
//Storyboard Layer 2 (Pass)
//Storyboard Layer 3 (Foreground)
//Storyboard Sound Samples

[TimingPoints]
5783,454.545454545455,4,2,0,60,1,0
11464,-142.857142857143,4,2,0,60,0,0
11919,-125,4,2,0,60,0,0
12373,-111.111111111111,4,2,0,60,0,0
12601,-100,4,2,0,60,0,0

[HitObjects]
256,192,2147,12,0,5556,0:0:0:0:
219,101,5782,5,8,0:2:0:0:
219,101,6011,1,8,0:2:0:0:
373,249,7602,5,8,0:2:0:0:
373,249,7828,1,8,0:2:0:0:
198,309,9420,5,8,0:2:0:0:
198,309,9646,1,8,0:2:0:0:
82,308,11238,5,0,3:0:0:0:
82,308,11352,1,0,3:0:0:0:
82,308,11464,2,0,L|56:235,1,59.4999981842042,8|0,3:0|3:0,3:0:0:0:
145,236,11692,5,0,3:0:0:0:
145,236,11806,1,0,3:0:0:0:
145,236,11919,2,0,L|146:155,1,68,8|0,3:0|3:0,3:0:0:0:
226,198,12147,5,0,3:0:0:0:
226,198,12261,1,0,3:0:0:0:
226,198,12374,2,0,L|258:120,1,76.4999976654053,8|0,3:0|3:0,3:0:0:0:
337,142,12602,2,2,P|416:80|399:187,1,255
130,293,13055,6,0,P|113:251|120:213,1,85
252,86,13283,6,0,P|297:88|328:111,1,85
376,299,13510,1,0,2:3:0:0:
376,299,13623,2,0,P|340:326|300:328,1,85
172,152,13851,5,0,2:0:0:0:
172,152,13964,1,0,3:0:0:0:
172,152,14078,2,0,P|241:122|374:149,1,170,0|0,3:3|0:3,0:3:0:0:
260,189,14419,2,0,P|258:252|232:284,1,85,8|0,2:0|2:0,2:0:0:0:
58,332,14646,2,0,P|41:293|45:251,1,85
139,78,14873,1,0,2:0:0:0:
324,286,15101,5,0,0:0:0:0:
396,312,15214,1,0,0:0:0:0:
474,224,15328,1,8,2:0:0:0:
444,156,15441,1,0,0:0:0:0:
211,110,15669,5,0,2:0:0:0:
173,138,15782,1,0,3:0:0:0:
145,176,15896,1,0,2:0:0:0:
129,222,16010,2,0,P|123:275|152:324,1,85,0|0,3:3|0:3,0:3:0:0:
419,309,16237,2,0,P|435:270|426:228,1,85,8|0,2:0|0:0,0:0:0:0:
330,77,16464,2,0,P|291:65|245:77,1,85
289,135,16692,6,0,P|261:165|250:218,1,85
347,351,16919,2,0,P|375:321|386:268,1,85
182,242,17146,1,8,0:0:0:0:
182,242,17260,2,0,L|289:242,1,85
432,243,17487,5,0,2:3:0:0:
432,243,17600,1,0,3:3:0:0:
432,243,17714,2,0,P|451:149|381:89,1,170
313,206,18055,2,0,P|357:176|410:180,1,85,8|0,0:0|0:0,0:0:0:0:
454,318,18283,2,0,P|410:348|357:344,1,85,0|0,2:0|0:0,0:0:0:0:
163,307,18510,5,0,3:0:0:0:
148,256,18623,1,0,3:0:0:0:
149,204,18737,1,0,3:0:0:0:
166,154,18850,1,0,3:0:0:0:
198,112,18964,1,0,2:0:0:0:
244,88,19078,2,0,B|292:79|360:108,1,85,0|0,3:0|0:0,0:0:0:0:
425,298,19305,2,0,B|389:315|341:306,1,85,0|0,3:0|2:0,0:0:0:0:
178,227,19533,5,0,3:0:0:0:
88,120,19646,1,2,0:0:0:0:
49,295,19760,1,0,3:0:0:0:
132,188,19873,1,2,0:0:0:0:
232,316,19987,5,0,3:0:0:0:
280,328,20101,1,0,3:0:0:0:
324,304,20215,1,0,3:0:0:0:
348,260,20328,2,0,P|352:207|329:164,1,85,0|0,2:0|0:0,0:0:0:0:
198,90,20555,2,0,P|184:129|190:171,1,85,0|0,2:0|0:0,0:0:0:0:
324,304,20783,1,0,0:0:0:0:
324,304,20896,2,0,L|319:174,1,85
