osu file format v14

[General]
AudioFilename: audio.mp3
AudioLeadIn: 0
PreviewTime: 39281
Countdown: 0
SampleSet: Soft
StackLeniency: 0.7
Mode: 0
LetterboxInBreaks: 0
WidescreenStoryboard: 1

[Editor]
DistanceSpacing: 1.3
BeatDivisor: 4
GridSize: 4
TimelineZoom: 1.5

[Metadata]
Title:Wagamama de Gomakasanaide (TV Size)
TitleUnicode:ワガママで誤魔化さないで (TV Size)
Artist:THE ORAL CIGARETTES
ArtistUnicode:THE ORAL CIGARETTES
Creator:sakuu
Version:Hard
Source:revisions リヴィジョンズ
Tags:Mocaotic anime japanese jp rock j-rock jrock opening op cigs Takuya Yamanaka 山中 拓也 Akira Akirakani あきらかにあきら Shigenobu Suzuki 鈴木 重伸 Masaya Nakanishi 中西 雅哉 Mifuru みふる
BeatmapID:2154926
BeatmapSetID:1030107

[Difficulty]
HPDrainRate:4
CircleSize:3.8
OverallDifficulty:6
ApproachRate:7
SliderMultiplier:1.4
SliderTickRate:1

[Events]
//Background and Video events
0,0,"yep.jpg",0,0
//Break Periods
//Storyboard Layer 0 (Background)
//Storyboard Layer 1 (Fail)
//Storyboard Layer 2 (Pass)
//Storyboard Layer 3 (Foreground)
//Storyboard Layer 4 (Overlay)
//Storyboard Sound Samples

[TimingPoints]
-1282,422.535211267606,4,2,1,40,1,0
408,-125,4,2,1,50,0,0
13929,-100,4,2,1,60,0,0
27450,-105.263157894737,4,2,1,55,0,0
40971,-100,4,2,1,55,0,0
47732,-86.9565217391304,4,2,1,65,0,1
54070,-86.9565217391304,4,2,1,45,0,1
54281,-86.9565217391304,4,2,3,45,0,1
54387,-86.9565217391304,4,2,4,45,0,1
54492,-86.9565217391304,4,2,1,65,0,1
60408,-86.9565217391304,4,2,1,45,0,1
60619,-86.9565217391304,4,2,2,45,0,1
60830,-86.9565217391304,4,2,3,45,0,1
61041,-86.9565217391304,4,2,4,45,0,1
61253,-86.9565217391304,4,2,1,65,0,1
67591,-86.9565217391304,4,2,1,45,0,1
67802,-86.9565217391304,4,2,3,45,0,1
67908,-86.9565217391304,4,2,4,45,0,1
68013,-86.9565217391304,4,2,1,65,0,1
70548,-86.9565217391304,4,2,1,45,0,1
70760,-86.9565217391304,4,2,2,45,0,1
70971,-86.9565217391304,4,2,3,45,0,1
71182,-86.9565217391304,4,2,4,45,0,1
71394,-100,4,2,1,60,0,0
84915,-111.111111111111,4,2,1,60,0,0
85971,-111.111111111111,4,2,1,10,0,0

[Colours]
Combo1 : 235,202,126
Combo2 : 230,62,57
Combo3 : 134,196,232
Combo4 : 189,227,117

[HitObjects]
75,48,408,6,0,B|92:78|92:78|76:170,1,112,14|10,0:0|0:0,0:0:0:0:
181,301,1253,2,0,B|164:271|164:271|180:179,1,112,10|10,0:0|0:0,0:0:0:0:
181,104,1887,2,0,P|225:115|266:171,1,112,2|2,1:0|0:0,0:0:0:0:
302,246,2520,2,0,L|370:236,1,56,8|2,0:0|0:0,0:0:0:0:
404,160,2943,2,0,L|336:150,1,56,10|2,0:0|1:0,0:0:0:0:
310,70,3365,1,8,0:0:0:0:
253,139,3577,1,2,1:0:0:0:
253,139,3682,1,0,1:0:0:0:
253,139,3788,6,0,L|117:119,1,112,14|10,0:0|0:0,0:0:0:0:
22,256,4633,2,0,L|158:236,1,112,10|10,0:0|0:0,0:0:0:0:
173,319,5267,2,0,P|175:271|214:224,2,112,2|2|2,1:0|0:0|0:0,0:0:0:0:
261,328,6323,2,0,L|326:318,1,56,8|0,0:0|1:0,0:0:0:0:
315,229,6746,1,8,0:0:0:0:
397,263,6957,1,2,1:0:0:0:
397,263,7063,1,0,1:0:0:0:
397,263,7168,6,0,B|414:293|414:293|398:385,1,112,14|10,0:0|0:0,0:0:0:0:
303,218,8013,2,0,B|286:188|286:188|302:96,1,112,10|10,0:0|0:0,0:0:0:0:
376,157,8647,2,0,L|488:150,1,112,2|2,1:0|0:0,0:0:0:0:
476,239,9281,2,0,L|464:304,1,56,10|2,0:0|0:0,0:0:0:0:
386,336,9703,2,0,L|374:271,1,56,10|2,0:0|1:0,0:0:0:0:
298,234,10126,1,10,0:0:0:0:
274,320,10337,1,0,1:0:0:0:
274,320,10443,1,0,1:0:0:0:
274,320,10548,6,0,L|162:313,1,112,12|8,0:0|0:0,0:0:0:0:
111,140,11394,1,8,0:0:0:0:
87,226,11605,1,0,1:0:0:0:
87,226,11710,1,0,1:0:0:0:
87,226,11816,1,8,0:0:0:0:
174,207,12027,1,8,0:0:0:0:
50,76,12450,6,0,L|55:2,2,56,10|10|10,0:0|0:0|0:0,0:0:0:0:
111,140,13084,1,10,0:0:0:0:
143,56,13295,1,8,0:0:0:0:
143,56,13401,1,8,0:0:0:0:
143,56,13506,2,0,L|197:60,3,28,10|0|0|0,1:2|1:0|1:0|1:0,0:0:0:0:
220,85,13929,6,0,L|289:79,1,70,6|2,1:0|1:0,0:0:0:0:
356,8,14351,1,10,0:0:0:0:
356,8,14563,2,0,B|325:38|325:38|337:144,1,140,2|0,0:0|1:0,0:0:0:0:
286,218,15196,1,8,0:0:0:0:
286,218,15408,2,0,P|360:231|416:196,1,140,2|0,0:0|1:0,0:0:0:0:
398,102,16041,1,8,0:0:0:0:
398,102,16253,2,0,P|324:89|268:124,1,140,2|2,0:0|1:0,0:0:0:0:
199,53,16887,1,10,0:0:0:0:
199,53,17098,1,2,0:0:0:0:
120,111,17309,6,0,L|123:196,1,70,6|2,1:0|1:0,0:0:0:0:
32,219,17732,1,10,0:0:0:0:
32,219,17943,2,0,B|73:213|73:213|134:242|134:242|191:235,1,140,2|0,0:0|1:0,0:0:0:0:
251,191,18577,1,8,0:0:0:0:
251,191,18788,2,0,L|246:330,1,140,2|0,0:0|1:0,0:0:0:0:
340,303,19422,1,8,0:0:0:0:
340,303,19633,2,0,B|381:309|381:309|442:280|442:280|499:287,1,140,2|0,0:0|1:0,0:0:0:0:
452,187,20267,2,0,L|456:135,3,35,10|0|0|0,0:0|1:0|1:0|1:0,0:0:0:0:
457,103,20689,6,0,L|376:94,1,70,6|2,1:0|1:0,0:0:0:0:
321,168,21112,1,10,0:0:0:0:
321,168,21323,2,0,B|247:158|263:227|175:201,1,140,2|0,0:0|1:0,0:0:0:0:
122,274,21957,1,8,0:0:0:0:
122,274,22168,2,0,B|91:244|91:244|103:138,1,140,2|0,0:0|1:0,0:0:0:0:
86,50,22802,1,8,0:0:0:0:
86,50,23013,2,0,B|160:40|144:109|232:83,1,140,2|0,0:0|1:0,0:0:0:0:
290,23,23647,1,8,0:0:0:0:
290,23,23858,1,2,0:0:0:0:
318,117,24070,6,0,L|308:188,1,70,6|0,1:0|1:0,0:0:0:0:
240,256,24492,2,0,L|250:327,1,70,10|0,0:0|0:0,0:0:0:0:
347,335,24915,1,2,1:0:0:0:
347,335,25126,1,0,1:0:0:0:
396,250,25337,1,10,0:0:0:0:
442,336,25548,1,2,1:0:0:0:
377,150,25971,6,10,L|382:75,2,70,10|10|10,0:0|0:0|0:0,0:0:0:0:
297,92,26605,1,10,0:0:0:0:
215,146,26816,1,10,0:0:0:0:
215,146,26922,1,8,0:0:0:0:
215,146,27027,2,0,L|162:139,3,35,10|0|2|0,1:2|1:0|1:0|1:0,0:0:0:0:
133,135,27450,6,0,B|106:109|106:109|101:229,1,132.999996448517,6|10,1:0|0:0,0:0:0:0:
234,336,28295,2,0,B|158:309|172:377|92:351,1,132.999996448517,2|10,1:0|0:0,0:0:0:0:
18,381,28929,2,0,L|23:244,1,132.999996448517,2|2,1:0|1:0,0:0:0:0:
116,242,29563,2,0,L|113:175,1,66.4999982242585,10|2,0:0|1:0,0:0:0:0:
74,151,29879,1,0,1:0:0:0:
74,151,29985,2,0,L|76:84,1,66.4999982242585,2|2,1:0|1:0,0:0:0:0:
166,109,30408,1,8,0:0:0:0:
177,17,30619,1,2,1:0:0:0:
177,17,30725,1,0,1:0:0:0:
177,17,30830,6,0,B|253:-10|239:58|319:32,1,132.999996448517,6|10,1:0|0:0,0:0:0:0:
396,28,31464,1,0,1:0:0:0:
396,28,31570,1,0,1:0:0:0:
396,28,31675,2,0,L|391:165,1,132.999996448517,2|10,1:0|0:0,0:0:0:0:
443,238,32309,2,0,P|387:255|317:219,1,132.999996448517,2|2,1:0|1:0,0:0:0:0:
335,129,32943,1,10,0:0:0:0:
335,129,33154,2,0,P|366:138|390:160,1,66.4999982242585,2|0,1:0|1:0,0:0:0:0:
455,93,33577,1,0,1:0:0:0:
455,93,33788,1,8,0:0:0:0:
389,27,33999,1,2,1:0:0:0:
389,27,34105,1,0,1:0:0:0:
389,27,34210,6,0,B|340:24|340:24|308:44|308:44|253:38,1,132.999996448517,6|10,1:0|0:0,0:0:0:0:
170,22,34844,1,0,1:0:0:0:
170,22,34950,1,0,1:0:0:0:
170,22,35056,2,0,P|166:89|187:151,1,132.999996448517,2|10,1:0|0:0,0:0:0:0:
268,180,35689,2,0,B|219:177|219:177|187:197|187:197|132:191,1,132.999996448517,2|2,1:0|1:0,0:0:0:0:
55,172,36323,2,0,L|58:246,1,66.4999982242585,10|2,0:0|1:0,0:0:0:0:
93,268,36640,1,0,1:0:0:0:
93,268,36746,2,0,L|90:342,1,66.4999982242585,2|2,1:0|1:0,0:0:0:0:
179,309,37168,1,10,0:0:0:0:
261,352,37379,1,0,1:0:0:0:
261,352,37485,1,0,1:0:0:0:
261,352,37591,6,0,B|337:325|323:393|403:367,1,132.999996448517,4|8,1:0|0:0,0:0:0:0:
459,311,38225,1,0,1:0:0:0:
459,311,38330,1,0,1:0:0:0:
459,311,38436,2,0,L|449:228,1,66.4999982242585,0|0,1:0|1:0,0:0:0:0:
434,153,38858,1,8,0:0:0:0:
360,211,39070,1,2,1:0:0:0:
189,284,39492,5,10,0:0:0:0:
140,363,39703,2,0,L|59:347,1,66.4999982242585,10|10,0:0|0:0,0:0:0:0:
97,259,40126,1,10,0:0:0:0:
62,172,40337,2,0,L|29:178,2,33.2499991121292,10|8|10,0:0|0:0|1:2,0:0:0:0:
22,87,40760,1,10,0:0:0:0:
119,94,40971,6,0,B|193:84|177:153|265:127,1,140,6|8,1:0|0:0,0:0:0:0:
310,55,41605,1,2,0:0:0:0:
310,55,41816,2,0,B|335:92|335:92|323:198,1,140,2|8,1:0|0:0,0:0:0:0:
359,279,42450,1,2,0:0:0:0:
359,279,42661,2,0,L|428:268,1,70,2|2,1:0|1:0,0:0:0:0:
491,192,43084,2,0,L|422:181,1,70,10|2,0:0|0:0,0:0:0:0:
324,186,43506,1,2,1:0:0:0:
324,186,43718,1,2,1:0:0:0:
252,118,43929,2,0,L|183:129,1,70,10|2,0:0|1:0,0:0:0:0:
112,61,44351,6,0,B|87:98|87:98|99:204,1,140,2|8,1:0|0:0,0:0:0:0:
44,275,44985,1,2,0:0:0:0:
44,275,45196,2,0,P|100:292|182:245,1,140,2|8,1:0|0:0,0:0:0:0:
185,159,45830,2,0,B|259:149|243:218|331:192,1,140,6|2,0:0|1:0,0:0:0:0:
397,143,46464,2,0,P|410:179|408:226,1,70,2|2,1:0|1:0,0:0:0:0:
349,287,46887,1,10,0:0:0:0:
314,196,47098,1,10,0:0:0:0:
167,325,47520,1,2,0:0:0:0:
84,260,47732,6,0,P|58:231|51:192,1,80.5000015354157,6|0,1:0|1:0,0:0:0:0:
21,91,48154,2,0,P|59:83|97:96,1,80.5000015354157,10|0,0:0|1:0,0:0:0:0:
170,22,48577,1,2,1:0:0:0:
200,120,48788,2,0,P|187:157|157:183,1,80.5000015354157,2|8,1:0|0:0,0:0:0:0:
84,260,49210,2,0,B|165:241|165:311|238:285,1,161.000003070831,6|2,1:0|1:0,0:0:0:0:
325,343,49844,2,0,L|408:321,1,80.5000015354157,10|2,0:0|1:0,0:0:0:0:
469,241,50267,1,2,1:0:0:0:
374,197,50478,2,0,L|296:176,1,80.5000015354157,2|10,1:0|0:0,0:0:0:0:
211,237,50901,1,2,1:0:0:0:
211,237,51006,1,2,1:0:0:0:
211,237,51112,6,0,P|189:187|199:149,1,80.5000015354157,6|0,1:0|1:0,0:0:0:0:
183,57,51534,2,0,P|236:63|264:91,1,80.5000015354157,10|0,0:0|1:0,0:0:0:0:
342,20,51957,1,2,1:0:0:0:
352,124,52168,2,0,P|319:167|281:177,1,80.5000015354157,2|8,1:0|0:0,0:0:0:0:
211,237,52591,2,0,B|130:218|130:288|57:262,1,161.000003070831,6|2,1:0|1:0,0:0:0:0:
91,162,53225,2,0,L|94:120,3,40.2500007677078,10|0|2|0,0:0|1:0|1:0|1:0,0:0:0:0:
136,90,53647,2,0,L|133:48,3,40.2500007677078,0|0|0|0,1:0|1:0|1:0|1:0,0:0:0:0:
163,6,54070,1,8,3:0:0:0:
244,71,54281,1,10,3:0:0:0:
244,71,54387,1,8,3:0:0:0:
244,71,54492,6,0,L|329:84,1,80.5000015354157,6|2,1:0|1:0,0:0:0:0:
394,160,54915,2,0,L|309:173,1,80.5000015354157,10|2,0:0|1:0,0:0:0:0:
210,184,55337,1,2,1:0:0:0:
210,184,55548,1,2,1:0:0:0:
178,284,55760,1,10,0:0:0:0:
280,263,55971,1,2,1:0:0:0:
308,363,56182,6,0,L|393:350,1,80.5000015354157,2|2,1:0|1:0,0:0:0:0:
458,274,56605,2,0,L|373:261,1,80.5000015354157,10|2,0:0|1:0,0:0:0:0:
324,172,57027,1,2,1:0:0:0:
324,172,57239,1,2,1:0:0:0:
282,76,57450,1,10,0:0:0:0:
211,153,57661,1,0,1:0:0:0:
211,153,57767,1,0,1:0:0:0:
211,153,57872,6,0,B|130:134|130:204|57:178,1,161.000003070831,6|10,1:0|0:0,0:0:0:0:
79,75,58506,1,0,1:0:0:0:
181,50,58718,2,0,P|230:42|267:58,1,80.5000015354157,2|2,1:0|1:0,0:0:0:0:
352,96,59140,1,8,0:0:0:0:
395,1,59351,1,6,1:0:0:0:
465,78,59563,2,0,L|460:128,3,40.2500007677078,0|0|0|0,1:0|1:0|1:0|1:0,0:0:0:0:
421,152,59985,2,0,L|426:202,3,40.2500007677078,8|0|0|0,0:0|1:0|1:0|1:0,0:0:0:0:
465,226,60408,2,0,L|460:276,3,40.2500007677078,8|8|8|8,3:0|3:0|3:0|3:0,0:0:0:0:
421,300,60830,1,8,3:0:0:0:
330,351,61041,1,10,3:0:0:0:
330,351,61147,1,8,3:0:0:0:
329,351,61253,6,0,P|293:367|254:361,1,80.5000015354157,6|0,1:0|1:0,0:0:0:0:
150,354,61675,2,0,P|153:314|178:283,1,80.5000015354157,10|0,0:0|1:0,0:0:0:0:
132,189,62098,1,2,1:0:0:0:
237,196,62309,2,0,P|269:219|283:256,1,80.5000015354157,2|8,1:0|0:0,0:0:0:0:
299,368,62732,2,0,B|358:356|358:356|408:375|408:375|456:367,1,161.000003070831,6|2,1:0|1:0,0:0:0:0:
397,279,63365,2,0,L|409:194,1,80.5000015354157,10|2,0:0|1:0,0:0:0:0:
511,184,63788,1,2,1:0:0:0:
453,97,63999,2,0,P|422:66|379:56,1,80.5000015354157,2|10,1:0|0:0,0:0:0:0:
330,144,64422,1,2,1:0:0:0:
330,144,64527,1,2,1:0:0:0:
330,144,64633,6,0,P|299:175|256:185,1,80.5000015354157,6|0,1:0|1:0,0:0:0:0:
167,225,65056,2,0,P|154:182|167:140,1,80.5000015354157,10|0,0:0|1:0,0:0:0:0:
81,83,65478,1,2,1:0:0:0:
178,43,65689,2,0,P|220:53|250:85,1,80.5000015354157,2|8,1:0|0:0,0:0:0:0:
330,144,66112,2,0,B|318:203|318:203|337:253|337:253|329:301,1,161.000003070831,6|2,1:0|1:0,0:0:0:0:
228,263,66746,2,0,L|179:257,3,40.2500007677078,10|0|2|0,0:0|1:0|1:0|1:0,0:0:0:0:
141,282,67168,2,0,L|92:288,3,40.2500007677078,0|0|0|0,1:0|1:0|1:0|1:0,0:0:0:0:
48,295,67591,1,8,3:0:0:0:
75,194,67802,1,10,3:0:0:0:
75,194,67908,1,8,3:0:0:0:
75,194,68013,6,0,L|94:108,1,80.5000015354157,6|2,1:0|1:0,0:0:0:0:
175,51,68436,2,0,L|192:129,1,80.5000015354157,10|2,0:0|1:0,0:0:0:0:
221,229,68858,1,2,1:0:0:0:
221,229,69070,1,2,1:0:0:0:
324,240,69281,1,10,0:0:0:0:
287,142,69492,1,2,1:0:0:0:
391,143,69703,6,0,L|397:201,3,40.2500007677078,2|0|2|0,1:0|1:0|1:0|1:0,0:0:0:0:
423,228,70126,2,0,L|417:286,3,40.2500007677078,10|0|2|0,0:0|1:0|1:0|1:0,0:0:0:0:
381,304,70548,2,0,L|387:362,3,40.2500007677078,10|8|10|8,3:0|3:0|3:0|3:0,0:0:0:0:
350,383,70971,1,10,3:0:0:0:
259,315,71182,1,10,3:0:0:0:
259,315,71288,1,8,3:0:0:0:
259,315,71394,6,0,B|185:305|201:374|113:348,1,140,6|8,1:0|0:0,0:0:0:0:
64,278,72027,1,2,0:0:0:0:
64,278,72239,2,0,L|78:136,1,140,2|8,1:0|0:0,0:0:0:0:
173,111,72872,1,2,0:0:0:0:
173,111,73084,2,0,L|243:123,1,70,2|2,1:0|1:0,0:0:0:0:
291,206,73506,2,0,L|221:218,1,70,10|2,0:0|0:0,0:0:0:0:
197,313,73929,1,2,1:0:0:0:
197,313,74140,1,2,1:0:0:0:
293,329,74351,2,0,L|363:341,1,70,10|2,0:0|1:0,0:0:0:0:
407,253,74774,6,0,B|432:216|432:216|420:110,1,140,2|8,1:0|0:0,0:0:0:0:
424,22,75408,1,2,0:0:0:0:
424,22,75619,2,0,B|350:12|366:81|278:55,1,140,2|8,1:0|0:0,0:0:0:0:
243,142,76253,1,2,0:0:0:0:
243,142,76464,2,0,L|167:122,1,70,2|2,1:0|1:0,0:0:0:0:
110,50,76887,2,0,L|186:30,1,70,10|2,0:0|0:0,0:0:0:0:
274,47,77309,2,0,B|325:40|325:40|372:67|372:67|417:62,1,140,2|8,1:0|0:0,0:0:0:0:
504,55,77943,1,2,1:0:0:0:
464,144,78154,6,0,L|450:286,1,140,6|8,1:0|0:0,0:0:0:0:
367,336,78788,1,2,0:0:0:0:
367,336,78999,2,0,L|353:194,1,140,2|8,1:0|0:0,0:0:0:0:
317,104,79633,1,2,0:0:0:0:
317,104,79844,2,0,L|244:123,1,70,2|2,1:0|1:0,0:0:0:0:
186,197,80267,2,0,L|259:216,1,70,10|2,0:0|1:0,0:0:0:0:
254,312,80689,1,2,1:0:0:0:
254,312,80901,1,2,1:0:0:0:
158,288,81112,2,0,L|85:269,1,70,10|10,0:0|0:0,0:0:0:0:
94,172,81534,6,0,B|104:98|35:114|61:26,1,140,10|0,0:0|1:0,0:0:0:0:
154,57,82168,1,10,0:0:0:0:
188,148,82379,2,0,P|228:165|324:141,1,140,10|0,0:0|1:0,0:0:0:0:
380,67,83013,1,10,0:0:0:0:
469,106,83225,2,0,L|480:178,1,70,10|10,0:0|0:0,0:0:0:0:
393,221,83647,2,0,L|382:293,1,70,10|10,0:0|0:0,0:0:0:0:
286,270,84070,1,10,0:0:0:0:
286,270,84281,1,10,0:0:0:0:
230,189,84492,2,0,P|195:184|162:195,1,70,14|10,0:0|0:0,0:0:0:0:
82,141,84915,6,0,B|54:181|50:237|114:293|114:293|70:285|34:293|34:293|54:325|46:357,1,314.999990386963,14|0,0:0|0:0,0:0:0:0:
