osu file format v14

[General]
AudioFilename: audio.mp3
AudioLeadIn: 0
PreviewTime: 39879
Countdown: 0
SampleSet: Soft
StackLeniency: 0.5
Mode: 0
LetterboxInBreaks: 0
WidescreenStoryboard: 0

[Editor]
DistanceSpacing: 1
BeatDivisor: 4
GridSize: 16
TimelineZoom: 1.2

[Metadata]
Title:Wagamama de Gomakasanai de (TV Size)
TitleUnicode:ワガママで誤魔化さないで (TV Size)
Artist:THE ORAL CIGARETTES
ArtistUnicode:THE ORAL CIGARETTES
Creator:spoes
Version:Normal
Source:リヴィジョンズ
Tags:revisions opening nextplay my angel kanan my_angel_kanan japanese j-rock anime
BeatmapID:1935813
BeatmapSetID:926812

[Difficulty]
HPDrainRate:3
CircleSize:3
OverallDifficulty:4
ApproachRate:5
SliderMultiplier:1.2
SliderTickRate:1

[Events]
//Background and Video events
0,0,"wagamama.jpg",0,0
//Break Periods
//Storyboard Layer 0 (Background)
//Storyboard Layer 1 (Fail)
//Storyboard Layer 2 (Pass)
//Storyboard Layer 3 (Foreground)
//Storyboard Sound Samples

[TimingPoints]
1006,422.535211267606,4,2,1,50,1,0
12625,-100,4,2,1,60,0,0
14527,-100,4,2,1,70,0,0
28048,-100,4,2,1,55,0,0
41569,-100,4,2,1,65,0,0
46428,-100,4,2,1,70,0,0
48329,-100,4,2,1,85,0,1
58470,-100,4,2,1,85,0,0
61851,-100,4,2,1,85,0,1
68611,-100,4,2,1,95,0,1
71991,-100,4,2,1,65,0,0

[Colours]
Combo1 : 97,97,97
Combo2 : 138,221,249
Combo3 : 158,158,158
Combo4 : 120,113,251

[HitObjects]
489,300,1006,6,0,L|488:170,1,120,10|10,0:2|0:2,0:0:0:0:
464,74,1851,2,0,P|398:59|331:86,1,120,10|10,0:2|0:2,0:0:0:0:
317,117,2484,2,0,L|318:242,1,120,2|2,1:2|0:2,0:0:0:0:
293,285,3118,2,0,P|251:298|163:273,2,120,10|10|8,0:2|0:2|0:2,0:0:0:0:
239,191,4386,6,0,B|176:180|176:180|111:195,1,120,10|10,0:2|0:2,0:0:0:0:
27,246,5231,2,0,B|16:183|16:183|31:118,1,120,10|10,0:2|0:2,0:0:0:0:
57,82,5865,1,2,1:2:0:0:
156,124,6287,2,0,L|304:123,2,120,2|2|0,0:2|0:2|1:2,0:0:0:0:
120,82,7344,1,8,0:2:0:0:
49,163,7766,6,0,P|37:216|53:295,1,120,10|10,0:2|0:2,0:0:0:0:
138,337,8611,2,0,L|260:336,1,120,10|10,0:2|0:2,0:0:0:0:
307,313,9245,2,0,P|319:254|309:195,1,120,2|2,1:2|0:2,0:0:0:0:
266,162,9879,1,10,0:0:0:0:
275,54,10301,1,10,0:0:0:0:
319,22,10513,2,0,L|401:22,1,60,2|8,1:2|0:0,0:0:0:0:
422,53,10935,6,0,P|448:104|420:184,1,120,2|0,1:2|0:0,0:0:0:0:
411,211,11569,1,8,0:0:0:0:
491,282,11991,1,8,0:2:0:0:
399,340,12414,1,8,0:2:0:0:
399,340,12625,1,8,0:2:0:0:
318,268,13048,6,0,L|317:200,2,60,2|2|2,1:2|1:2|1:2,0:0:0:0:
280,307,13682,2,0,P|223:323|168:303,1,120,2|2,1:2|1:2,0:0:0:0:
106,213,14527,6,0,L|26:214,2,60,6|0|8,1:2|1:2|0:2,0:0:0:0:
141,171,15160,2,0,P|155:128|133:49,1,120,2|0,0:2|1:2,0:0:0:0:
246,60,16006,2,0,P|270:97|345:130,1,120,2|0,0:2|1:2,0:0:0:0:
283,223,16851,2,0,P|237:225|171:274,1,120,2|0,0:2|1:2,0:0:0:0:
161,316,17484,1,10,0:2:0:0:
269,320,17907,6,0,L|268:400,2,60,0|0|8,1:2|1:2|0:2,0:0:0:0:
297,275,18541,2,0,P|340:261|419:283,1,120,2|0,0:2|1:2,0:0:0:0:
404,170,19386,2,0,P|366:145|333:70,1,120,2|0,0:2|1:2,0:0:0:0:
241,134,20231,2,0,P|238:179|189:245,1,120,2|0,0:2|1:2,0:0:0:0:
147,263,20865,2,0,L|64:265,1,60,10|2,0:2|0:2,0:0:0:0:
41,293,21287,6,0,P|39:343|46:370,2,60,0|0|8,1:2|1:2|0:2,0:0:0:0:
65,244,21921,2,0,P|70:178|64:115,1,120,2|0,0:2|1:2,0:0:0:0:
121,31,22766,2,0,P|187:36|250:30,1,120,2|0,0:2|1:2,0:0:0:0:
347,44,23611,2,0,P|342:110|348:173,1,120,2|0,0:2|1:2,0:0:0:0:
388,197,24245,2,0,L|452:199,1,60,10|2,0:2|0:2,0:0:0:0:
493,227,24668,5,0,1:2:0:0:
503,334,25090,1,10,0:2:0:0:
404,379,25513,1,0,1:2:0:0:
332,298,25935,1,10,0:2:0:0:
332,298,26146,1,12,0:2:0:0:
239,354,26569,6,0,P|203:358|156:352,2,60,10|10|10,0:2|0:2|0:2,0:0:0:0:
264,306,27203,2,0,L|261:235,1,60,8|8,0:2|0:2,0:0:0:0:
228,203,27625,2,0,L|225:134,1,60,0|8,1:2|0:2,0:0:0:0:
260,101,28048,5,6,1:2:0:0:
359,142,28470,1,10,0:2:0:0:
449,83,28893,2,0,L|450:17,2,60,2|0|10,1:2|1:2|0:2,0:0:0:0:
487,120,29527,2,0,P|500:159|467:241,1,120,2|2,1:2|1:2,0:0:0:0:
431,261,30160,1,10,0:2:0:0:
325,236,30583,1,2,1:2:0:0:
231,290,31006,1,8,0:2:0:0:
128,257,31428,5,6,1:2:0:0:
117,149,31851,1,10,0:2:0:0:
204,85,32273,2,0,L|280:84,2,60,2|0|10,1:2|1:2|0:2,0:0:0:0:
164,47,32907,2,0,P|109:39|43:64,1,120,2|2,1:2|1:2,0:0:0:0:
27,109,33541,1,10,0:0:0:0:
81,201,33963,1,2,1:2:0:0:
40,301,34386,1,8,0:2:0:0:
134,352,34808,5,6,1:2:0:0:
218,284,35231,1,10,0:2:0:0:
325,273,35653,2,0,L|392:272,2,60,2|0|10,1:2|1:2|0:2,0:0:0:0:
295,227,36287,2,0,P|280:159|298:98,1,120,2|2,1:2|1:2,0:0:0:0:
334,78,36921,1,10,0:0:0:0:
440,95,37344,1,2,1:2:0:0:
440,95,37555,2,0,P|449:128|439:167,1,60,2|8,1:2|0:2,0:0:0:0:
358,217,38189,6,0,L|212:218,1,120,6|8,1:2|0:0,0:0:0:0:
129,218,39034,2,0,P|109:267|128:337,1,120,0|8,1:2|0:0,0:0:0:0:
164,369,39668,1,14,0:2:0:0:
242,295,40090,6,0,L|242:223,2,60,10|10|10,0:2|0:2|0:2,0:0:0:0:
286,326,40724,2,0,P|318:332|357:324,1,60,10|10,0:2|0:2,0:0:0:0:
391,301,41146,2,0,P|420:297|449:303,1,60,2|10,1:2|0:2,0:0:0:0:
496,330,41569,5,6,1:2:0:0:
496,114,42414,1,2,1:2:0:0:
280,114,43259,2,0,P|265:178|281:244,1,120,2|10,1:2|0:2,0:0:0:0:
372,278,44104,2,0,P|380:242|375:209,2,60,2|2|10,1:2|1:2|0:2,0:0:0:0:
346,325,44738,1,2,1:2:0:0:
346,325,44949,5,6,1:2:0:0:
130,324,45794,1,2,1:2:0:0:
128,161,46428,6,0,B|171:161|171:161|211:149|211:149|286:148,1,120,14|10,0:2|0:2,0:0:0:0:
287,183,47062,2,0,L|352:183,1,60,10|10,1:2|1:2,0:0:0:0:
392,154,47484,1,10,1:2:0:0:
392,154,47696,1,10,1:2:0:0:
259,61,48329,5,6,1:2:0:0:
163,9,48752,1,10,0:2:0:0:
69,62,49175,2,0,L|-6:62,2,60,2|2|10,1:2|0:2|0:2,0:0:0:0:
118,83,49808,2,0,P|134:151|106:213,1,120,6|2,0:2|0:2,0:0:0:0:
75,229,50442,1,10,0:2:0:0:
17,320,50865,1,2,1:2:0:0:
109,375,51287,2,0,L|181:375,1,60,8|10,0:2|0:2,0:0:0:0:
216,348,51710,5,6,1:2:0:0:
270,254,52132,1,10,0:2:0:0:
210,163,52555,2,0,L|131:163,2,60,2|2|8,1:2|0:2|0:2,0:0:0:0:
251,128,53189,2,0,P|317:113|385:136,1,120,6|10,0:2|0:2,0:0:0:0:
402,165,53822,2,0,B|396:208|396:208|406:238|406:238|403:303,2,120,10|0|10,0:2|1:2|0:2,0:0:0:0:
447,66,55090,5,6,1:2:0:0:
349,18,55513,1,10,0:2:0:0:
253,68,55935,2,0,L|251:204,1,120,2|10,1:2|0:2,0:0:0:0:
252,296,56780,5,2,1:2:0:0:
154,344,57203,1,10,0:2:0:0:
58,294,57625,2,0,L|56:158,1,120,2|10,1:2|0:2,0:0:0:0:
92,72,58470,6,0,B|156:52|197:74|197:74|221:110|210:152,1,180,6|0,1:2|0:0,0:0:0:0:
196,194,59315,2,0,P|218:257|295:299,1,120,6|10,1:2|0:2,0:0:0:0:
303,260,59949,2,0,P|362:226|423:228,1,120,12|0,0:2|1:2,0:0:0:0:
463,243,60583,1,10,0:2:0:0:
476,135,61006,1,10,0:2:0:0:
369,115,61428,2,0,P|331:120|295:109,1,60,10|8,0:2|0:3,0:0:0:0:
262,97,61851,5,6,1:2:0:0:
211,192,62273,1,10,0:2:0:0:
266,284,62696,2,0,L|331:282,2,60,2|2|10,1:2|0:2|0:2,0:0:0:0:
223,317,63329,2,0,P|158:331|95:309,1,120,6|2,0:2|0:2,0:0:0:0:
63,285,63963,1,10,0:2:0:0:
134,203,64386,1,2,1:2:0:0:
37,154,64808,2,0,L|37:94,1,60,10|10,0:2|0:2,0:0:0:0:
62,45,65231,5,6,1:2:0:0:
161,4,65653,1,10,0:2:0:0:
253,59,66076,2,0,L|328:59,2,60,2|2|8,1:2|0:2|0:2,0:0:0:0:
211,93,66710,2,0,P|200:166|219:217,1,120,6|10,0:2|0:2,0:0:0:0:
266,221,67344,1,10,0:2:0:0:
266,221,67555,2,0,B|358:203|345:247|448:222,1,180,2|10,1:2|0:2,0:0:0:0:
485,188,68400,1,0,1:2:0:0:
485,188,68611,6,0,L|485:56,1,120,6|10,1:2|0:2,0:0:0:0:
387,20,69456,1,2,1:2:0:0:
291,70,69879,2,0,P|285:103|296:150,1,60,10|2,0:2|0:2,0:0:0:0:
311,177,70301,2,0,P|320:251|298:334,1,120,2|8,1:2|0:2,0:0:0:0:
222,355,71146,2,0,L|138:355,1,60,0|8,1:2|0:3,0:0:0:0:
117,323,71569,2,0,L|33:323,1,60,4|10,0:3|0:2,0:0:0:0:
14,290,71991,5,6,1:2:0:0:
14,74,72836,1,2,1:2:0:0:
230,74,73681,2,0,P|245:138|229:204,1,120,2|10,1:2|0:2,0:0:0:0:
138,238,74526,2,0,P|130:202|135:169,2,60,2|2|10,1:2|1:2|0:2,0:0:0:0:
164,285,75160,1,2,1:2:0:0:
164,285,75372,5,6,1:2:0:0:
379,292,76217,1,2,1:2:0:0:
377,76,77062,2,0,P|306:66|243:85,1,120,2|10,1:2|0:2,0:0:0:0:
170,137,77907,2,0,B|178:187|178:187|164:212|164:212|168:278,1,120,2|8,1:2|0:2,0:0:0:0:
255,314,78752,5,6,1:2:0:0:
39,311,79597,1,2,1:2:0:0:
33,95,80442,2,0,P|111:83|166:103,1,120,2|10,1:2|0:2,0:0:0:0:
231,164,81287,2,0,L|231:248,1,60,2|2,1:2|1:2,0:0:0:0:
265,265,81710,2,0,P|303:268|336:261,1,60,10|2,0:2|1:2,0:0:0:0:
365,229,82132,5,6,1:2:0:0:
362,66,82766,1,0,1:2:0:0:
362,66,82977,2,0,P|416:52|488:75,1,120,2|8,1:2|0:2,0:0:0:0:
501,116,83611,1,2,1:2:0:0:
501,116,83822,2,0,L|501:199,1,60,2|2,1:2|1:2,0:0:0:0:
475,223,84245,2,0,P|443:229|398:217,1,60,10|2,0:2|1:2,0:0:0:0:
369,197,84668,5,2,1:2:0:0:
264,224,85090,1,10,0:2:0:0:
159,196,85513,1,6,1:2:0:0:
