osu file format v14

[General]
AudioFilename: audio.mp3
AudioLeadIn: 0
PreviewTime: 39879
Countdown: 0
SampleSet: Soft
StackLeniency: 0.4
Mode: 0
LetterboxInBreaks: 0
WidescreenStoryboard: 0

[Editor]
DistanceSpacing: 1
BeatDivisor: 4
GridSize: 16
TimelineZoom: 1.900004

[Metadata]
Title:Wagamama de Gomakasanai de (TV Size)
TitleUnicode:ワガママで誤魔化さないで (TV Size)
Artist:THE ORAL CIGARETTES
ArtistUnicode:THE ORAL CIGARETTES
Creator:spoes
Version:Insane
Source:リヴィジョンズ
Tags:revisions opening nextplay my angel kanan my_angel_kanan japanese j-rock anime
BeatmapID:1935812
BeatmapSetID:926812

[Difficulty]
HPDrainRate:5
CircleSize:3.7
OverallDifficulty:8
ApproachRate:8.8
SliderMultiplier:1.6
SliderTickRate:1

[Events]
//Background and Video events
0,0,"wagamama.jpg",0,0
//Break Periods
//Storyboard Layer 0 (Background)
//Storyboard Layer 1 (Fail)
//Storyboard Layer 2 (Pass)
//Storyboard Layer 3 (Foreground)
//Storyboard Sound Samples

[TimingPoints]
1006,422.535211267606,4,2,1,50,1,0
12625,-100,4,2,1,60,0,0
14527,-83.3333333333333,4,2,1,70,0,0
28048,-111.111111111111,4,2,1,55,0,0
41569,-111.111111111111,4,2,1,65,0,0
46428,-111.111111111111,4,2,1,70,0,0
48329,-76.9230769230769,4,2,1,85,0,1
49069,-76.9230769230769,4,2,1,5,0,1
49175,-76.9230769230769,4,2,1,85,0,1
52449,-76.9230769230769,4,2,1,5,0,1
52555,-76.9230769230769,4,2,1,85,0,1
58470,-76.9230769230769,4,2,1,85,0,0
61851,-76.9230769230769,4,2,1,85,0,1
62590,-76.9230769230769,4,2,1,5,0,1
62696,-76.9230769230769,4,2,1,85,0,1
65970,-76.9230769230769,4,2,1,5,0,1
66076,-76.9230769230769,4,2,1,85,0,1
68611,-86.9565217391304,4,2,1,95,0,1
71991,-111.111111111111,4,2,1,65,0,0
85513,-166.666666666666,4,2,1,65,0,0

[Colours]
Combo1 : 97,97,97
Combo2 : 138,221,249
Combo3 : 158,158,158
Combo4 : 120,113,251

[HitObjects]
70,152,1006,6,0,L|62:322,1,160,10|10,0:2|0:2,0:0:0:0:
0,88,1851,2,0,P|74:58|155:106,1,160,10|10,0:2|0:2,0:0:0:0:
212,163,2484,2,0,P|257:171|302:159,1,80,2|8,1:2|0:2,0:0:0:0:
346,92,2907,1,2,0:2:0:0:
294,13,3118,2,0,P|264:47|252:92,1,80,10|2,0:2|0:2,0:0:0:0:
370,176,3541,2,0,L|460:175,1,80,10|2,0:2|1:2,0:0:0:0:
314,246,3963,2,0,L|222:246,1,80,8|2,0:2|1:2,0:0:0:0:
195,218,4280,1,0,1:2:0:0:
195,218,4386,6,0,L|187:48,1,160,10|10,0:2|0:2,0:0:0:0:
125,282,5231,2,0,P|199:312|280:264,1,160,10|10,0:2|0:2,0:0:0:0:
336,211,5865,2,0,P|383:203|426:214,1,80,2|8,1:2|0:2,0:0:0:0:
460,294,6287,2,0,P|413:302|370:291,1,80,2|8,0:2|0:2,0:0:0:0:
336,211,6710,1,2,0:2:0:0:
336,211,6921,2,0,L|336:117,1,80,8|0,0:2|1:2,0:0:0:0:
220,184,7344,2,0,L|213:277,1,80,8|0,0:2|0:0,0:0:0:0:
193,295,7660,1,0,1:2:0:0:
193,295,7766,6,0,B|135:294|135:294|96:306|96:306|15:305,1,160,10|10,0:2|0:2,0:0:0:0:
263,362,8611,2,0,P|293:288|245:207,1,160,10|10,0:2|0:2,0:0:0:0:
158,247,9245,2,0,P|113:255|68:243,1,80,2|8,1:2|0:2,0:0:0:0:
26,175,9668,1,2,0:2:0:0:
76,98,9879,2,0,P|105:132|117:177,1,80,10|0,0:2|0:0,0:0:0:0:
158,247,10301,1,10,0:2:0:0:
79,248,10513,1,2,1:2:0:0:
215,162,10724,2,0,P|255:155|293:164,1,80,8|0,0:2|0:0,0:0:0:0:
358,219,11041,1,0,1:2:0:0:
358,219,11146,6,0,L|356:309,1,80,10|0,0:2|0:0,0:0:0:0:
434,147,11569,2,0,L|436:57,1,80,8|0,0:2|0:0,0:0:0:0:
507,218,11991,2,0,L|505:308,1,80,8|0,0:2|1:2,0:0:0:0:
437,357,12308,1,0,1:2:0:0:
437,357,12414,1,8,0:2:0:0:
372,90,12625,1,8,0:2:0:0:
372,90,13048,5,2,1:2:0:0:
332,334,13259,1,2,1:2:0:0:
128,175,13470,1,2,1:2:0:0:
372,90,13682,2,0,P|421:82|461:91,1,80,2|8,1:2|0:2,0:0:0:0:
511,157,13998,1,2,1:2:0:0:
511,157,14104,2,0,L|513:253,1,80,2|8,1:2|0:2,0:0:0:0:
273,282,14527,5,6,1:2:0:0:
410,162,14738,1,0,1:2:0:0:
445,332,14949,1,8,0:2:0:0:
202,331,15160,2,0,P|189:275|207:221,1,95.9999970703126,2|0,0:2|1:2,0:0:0:0:
360,87,15583,1,0,1:2:0:0:
371,260,15794,1,8,0:2:0:0:
242,165,16006,2,0,P|190:156|138:178,1,95.9999970703126,2|0,0:2|1:2,0:0:0:0:
26,248,16428,1,0,1:2:0:0:
42,121,16639,1,8,0:2:0:0:
197,238,16851,2,0,P|249:247|301:225,1,95.9999970703126,2|0,0:2|1:2,0:0:0:0:
320,126,17273,1,0,1:2:0:0:
381,277,17484,2,0,L|386:337,1,47.9999985351563,10|2,0:2|0:2,0:0:0:0:
486,151,17696,2,0,L|491:91,1,47.9999985351563,2|2,0:2|0:2,0:0:0:0:
381,277,17907,5,0,1:2:0:0:
320,126,18118,1,0,1:2:0:0:
486,151,18329,1,8,0:2:0:0:
405,359,18540,2,0,P|347:354|301:320,1,95.9999970703126,2|0,0:2|1:2,0:0:0:0:
400,132,18963,1,0,1:2:0:0:
482,288,19175,1,8,0:2:0:0:
297,200,19386,2,0,P|247:189|191:210,1,95.9999970703126,2|0,0:2|1:2,0:0:0:0:
105,314,19808,1,0,1:2:0:0:
61,188,20020,1,8,0:2:0:0:
255,278,20231,2,0,P|305:289|361:268,1,95.9999970703126,2|0,0:2|1:2,0:0:0:0:
436,210,20653,1,0,1:2:0:0:
281,113,20865,2,0,P|273:85|275:58,1,47.9999985351563,10|2,0:2|0:2,0:0:0:0:
472,53,21076,2,0,P|480:79|480:101,1,47.9999985351563,2|2,0:2|0:2,0:0:0:0:
228,199,21287,5,0,1:2:0:0:
215,6,21498,1,0,1:2:0:0:
402,95,21709,1,8,0:2:0:0:
162,261,21920,2,0,P|141:207|151:151,1,95.9999970703126,2|0,0:2|1:2,0:0:0:0:
356,156,22343,1,0,1:2:0:0:
222,23,22554,1,8,0:2:0:0:
312,230,22766,2,0,P|364:239|416:217,1,95.9999970703126,2|0,0:2|1:2,0:0:0:0:
501,140,23188,1,0,1:2:0:0:
512,280,23399,1,8,0:2:0:0:
357,157,23611,2,0,P|305:148|253:170,1,95.9999970703126,2|0,0:2|1:2,0:0:0:0:
167,241,24034,1,0,1:2:0:0:
114,134,24245,2,0,L|109:74,1,47.9999985351563,10|2,0:2|0:2,0:0:0:0:
4,248,24456,2,0,L|-1:308,1,47.9999985351563,2|2,0:2|0:2,0:0:0:0:
234,269,24668,5,0,1:2:0:0:
234,269,24879,1,0,1:2:0:0:
115,177,25090,2,0,P|64:161|7:188,1,95.9999970703126,10|0,0:2|0:0,0:0:0:0:
62,313,25513,1,0,1:2:0:0:
221,147,25724,1,0,1:2:0:0:
320,343,25935,1,10,0:2:0:0:
224,111,26146,5,12,0:2:0:0:
474,253,26569,5,10,0:2:0:0:
306,99,26780,1,10,0:2:0:0:
512,51,26991,1,10,0:2:0:0:
474,253,27203,1,8,0:2:0:0:
306,99,27414,1,8,0:2:0:0:
268,69,27520,1,8,0:2:0:0:
220,64,27625,1,8,1:2:0:0:
174,78,27731,1,8,0:2:0:0:
139,112,27837,1,8,0:2:0:0:
129,158,27942,1,8,0:2:0:0:
143,204,28048,5,6,1:2:0:0:
314,326,28470,2,0,L|448:326,1,107.999996704102,10|8,0:2|0:2,0:0:0:0:
456,292,28893,2,0,L|525:293,1,35.9999989013672,2|0,1:2|0:0,0:0:0:0:
299,241,29104,2,0,L|244:241,1,35.9999989013672,0|0,1:2|0:0,0:0:0:0:
385,172,29315,1,10,0:2:0:0:
220,324,29527,1,2,1:2:0:0:
220,324,29949,1,2,1:2:0:0:
37,294,30160,6,0,L|37:208,1,71.9999978027344,10|0,0:2|0:2,0:0:0:0:
84,154,30477,1,8,0:2:0:0:
84,154,30583,1,2,1:2:0:0:
256,248,30794,1,2,1:2:0:0:
124,256,31006,1,8,0:2:0:0:
284,139,31217,1,10,0:2:0:0:
284,139,31322,1,8,0:2:0:0:
284,139,31428,5,6,1:2:0:0:
284,139,31851,2,0,P|296:90|286:58,1,71.9999978027344,10|2,0:2|0:2,0:0:0:0:
229,15,32168,1,8,0:2:0:0:
229,15,32273,2,0,L|180:15,1,35.9999989013672,2|0,1:2|0:0,0:0:0:0:
377,107,32484,2,0,L|426:107,1,35.9999989013672,0|0,1:2|0:0,0:0:0:0:
232,201,32696,1,10,0:2:0:0:
467,178,32907,6,0,P|498:124|466:40,1,143.999995605469,2|2,1:2|1:2,0:0:0:0:
350,204,33541,2,0,L|350:284,1,71.9999978027344,10|0,0:2|0:2,0:0:0:0:
291,335,33858,1,8,0:2:0:0:
291,335,33963,2,0,P|241:342|208:332,1,71.9999978027344,2|2,1:2|1:2,0:0:0:0:
168,170,34386,1,8,0:2:0:0:
110,332,34597,1,10,0:2:0:0:
110,332,34703,1,8,0:2:0:0:
110,332,34808,5,6,1:2:0:0:
43,195,35231,2,0,L|44:71,1,107.999996704102,10|8,0:2|0:2,0:0:0:0:
74,63,35653,2,0,L|74:18,1,35.9999989013672,2|0,1:2|0:0,0:0:0:0:
146,216,35865,2,0,L|146:261,1,35.9999989013672,0|0,1:2|0:0,0:0:0:0:
237,113,36076,1,10,0:2:0:0:
43,195,36287,1,2,1:2:0:0:
43,195,36710,1,2,1:2:0:0:
140,320,36921,6,0,L|223:320,1,71.9999978027344,10|2,0:2|0:2,0:0:0:0:
274,265,37238,1,8,0:2:0:0:
274,265,37344,1,2,1:2:0:0:
234,96,37555,1,2,1:2:0:0:
131,199,37766,1,8,0:2:0:0:
379,120,37977,1,10,0:2:0:0:
379,120,38083,1,8,0:2:0:0:
379,120,38189,5,6,1:2:0:0:
379,120,38611,2,0,P|428:114|464:124,1,71.9999978027344,8|2,0:2|0:2,0:0:0:0:
512,183,38928,1,8,0:2:0:0:
512,183,39034,2,0,L|511:263,1,71.9999978027344,0|0,1:2|1:0,0:0:0:0:
400,332,39456,1,8,0:2:0:0:
293,79,39668,1,14,0:2:0:0:
293,79,40090,5,10,0:2:0:0:
85,154,40301,1,10,0:2:0:0:
259,282,40513,1,10,0:2:0:0:
302,65,40724,1,10,0:2:0:0:
101,67,40935,2,0,L|37:68,1,35.9999989013672,10|8,0:2|0:2,0:0:0:0:
271,148,41146,2,0,L|335:147,1,35.9999989013672,2|8,1:2|0:2,0:0:0:0:
109,227,41358,2,0,L|50:229,1,35.9999989013672,10|8,0:2|0:2,0:0:0:0:
384,170,41569,6,0,L|470:168,1,71.9999978027344,6|0,1:2|0:0,0:0:0:0:
358,280,41991,1,8,0:2:0:0:
358,280,42203,1,2,1:2:0:0:
348,80,42414,2,0,L|345:-1,1,71.9999978027344,2|0,1:2|0:0,0:0:0:0:
461,92,42837,1,8,0:2:0:0:
461,92,43048,1,2,1:2:0:0:
188,40,43259,6,0,L|92:41,1,71.9999978027344,2|2,1:2|1:2,0:0:0:0:
273,150,43682,2,0,L|344:149,1,71.9999978027344,10|2,0:2|1:2,0:0:0:0:
188,221,44104,1,2,1:2:0:0:
189,60,44315,1,2,1:2:0:0:
68,285,44527,1,10,0:2:0:0:
74,136,44738,1,2,1:2:0:0:
174,327,44949,6,0,L|246:326,1,71.9999978027344,6|0,1:2|0:0,0:0:0:0:
362,248,45371,1,8,0:2:0:0:
362,248,45583,1,2,1:2:0:0:
155,170,45794,2,0,P|147:210|154:249,1,71.9999978027344,2|0,1:2|0:0,0:0:0:0:
281,113,46217,1,10,0:2:0:0:
423,316,46428,6,0,P|355:339|290:314,1,143.999995605469,14|10,0:2|0:2,0:0:0:0:
179,69,47062,1,10,1:2:0:0:
149,342,47273,1,10,1:2:0:0:
362,248,47484,1,10,1:2:0:0:
5,188,47696,1,10,1:2:0:0:
5,188,48118,1,2,0:2:0:0:
179,69,48329,6,0,L|292:68,1,103.999995239258,6|0,1:2|0:0,0:0:0:0:
436,175,48752,2,0,P|386:223|410:322,1,155.999992858887,10|0,0:2|0:0,0:0:0:0:
473,256,49175,1,2,1:2:0:0:
300,155,49386,2,0,L|187:156,1,103.999995239258,2|10,0:2|0:2,0:0:0:0:
19,12,49808,6,0,B|16:88|16:88|35:129|35:129|31:239,1,207.999990478516,6|2,0:2|0:2,0:0:0:0:
284,278,50442,1,10,0:2:0:0:
31,215,50653,1,2,0:2:0:0:
155,106,50865,1,2,1:2:0:0:
156,374,51076,1,2,0:2:0:0:
339,205,51287,1,8,0:2:0:0:
155,106,51498,2,0,L|94:105,1,51.999997619629,10|8,0:2|0:2,0:0:0:0:
260,60,51710,6,0,P|275:123|249:174,1,103.999995239258,6|0,1:2|0:0,0:0:0:0:
8,309,52132,2,0,P|56:259|155:283,1,155.999992858887,10|0,0:2|0:0,0:0:0:0:
94,350,52555,1,2,1:2:0:0:
20,142,52766,2,0,P|17:76|51:31,1,103.999995239258,2|8,0:2|0:2,0:0:0:0:
382,116,53189,6,0,B|318:140|272:98|272:98|233:82|174:107,1,207.999990478516,6|10,0:2|0:2,0:0:0:0:
342,47,53822,2,0,P|375:39|412:42,1,51.999997619629,10|8,0:2|0:2,0:0:0:0:
219,176,54033,2,0,P|186:184|149:181,1,51.999997619629,2|8,0:2|0:2,0:0:0:0:
180,22,54245,1,0,1:2:0:0:
180,22,54351,1,8,0:2:0:0:
180,22,54456,2,0,L|182:94,1,51.999997619629,0|8,1:2|0:2,0:0:0:0:
301,248,54668,1,10,0:2:0:0:
301,248,54774,1,8,0:2:0:0:
301,248,54879,2,0,L|310:179,1,51.999997619629,0|0,1:2|1:2,0:0:0:0:
392,38,55090,5,6,1:2:0:0:
406,234,55301,1,2,0:2:0:0:
252,79,55513,1,10,0:2:0:0:
242,301,55724,1,2,0:2:0:0:
512,159,55935,5,2,1:2:0:0:
314,171,56146,1,2,0:2:0:0:
463,292,56358,1,10,0:2:0:0:
242,301,56569,2,0,L|190:302,1,51.999997619629,2|0,0:2|0:0,0:0:0:0:
403,141,56780,5,2,1:2:0:0:
350,350,56991,1,2,0:2:0:0:
247,83,57203,1,10,0:2:0:0:
242,301,57414,1,2,0:2:0:0:
357,63,57625,1,2,1:2:0:0:
246,217,57837,1,2,0:2:0:0:
142,60,58048,2,0,P|85:51|32:66,1,103.999995239258,10|10,0:2|0:2,0:0:0:0:
1,157,58365,1,10,0:2:0:0:
1,157,58470,6,0,L|-1:269,1,103.999995239258,6|0,1:2|0:0,0:0:0:0:
188,151,58893,1,10,0:2:0:0:
40,61,59104,1,0,0:0:0:0:
142,242,59315,2,0,P|199:251|252:236,1,103.999995239258,6|0,1:2|0:0,0:0:0:0:
329,69,59738,1,10,0:2:0:0:
470,307,59949,5,12,0:2:0:0:
244,241,60160,2,0,L|181:240,1,51.999997619629,0|0,1:2|1:2,0:0:0:0:
384,176,60372,2,0,L|447:175,1,51.999997619629,0|0,1:2|1:2,0:0:0:0:
219,52,60583,1,10,0:2:0:0:
219,52,60689,2,0,P|204:108|226:167,1,103.999995239258,10|10,0:2|0:2,0:0:0:0:
301,105,61006,6,0,P|316:68|315:46,1,51.999997619629,10|8,0:2|0:3,0:0:0:0:
117,147,61217,2,0,P|120:172|132:195,1,51.999997619629,8|8,0:3|0:3,0:0:0:0:
305,195,61428,2,0,P|330:191|353:179,1,51.999997619629,4|4,0:3|0:3,0:0:0:0:
163,71,61639,2,0,P|140:58|114:55,1,51.999997619629,4|4,0:3|0:3,0:0:0:0:
21,219,61851,6,0,L|20:332,1,103.999995239258,6|0,1:2|0:0,0:0:0:0:
299,307,62274,2,0,P|251:257|152:281,1,155.999992858887,10|0,0:2|0:0,0:0:0:0:
212,347,62697,1,2,1:2:0:0:
318,207,62908,2,0,L|317:94,1,103.999995239258,2|10,0:2|0:2,0:0:0:0:
507,206,63329,6,0,P|417:244|305:194,1,207.999990478516,6|2,0:2|0:2,0:0:0:0:
507,119,63963,1,10,0:2:0:0:
423,340,64175,1,2,0:2:0:0:
256,143,64386,1,2,1:2:0:0:
507,206,64597,1,2,0:2:0:0:
270,275,64808,1,10,0:2:0:0:
406,70,65020,2,0,P|434:56|460:52,1,51.999997619629,10|8,0:2|0:2,0:0:0:0:
461,167,65231,6,0,P|413:185|364:173,1,103.999995239258,6|0,1:2|0:0,0:0:0:0:
169,57,65653,2,0,P|220:103|200:203,1,155.999992858887,10|0,0:2|0:0,0:0:0:0:
118,146,66076,1,2,1:2:0:0:
307,44,66287,2,0,P|369:26|421:51,1,103.999995239258,2|8,0:2|0:2,0:0:0:0:
135,245,66710,6,0,L|-5:250,1,103.999995239258,6|0,0:0|1:0,0:0:0:0:
290,150,67132,2,0,L|370:154,1,51.999997619629,10|0,0:2|0:0,0:0:0:0:
142,69,67344,1,10,0:2:0:0:
142,69,67449,1,8,0:2:0:0:
142,69,67555,2,0,L|146:132,1,51.999997619629,10|8,0:2|0:2,0:0:0:0:
251,314,67766,1,0,1:2:0:0:
251,314,67872,1,0,1:0:0:0:
251,314,67977,2,0,L|255:251,1,51.999997619629,0|8,1:2|0:2,0:0:0:0:
274,80,68189,1,10,0:2:0:0:
29,252,68400,1,0,1:2:0:0:
251,314,68611,6,0,B|305:332|356:310|330:303|385:279|439:300,1,184.000003509522,6|10,1:2|0:2,0:0:0:0:
512,384,69245,1,2,0:2:0:0:
393,155,69456,1,2,1:2:0:0:
116,305,69668,1,2,0:2:0:0:
164,34,69879,1,10,0:2:0:0:
337,361,70090,1,2,0:2:0:0:
45,177,70301,6,0,L|-27:182,1,46.0000008773804,2|2,1:2|0:2,0:0:0:0:
242,91,70513,2,0,L|314:96,1,46.0000008773804,8|8,0:2|0:2,0:0:0:0:
152,271,70724,1,8,0:2:0:0:
152,271,70829,1,8,0:2:0:0:
152,271,70935,2,0,L|148:214,1,46.0000008773804,8|8,0:2|0:2,0:0:0:0:
76,4,71146,1,0,1:2:0:0:
76,4,71251,1,8,0:3:0:0:
76,4,71357,2,0,L|72:61,1,46.0000008773804,8|8,0:3|0:3,0:0:0:0:
76,320,71569,1,4,0:3:0:0:
109,351,71675,1,4,0:3:0:0:
152,364,71780,1,10,0:2:0:0:
197,357,71886,1,10,0:2:0:0:
233,326,71991,6,0,P|241:278|232:237,1,71.9999978027344,6|0,1:2|0:0,0:0:0:0:
91,215,72414,1,8,0:2:0:0:
307,206,72625,1,0,1:2:0:0:
147,84,72837,2,0,P|139:132|148:173,1,71.9999978027344,2|0,1:2|0:0,0:0:0:0:
318,287,73259,1,8,0:2:0:0:
314,94,73470,1,2,1:2:0:0:
165,229,73682,5,2,1:2:0:0:
403,120,73893,1,2,1:2:0:0:
213,118,74104,1,10,0:2:0:0:
460,226,74315,2,0,L|523:226,1,35.9999989013672,2|0,1:2|0:0,0:0:0:0:
278,349,74527,1,2,1:2:0:0:
336,175,74738,1,2,1:2:0:0:
460,361,74949,1,10,0:2:0:0:
403,120,75160,1,2,1:2:0:0:
278,349,75372,6,0,P|230:357|189:348,1,71.9999978027344,6|0,1:2|0:0,0:0:0:0:
165,170,75795,1,8,0:2:0:0:
80,344,76006,1,0,1:2:0:0:
22,137,76218,2,0,P|70:129|111:138,1,71.9999978027344,2|0,1:2|0:0,0:0:0:0:
238,279,76639,1,8,0:2:0:0:
80,344,76851,1,2,1:2:0:0:
92,132,77062,5,2,1:2:0:0:
238,279,77273,1,2,1:2:0:0:
237,72,77484,1,10,0:2:0:0:
126,246,77696,1,2,1:2:0:0:
364,240,77907,2,0,P|390:207|357:112,1,143.999995605469,2|8,1:2|0:2,0:0:0:0:
239,177,78541,1,2,1:2:0:0:
424,300,78752,6,0,L|516:300,1,71.9999978027344,6|0,1:2|0:0,0:0:0:0:
351,355,79175,1,8,0:2:0:0:
454,220,79386,1,0,1:2:0:0:
285,175,79597,2,0,L|193:175,1,71.9999978027344,2|0,1:2|0:0,0:0:0:0:
359,121,80020,1,8,0:2:0:0:
251,257,80231,1,2,1:2:0:0:
152,114,80442,5,2,1:2:0:0:
153,322,80653,1,2,1:2:0:0:
1,145,80865,1,10,0:2:0:0:
283,146,81076,2,0,L|349:146,1,35.9999989013672,2|0,1:2|0:0,0:0:0:0:
85,70,81287,1,2,1:2:0:0:
79,281,81498,1,2,1:2:0:0:
283,146,81710,1,10,0:2:0:0:
274,350,81921,1,2,1:2:0:0:
445,80,82132,5,6,1:2:0:0:
445,80,82555,1,8,0:2:0:0:
319,146,82766,2,0,L|259:147,1,35.9999989013672,0|0,1:2|0:0,0:0:0:0:
472,227,82977,1,2,1:2:0:0:
472,227,83400,1,8,0:2:0:0:
305,305,83611,2,0,L|267:306,1,35.9999989013672,2|0,1:2|0:0,0:0:0:0:
503,344,83822,5,2,1:2:0:0:
193,277,84034,1,2,1:2:0:0:
330,211,84245,1,10,0:2:0:0:
142,162,84456,2,0,L|79:161,1,35.9999989013672,2|0,1:2|0:0,0:0:0:0:
318,91,84668,1,2,1:2:0:0:
409,258,84879,1,2,1:2:0:0:
407,48,85090,1,10,0:2:0:0:
330,211,85301,1,2,1:2:0:0:
259,362,85513,6,0,B|208:395|122:365|173:350|91:320|29:349,1,239.999992675781,6|0,1:2|0:0,0:0:0:0:
