osu file format v14

[General]
AudioFilename: audio.mp3
AudioLeadIn: 0
PreviewTime: -1
Countdown: 1
SampleSet: Soft
StackLeniency: 0.7
Mode: 0
LetterboxInBreaks: 0
WidescreenStoryboard: 0

[Editor]
DistanceSpacing: 1.7
BeatDivisor: 4
GridSize: 32
TimelineZoom: 1.4

[Metadata]
Title:Tonari Au(TV Size)
TitleUnicode:トナリアウ (TV Size)
Artist:THE ORAL CIGARETTES
ArtistUnicode:THE ORAL CIGARETTES
Creator:H i r o k i
Version:Insane
Source:サクラダリセット
Tags:Sakurada reset ed Celektus ohwow Icekalt
BeatmapID:1834131
BeatmapSetID:877142

[Difficulty]
HPDrainRate:6
CircleSize:4
OverallDifficulty:8
ApproachRate:9.3
SliderMultiplier:1.4
SliderTickRate:1

[Events]
//Background and Video events
0,0,"cropped-1920-1080-820739.jpg",0,0
//Break Periods
//Storyboard Layer 0 (Background)
//Storyboard Layer 1 (Fail)
//Storyboard Layer 2 (Pass)
//Storyboard Layer 3 (Foreground)
//Storyboard Sound Samples

[TimingPoints]
173,428.571428571429,4,2,0,100,1,0
1887,-133.333333333333,4,2,0,30,0,0
5101,-181.818181818181,4,2,0,30,0,0
6387,-133.333333333333,4,2,0,30,0,0
7887,-117.647058823529,4,2,0,30,0,0
8744,-100,4,2,0,30,0,0
11315,-83.3333333333333,4,2,0,30,0,0
15815,-100,4,2,0,30,0,0
29530,-133.333333333333,4,2,0,30,0,0
32744,-105.263157894737,4,2,0,30,0,0
33387,-133.333333333333,4,2,0,30,0,0
36173,-117.647058823529,4,2,0,30,0,0
49887,-100,4,2,0,30,0,0
56744,-76.9230769230769,4,2,0,50,0,0
73673,-100,4,2,0,50,0,0
73887,-76.9230769230769,4,2,0,50,0,0
80744,-66.6666666666667,4,2,0,50,0,0

[HitObjects]
161,158,1887,6,0,P|188:205|175:267,1,105.000004005432
103,220,2530,2,0,P|88:191|82:164,1,52.5000020027161
98,99,2958,2,0,P|107:66|106:45,1,52.5000020027161
231,109,3387,6,0,P|287:119|336:94,1,105.000004005432
401,68,4030,1,0,0:0:0:0:
421,143,4244,2,0,P|425:177|440:205,1,52.5000020027161
468,263,4673,2,0,P|482:294|483:319,1,52.5000020027161
368,238,5101,6,0,B|321:172|363:187|318:123,1,115.50000352478
304,57,5958,2,0,L|264:52,1,38.5000011749268
210,217,6387,6,0,P|206:185|192:155,1,52.5000020027161
109,151,6815,2,0,P|113:119|127:89,1,52.5000020027161
208,80,7244,2,0,P|204:48|190:18,1,52.5000020027161
208,80,7673,5,0,0:0:0:0:
272,196,7887,6,0,P|287:166|318:141,1,59.5000011348725
385,107,8315,1,0,0:0:0:0:
418,189,8530,1,0,0:0:0:0:
266,246,8744,6,0,P|249:208|221:184,1,70
182,262,9173,1,0,0:0:0:0:
150,111,9387,1,0,0:0:0:0:
110,241,9601,1,0,0:0:0:0:
230,127,9815,1,0,0:0:0:0:
41,186,10030,1,0,0:0:0:0:
224,298,10244,1,0,0:0:0:0:
146,164,10458,6,0,P|143:126|149:83,1,70
266,241,10887,2,0,P|281:284|285:320,1,70
144,380,11315,2,0,P|134:345|131:293,1,83.9999974365235
147,220,11637,1,0,0:0:0:0:
172,149,11744,1,0,0:0:0:0:
218,89,11851,1,0,0:0:0:0:
284,53,11958,1,0,0:0:0:0:
359,44,12065,1,0,0:0:0:0:
455,76,12173,6,0,P|453:133|456:185,1,83.9999974365235
453,159,12494,1,0,0:0:0:0:
369,146,12601,1,0,0:0:0:0:
369,146,12708,1,0,0:0:0:0:
369,146,12815,2,0,L|369:96,1,41.9999987182618
346,56,13030,1,0,0:0:0:0:
267,26,13244,1,0,0:0:0:0:
188,55,13458,2,0,P|141:88|128:130,2,83.9999974365235
130,110,14101,5,0,0:0:0:0:
262,59,14315,1,0,0:0:0:0:
228,204,14530,2,0,P|182:216|145:207,1,83.9999974365235
170,161,14958,1,0,0:0:0:0:
206,303,15173,1,0,0:0:0:0:
292,232,15387,2,0,L|253:267,1,41.9999987182618
149,348,15601,1,0,0:0:0:0:
363,156,15815,6,0,L|364:87,1,70
298,134,16244,2,0,P|332:138|363:156,2,70
242,153,16887,2,0,P|245:108|241:66,1,70
243,83,17208,1,0,0:0:0:0:
179,54,17315,1,0,0:0:0:0:
39,37,17530,1,0,0:0:0:0:
20,175,17744,1,0,0:0:0:0:
39,37,17958,2,0,L|84:43,2,35
28,91,18387,6,0,P|33:169|103:212,1,140
76,297,18923,1,0,0:0:0:0:
76,297,19030,2,0,L|104:224,1,70
140,202,19458,1,0,0:0:0:0:
191,154,19673,2,0,P|257:127|305:175,1,140
224,201,20315,5,0,0:0:0:0:
168,278,20530,2,0,L|144:312,2,35
224,201,20958,2,0,P|257:171|294:168,1,70
334,183,21387,2,0,L|376:213,1,35
417,274,21708,1,0,0:0:0:0:
417,274,21815,2,0,P|379:303|345:306,1,70
276,305,22244,1,0,0:0:0:0:
290,273,22351,1,0,0:0:0:0:
314,170,22458,6,0,P|313:204|304:238,1,70
276,305,22887,1,0,0:0:0:0:
171,297,23101,2,0,P|133:282|108:252,1,70
186,205,23530,2,0,L|161:230,1,35
99,153,23744,1,0,0:0:0:0:
99,153,23958,2,0,L|102:112,1,35
84,77,24173,5,0,0:0:0:0:
188,67,24387,2,0,P|231:64|269:99,1,70
302,140,24815,2,0,L|341:89,1,35
248,200,25137,1,0,0:0:0:0:
248,200,25244,2,0,P|222:232|250:321,1,140
285,235,25887,6,0,L|310:164,1,70
332,103,26315,1,0,0:0:0:0:
264,210,26530,2,0,P|251:172|218:145,1,70
130,146,26958,2,0,P|143:108|176:81,1,70
260,83,27387,2,0,P|247:45|214:18,1,70
236,128,27815,5,0,0:0:0:0:
244,180,27923,1,0,0:0:0:0:
271,224,28030,1,0,0:0:0:0:
320,248,28137,1,0,0:0:0:0:
372,250,28244,1,0,0:0:0:0:
418,226,28351,2,0,L|445:192,1,35
447,128,28673,6,0,P|428:123|414:115,1,35
373,82,28887,2,0,P|358:91|338:96,1,35
288,99,29101,1,0,0:0:0:0:
235,93,29208,1,0,0:0:0:0:
185,75,29315,1,0,0:0:0:0:
85,54,29530,6,0,P|58:88|39:99,1,52.5000020027161
101,152,29958,2,0,P|81:170|61:200,1,52.5000020027161
145,234,30387,2,0,P|118:268|99:279,1,52.5000020027161
235,270,30815,2,0,P|208:304|201:327,1,52.5000020027161
367,249,31244,6,0,P|347:267|327:297,1,52.5000020027161
346,171,31673,2,0,P|300:183|272:179,1,52.5000020027161
281,98,32101,2,0,P|241:102|217:111,1,52.5000020027161
190,28,32530,2,0,L|146:39,1,26.2500010013581
78,137,32744,6,0,P|117:137|154:150,1,66.4999982242585
184,181,33173,1,0,0:0:0:0:
86,254,33387,2,0,P|131:261|148:271,1,52.5000020027161
157,341,33815,2,0,P|202:334|219:324,1,52.5000020027161
231,255,34244,2,0,P|276:262|293:272,1,52.5000020027161
318,194,34673,6,0,P|363:187|380:177,1,52.5000020027161
378,106,35101,2,0,P|423:113|440:123,1,52.5000020027161
459,188,35530,2,0,P|504:181|521:171,2,52.5000020027161
335,257,36173,6,0,P|299:237|271:233,1,59.5000011348725
192,239,36601,1,0,0:0:0:0:
229,157,36815,1,0,0:0:0:0:
184,79,37030,6,0,P|148:99|120:103,1,59.5000011348725
41,97,37458,1,0,0:0:0:0:
78,179,37672,1,0,0:0:0:0:
78,303,37887,6,0,P|139:293|197:307,1,119.000002269745
36,375,38530,2,0,P|2:313|6:257,1,119.000002269745
90,298,39173,2,0,P|112:262|138:244,1,59.5000011348725
222,183,39601,6,0,P|245:159|258:129,1,59.5000011348725
136,202,40030,1,0,0:0:0:0:
154,47,40244,1,0,0:0:0:0:
180,140,40458,1,0,0:0:0:0:
232,13,40673,1,0,0:0:0:0:
180,140,40887,1,0,0:0:0:0:
305,99,41101,1,0,0:0:0:0:
269,258,41315,6,0,L|234:273,2,29.7500005674362
262,347,41744,2,0,L|227:362,2,29.7500005674362
344,311,42173,1,0,0:0:0:0:
259,227,42387,1,0,0:0:0:0:
376,211,42601,1,0,0:0:0:0:
259,227,42815,1,0,0:0:0:0:
394,110,43030,6,0,P|354:116|323:113,1,59.5000011348725
201,68,43458,2,0,P|241:62|272:65,1,59.5000011348725
294,84,43780,1,0,0:0:0:0:
404,112,43887,6,0,P|410:152|407:183,1,59.5000011348725
362,305,44315,2,0,P|356:265|359:234,1,59.5000011348725
378,212,44637,1,0,0:0:0:0:
298,108,44744,6,0,P|296:73|214:30,1,119.000002269745
221,162,45387,2,0,L|222:99,1,59.5000011348725
224,58,45708,1,0,0:0:0:0:
335,165,46030,1,0,0:0:0:0:
335,130,46137,1,0,0:0:0:0:
334,85,46244,2,0,L|334:51,1,29.7500005674362
204,120,46458,6,0,P|192:153|192:186,1,59.5000011348725
207,265,46887,1,0,0:0:0:0:
272,204,47101,1,0,0:0:0:0:
199,114,47315,6,0,P|196:75|171:29,1,89.2500017023087
154,191,47958,1,0,0:0:0:0:
285,261,48173,6,0,P|286:226|279:198,1,59.5000011348725
191,241,48601,1,0,0:0:0:0:
219,96,48815,2,0,L|219:156,2,59.5000011348725
179,77,49351,1,0,0:0:0:0:
180,32,49458,1,0,0:0:0:0:
70,80,49673,1,0,0:0:0:0:
70,35,49780,1,0,0:0:0:0:
134,170,49887,6,0,P|134:130|147:85,1,70
179,77,50208,1,0,0:0:0:0:
226,98,50315,1,0,0:0:0:0:
147,281,50530,2,0,P|178:244|205:233,1,70
306,255,50958,1,0,0:0:0:0:
353,110,51173,2,0,P|388:118|417:136,1,70
279,179,51601,6,0,P|244:171|215:153,1,70
223,57,52030,1,0,0:0:0:0:
177,174,52244,1,0,0:0:0:0:
223,57,52458,2,0,P|175:59|150:73,2,70
358,95,53101,1,0,0:0:0:0:
202,172,53315,5,0,0:0:0:0:
202,101,53423,1,0,0:0:0:0:
203,240,53637,1,0,0:0:0:0:
202,101,53851,1,0,0:0:0:0:
203,240,54065,1,0,0:0:0:0:
202,172,54173,5,0,0:0:0:0:
203,308,54494,6,0,L|311:308,1,105
460,282,55030,1,0,0:0:0:0:
445,220,55137,1,0,0:0:0:0:
421,161,55244,1,0,0:0:0:0:
391,105,55351,1,0,0:0:0:0:
344,62,55458,1,0,0:0:0:0:
317,216,56744,6,0,P|346:174|392:157,1,90.9999958343508
286,129,57065,1,0,0:0:0:0:
286,129,57173,2,0,P|284:83|256:42,1,90.9999958343508
189,15,57494,1,0,0:0:0:0:
118,45,57601,1,0,0:0:0:0:
72,107,57708,1,0,0:0:0:0:
67,184,57815,2,0,L|67:243,1,45.4999979171754
176,294,58030,2,0,P|225:293|269:253,1,90.9999958343508
255,192,58351,1,0,0:0:0:0:
246,115,58458,6,0,L|246:213,1,90.9999958343508
250,292,58780,1,0,0:0:0:0:
250,292,58887,2,0,P|298:274|316:213,2,90.9999958343508
186,305,59423,1,0,0:0:0:0:
159,291,59530,2,0,L|58:291,1,90.9999958343508
22,228,59851,1,0,0:0:0:0:
7,152,59958,1,0,0:0:0:0:
50,88,60065,1,0,0:0:0:0:
111,139,60173,6,0,L|210:147,1,90.9999958343508
278,157,60494,1,0,0:0:0:0:
353,174,60601,2,0,P|322:216|265:236,1,90.9999958343508
330,277,60923,1,0,0:0:0:0:
330,277,61030,1,0,0:0:0:0:
330,277,61137,1,0,0:0:0:0:
330,277,61244,2,0,L|330:175,1,90.9999958343508
347,147,61565,1,0,0:0:0:0:
435,127,61673,6,0,L|448:246,1,90.9999958343508
417,253,61994,2,0,L|383:208,1,45.4999979171754
336,160,62208,1,0,0:0:0:0:
263,133,62315,1,0,0:0:0:0:
185,140,62423,1,0,0:0:0:0:
129,193,62530,2,0,L|95:229,1,45.4999979171754
21,303,62744,2,0,L|21:191,2,90.9999958343508
120,310,63280,1,0,0:0:0:0:
196,322,63387,1,0,0:0:0:0:
272,312,63494,1,0,0:0:0:0:
329,184,63601,6,0,P|347:226|336:270,1,90.9999958343508
274,231,63923,1,0,0:0:0:0:
249,167,64030,1,0,0:0:0:0:
266,101,64137,2,0,L|266:56,2,45.4999979171754
249,167,64458,2,0,L|136:182,1,90.9999958343508
128,135,64780,2,0,L|75:120,1,45.4999979171754
53,166,64994,2,0,L|9:178,1,45.4999979171754
1,229,65208,1,0,0:0:0:0:
74,313,65315,6,0,P|61:263|73:218,1,90.9999958343508
118,165,65637,1,0,0:0:0:0:
192,144,65744,1,0,0:0:0:0:
265,168,65851,1,0,0:0:0:0:
316,227,65958,2,0,L|324:128,1,90.9999958343508
302,81,66280,1,0,0:0:0:0:
415,9,66387,2,0,L|420:68,1,45.4999979171754
368,112,66601,2,0,L|362:174,1,45.4999979171754
424,205,66815,2,0,L|428:251,1,45.4999979171754
293,297,67030,6,0,P|346:316|387:302,1,90.9999958343508
342,239,67351,1,0,0:0:0:0:
342,239,67458,1,0,0:0:0:0:
342,239,67565,1,0,0:0:0:0:
342,239,67673,2,0,L|326:148,1,90.9999958343508
259,9,68101,1,0,0:0:0:0:
202,152,68315,1,0,0:0:0:0:
259,9,68530,1,0,0:0:0:0:
114,63,68744,5,0,0:0:0:0:
96,128,68851,1,0,0:0:0:0:
98,196,68958,1,0,0:0:0:0:
118,260,69065,1,0,0:0:0:0:
170,288,69173,5,0,0:0:0:0:
201,237,69280,1,0,0:0:0:0:
210,178,69387,1,0,0:0:0:0:
201,119,69494,1,0,0:0:0:0:
250,113,69601,5,0,0:0:0:0:
289,144,69708,1,0,0:0:0:0:
309,189,69815,1,0,0:0:0:0:
316,239,69923,1,0,0:0:0:0:
310,288,70030,2,0,L|228:313,2,45.4999979171754
242,324,70351,1,0,0:0:0:0:
175,243,70458,6,0,L|193:332,1,90.9999958343508
144,341,70780,2,0,L|121:297,1,45.4999979171754
97,227,70994,1,0,0:0:0:0:
95,149,71101,1,0,0:0:0:0:
138,85,71208,2,0,L|181:52,2,45.4999979171754
176,152,71530,2,0,P|208:193|265:198,1,90.9999958343508
234,80,71851,1,0,0:0:0:0:
261,48,71958,2,0,L|269:147,1,90.9999958343508
268,138,72280,1,0,0:0:0:0:
275,293,72387,6,0,L|287:243,1,45.4999979171754
243,184,72601,2,0,L|232:130,1,45.4999979171754
289,85,72815,2,0,L|296:32,1,45.4999979171754
366,8,73030,1,0,0:0:0:0:
380,83,73137,1,0,0:0:0:0:
390,159,73244,2,0,P|408:219|446:245,1,90.9999958343508
272,234,73673,2,0,L|273:191,1,35
280,71,73887,6,0,P|255:124|257:160,1,90.9999958343508
176,158,74208,2,0,L|161:101,1,45.4999979171754
104,64,74423,2,0,L|86:121,2,45.4999979171754
178,42,74744,2,0,P|241:37|281:59,1,90.9999958343508
331,87,75065,1,0,0:0:0:0:
379,147,75173,1,0,0:0:0:0:
406,219,75280,1,0,0:0:0:0:
394,295,75387,2,0,L|378:233,1,45.4999979171754
235,158,75601,6,0,P|279:168|316:195,1,90.9999958343508
244,244,75923,2,0,L|189:256,1,45.4999979171754
146,321,76137,2,0,L|88:314,1,45.4999979171754
41,253,76351,1,0,0:0:0:0:
106,197,76458,2,0,L|107:91,1,90.9999958343508
241,28,76887,1,0,0:0:0:0:
304,72,76994,1,0,0:0:0:0:
348,135,77101,1,0,0:0:0:0:
367,209,77208,1,0,0:0:0:0:
260,340,77315,6,0,P|307:326|334:288,1,90.9999958343508
250,261,77637,1,0,0:0:0:0:
187,196,77744,2,0,L|252:263,1,90.9999958343508
166,283,78065,2,0,L|110:274,1,45.4999979171754
91,193,78280,2,0,L|37:175,1,45.4999979171754
12,247,78494,1,0,0:0:0:0:
53,312,78601,2,0,P|109:353|145:353,1,90.9999958343508
295,309,79030,6,0,L|204:337,1,90.9999958343508
156,266,79351,2,0,L|191:227,1,45.4999979171754
272,232,79565,2,0,L|248:192,1,45.4999979171754
176,143,79780,2,0,L|204:98,2,45.4999979171754
110,199,80101,2,0,L|85:152,2,45.4999979171754
165,253,80423,1,0,0:0:0:0:
239,274,80530,1,0,0:0:0:0:
316,274,80637,1,0,0:0:0:0:
391,200,80744,6,0,L|375:83,1,105.000004005432
272,85,81065,1,0,0:0:0:0:
192,154,81173,1,0,0:0:0:0:
147,358,81387,1,0,0:0:0:0:
27,185,81601,6,0,L|34:63,1,105.000004005432
134,50,81923,1,0,0:0:0:0:
233,82,82030,1,0,0:0:0:0:
368,242,82244,1,0,0:0:0:0:
159,261,82458,5,0,0:0:0:0:
155,245,82565,1,0,0:0:0:0:
147,225,82673,1,0,0:0:0:0:
139,199,82780,1,0,0:0:0:0:
130,168,82887,1,0,0:0:0:0:
120,132,82994,1,0,0:0:0:0:
109,96,83101,1,0,0:0:0:0:
97,55,83208,1,0,0:0:0:0:
147,41,83315,5,0,0:0:0:0:
204,51,83423,1,0,0:0:0:0:
265,64,83530,1,0,0:0:0:0:
332,77,83637,1,0,0:0:0:0:
398,92,83744,1,0,0:0:0:0:
469,108,83851,1,0,0:0:0:0:
469,108,83958,2,0,L|437:149,2,52.5000020027161
301,78,84887,5,0,0:0:0:0:
223,228,85601,5,0,0:0:0:0:
120,136,86985,2,0,L|128:116,1,13.125000500679
144,83,87065,1,0,0:0:0:0:
165,43,87119,1,0,0:0:0:0:
