osu file format v14

[General]
AudioFilename: audio.mp3
AudioLeadIn: 0
PreviewTime: 245429
Countdown: 0
SampleSet: Soft
StackLeniency: 0.7
Mode: 0
LetterboxInBreaks: 0
WidescreenStoryboard: 1

[Editor]
Bookmarks: 12476,400017,532262
DistanceSpacing: 0.5
BeatDivisor: 3
GridSize: 32
TimelineZoom: 2.899999

[Metadata]
Title:Songs Compilation
TitleUnicode:Songs Compilation
Artist:THE ORAL CIGARETTES
ArtistUnicode:THE ORAL CIGARETTES
Creator:Wezeh
Version:Flower
Source:
Tags:Black Memory ReI 5150 Susshoku Kyouran Hey Kids Noragami Aragoto Flower Get back
BeatmapID:2014433
BeatmapSetID:946218

[Difficulty]
HPDrainRate:5
CircleSize:4
OverallDifficulty:9
ApproachRate:9.5
SliderMultiplier:1.8
SliderTickRate:1

[Events]
//Background and Video events
0,0,"Konachan-971.jpg",0,0
//Break Periods
2,142208,153454
2,199022,203191
2,236883,245545
2,297285,303725
2,369654,376083
2,443401,448878
2,495696,504627
2,543901,548566
//Storyboard Layer 0 (Background)
//Storyboard Layer 1 (Fail)
//Storyboard Layer 2 (Pass)
//Storyboard Layer 3 (Foreground)
//Storyboard Layer 4 (Overlay)
//Storyboard Sound Samples

[TimingPoints]
133,312.5,4,2,1,60,1,0
9976,-80,4,2,1,60,0,0
30133,-111.111111111111,4,2,1,50,0,0
58883,-111.111111111111,4,2,1,50,0,0
59508,-111.111111111111,4,2,1,60,0,0
60133,-74.0740740740741,4,2,1,60,0,1
90133,-105.263157894737,4,2,1,50,0,0
100133,-181.818181818181,4,2,1,50,0,0
101383,-222.222222222221,4,2,1,50,0,0
102633,-80,4,2,1,50,0,0
110133,-133.333333333333,4,2,1,50,0,0
115133,-74.0740740740741,4,2,1,60,0,1
134820,-100,4,2,1,80,0,1
135133,-100,4,2,1,50,0,0
140133,-212.765957446809,4,2,1,50,0,0
144508,-212.765957446809,4,2,1,40,0,0
144820,-212.765957446809,4,2,1,30,0,0
144976,-212.765957446809,4,2,1,20,0,0
145133,-212.765957446809,4,2,1,20,0,0
148979,312.5,4,2,1,20,1,0
149291,-133.333333333333,4,2,1,20,0,0
153900,-74.0740740740741,4,2,1,80,0,0
154291,-74.0740740740741,4,2,2,80,0,0
178666,-133.333333333333,4,2,2,80,0,0
178979,-86.9565217391304,4,2,2,80,0,0
203550,329.67032967033,4,2,3,40,1,0
203716,329.67032967033,4,2,3,70,1,0
203716,-74.0740740740741,4,2,3,70,0,0
204540,-74.0740740740741,4,2,3,80,0,0
232726,-100,4,2,3,80,0,0
243883,312.5,4,2,4,80,1,0
246070,312.5,4,2,4,80,1,0
246070,-76.9230769230769,4,2,4,80,0,0
253570,-100,4,2,1,80,0,0
256070,-76.9230769230769,4,2,1,80,0,0
280445,-100,4,2,1,80,0,0
297007,-100,4,2,1,80,0,0
297113,312.5,4,2,1,40,1,0
297113,-285.714285714284,4,2,1,40,0,0
297161,-285.714285714284,4,2,1,80,0,0
297659,-285.714285714284,4,2,1,5,0,0
304250,306.122448979592,4,2,1,80,1,0
304250,-133.333333333333,4,2,1,80,0,0
304556,-100,4,2,3,80,0,0
310372,-90.9090909090909,4,2,3,80,0,0
312821,-133.333333333333,4,2,3,80,0,0
314045,-74.0740740740741,4,2,3,80,0,0
323535,-133.333333333333,4,2,3,80,0,0
323841,-66.6666666666667,4,2,3,80,0,0
342362,-100,4,2,3,80,0,0
343433,-100,4,2,3,80,0,0
344964,-83.3333333333333,4,2,3,80,0,0
345882,-100,4,2,3,80,0,0
347566,-100,4,2,3,80,0,0
369301,-133.333333333333,4,2,3,80,0,0
371993,329.67032967033,4,2,3,80,1,0
377267,-74.0740740740741,4,2,3,80,0,0
421113,-133.333333333333,4,2,3,80,0,0
422102,-100,4,2,3,60,0,0
442872,-100,4,2,3,60,0,0
443201,-100,4,2,3,40,0,0
449403,312.5,4,2,3,60,1,0
449403,-100,4,2,3,60,0,0
455965,-76.9230769230769,4,2,3,60,0,0
476903,-133.333333333333,4,2,3,80,0,0
486903,-76.9230769230769,4,2,3,80,0,0
497411,322.58064516129,4,2,5,80,1,0
505152,-76.9230769230769,4,2,5,80,0,0
533540,-83.3333333333333,4,2,5,80,0,0
548056,422.535211267606,4,2,6,80,1,0
548458,422.535211267606,4,2,6,80,1,0
550148,-50,4,2,6,80,0,0
563669,-100,4,2,6,80,0,0
565359,-66.6666666666667,4,2,6,80,0,0
565465,-66.6666666666667,4,2,6,80,0,0
565570,-66.6666666666667,4,2,6,80,0,0
565676,-66.6666666666667,4,2,6,80,0,0
565781,-66.6666666666667,4,2,6,80,0,0
565887,-66.6666666666667,4,2,6,80,0,0
565993,-66.6666666666667,4,2,6,80,0,0
566098,-66.6666666666667,4,2,6,80,0,0
566204,-66.6666666666667,4,2,6,80,0,0
577190,-50,4,2,6,80,0,0
590711,-133.333333333333,4,2,6,80,0,0

[Colours]
Combo1 : 187,238,237
Combo2 : 240,183,155
Combo3 : 129,139,211
Combo4 : 239,157,97
Combo5 : 182,162,234
Combo6 : 188,122,122
Combo7 : 197,198,207
Combo8 : 244,157,142

[HitObjects]
211,114,133,5,6,1:2:0:0:
241,208,289,1,2,1:2:0:0:
317,145,445,1,8,0:2:0:0:
100,187,601,2,0,L|136:-16,1,180,6|2,1:2|1:2,0:0:0:0:
0,181,1070,2,0,P|7:230|49:282,1,90,10|0,0:2|0:2,0:0:0:0:
91,333,1383,1,0,1:2:0:0:
91,333,1539,1,0,1:2:0:0:
100,187,1695,5,8,0:2:0:0:
159,264,1851,1,8,0:2:0:0:
199,154,2008,1,0,1:2:0:0:
199,154,2164,1,0,1:2:0:0:
190,8,2320,2,0,P|135:69|93:79,1,90,8|0,0:2|0:2,0:0:0:0:
34,101,2633,5,6,1:2:0:0:
199,154,2789,1,2,1:2:0:0:
100,187,2945,1,8,0:2:0:0:
270,64,3101,2,0,B|341:70|341:70|365:98|365:98|457:102,1,180,6|2,1:2|1:2,0:0:0:0:
367,269,3570,2,0,P|336:212|337:157,1,90,10|0,0:2|0:2,0:0:0:0:
456,310,3883,1,0,1:2:0:0:
456,310,4039,1,0,1:2:0:0:
315,351,4195,5,8,0:2:0:0:
367,269,4351,1,8,0:2:0:0:
250,269,4508,1,0,1:2:0:0:
250,269,4664,1,0,1:2:0:0:
116,328,4820,2,0,P|192:358|215:394,1,90,8|0,0:2|0:2,0:0:0:0:
20,197,5133,5,6,1:2:0:0:
112,239,5289,1,2,1:2:0:0:
20,291,5445,1,8,0:2:0:0:
112,142,5601,2,0,B|171:133|171:133|221:163|221:163|321:149,1,180,6|2,1:2|1:2,0:0:0:0:
144,46,6070,2,0,L|33:63,1,90,10|0,0:2|0:2,0:0:0:0:
112,239,6383,5,0,1:2:0:0:
112,239,6539,1,0,1:2:0:0:
283,157,6695,1,8,0:2:0:0:
112,142,6851,1,8,0:2:0:0:
229,293,7008,5,8,1:2:0:0:
229,293,7086,1,8,0:2:0:0:
229,293,7164,1,8,0:2:0:0:
229,293,7242,1,8,0:2:0:0:
229,293,7320,2,0,B|301:284|301:284|327:307|327:307|417:301,1,180,12|0,1:2|1:2,0:0:0:0:
406,204,7789,6,0,L|372:165,1,45,10|0,0:2|0:0,0:0:0:0:
379,83,7945,2,0,P|296:119|282:161,1,135,10|0,0:2|0:0,0:0:0:0:
258,259,8258,6,0,L|224:298,1,45,10|0,0:2|0:0,0:0:0:0:
231,380,8414,2,0,P|148:343|134:301,1,135,10|0,0:2|0:0,0:0:0:0:
116,217,8726,2,0,P|119:170|-4:108,1,180,14|2,0:2|1:2,0:0:0:0:
0,209,9195,2,0,L|9:324,1,90,10|0,0:2|1:2,0:0:0:0:
134,306,9508,5,8,1:2:0:0:
178,300,9586,1,8,0:2:0:0:
223,295,9664,1,8,0:2:0:0:
268,289,9742,1,8,0:2:0:0:
312,284,9820,2,0,L|301:222,1,45,8|8,1:2|0:2,0:0:0:0:
288,101,9976,2,0,B|412:89|351:181|501:173,1,225,6|0,1:2|1:2,0:0:0:0:
304,240,10445,2,0,L|163:251,1,112.5,8|0,0:2|1:2,0:0:0:0:
80,91,10758,2,0,L|192:99,1,112.5,8|0,0:2|1:2,0:0:0:0:
304,241,11070,1,8,0:2:0:0:
3,24,11226,6,0,B|-53:134|61:134|-12:265,1,225,6|0,1:2|1:2,0:0:0:0:
140,372,11695,2,0,P|122:313|66:253,1,112.5,8|0,0:2|1:2,0:0:0:0:
192,99,12008,2,0,P|159:144|143:198,1,112.5,8|0,0:2|1:2,0:0:0:0:
91,273,12320,1,8,0:2:0:0:
258,193,12476,2,0,B|372:161|364:275|491:223,1,225,6|0,1:2|1:2,0:0:0:0:
230,358,12945,6,0,P|277:322|297:271,1,112.5,8|0,0:2|1:2,0:0:0:0:
496,62,13258,2,0,P|449:98|429:149,1,112.5,8|0,0:2|1:2,0:0:0:0:
399,321,13570,1,8,0:2:0:0:
257,98,13726,2,0,B|107:91|200:203|18:165,1,225,6|0,1:2|1:2,0:0:0:0:
333,25,14195,2,0,P|356:105|236:189,1,225,8|8,0:2|0:2,0:0:0:0:
151,56,14664,5,0,1:2:0:0:
257,98,14820,1,8,0:2:0:0:
192,238,14976,2,0,P|109:266|80:289,1,112.5,6|0,1:2|0:0,0:0:0:0:
22,360,15289,1,0,1:2:0:0:
259,384,15445,2,0,P|288:324|273:237,1,112.5,8|0,0:2|1:2,0:0:0:0:
151,56,15758,2,0,P|122:116|137:203,1,112.5,8|0,0:2|1:2,0:0:0:0:
192,238,16070,1,8,0:2:0:0:
396,17,16226,6,0,P|323:22|244:141,1,225,6|0,1:2|1:2,0:0:0:0:
288,279,16695,2,0,P|238:239|177:245,1,112.5,8|0,0:2|1:2,0:0:0:0:
127,384,17008,2,0,P|168:335|229:329,1,112.5,8|0,0:2|1:2,0:0:0:0:
289,280,17320,1,8,0:2:0:0:
46,69,17476,6,0,B|43:150|43:150|75:187|75:187|76:305,1,225,6|0,1:2|1:2,0:0:0:0:
261,79,17945,2,0,P|210:105|134:103,1,112.5,8|0,0:2|1:2,0:0:0:0:
300,174,18258,2,0,P|351:200|427:198,1,112.5,8|0,0:2|1:2,0:0:0:0:
500,212,18570,1,8,0:2:0:0:
289,280,18726,6,0,B|182:262|191:378|72:366,1,225,6|0,1:2|1:2,0:0:0:0:
192,191,19195,2,0,P|258:169|325:184,1,112.5,8|0,0:2|0:0,0:0:0:0:
289,280,19508,1,8,3:2:0:0:
192,191,19664,1,8,3:2:0:0:
255,376,19820,1,8,3:2:0:0:
301,57,19976,6,0,P|373:71|391:223,1,225,14|0,1:2|1:2,0:0:0:0:
206,68,20445,2,0,P|139:79|80:55,1,112.5,8|0,0:2|1:2,0:0:0:0:
190,193,20758,2,0,P|257:182|316:206,1,112.5,8|0,0:2|1:2,0:0:0:0:
371,264,21070,1,8,0:2:0:0:
85,290,21226,6,0,L|98:52,1,225,6|0,1:2|1:2,0:0:0:0:
208,288,21695,2,0,P|200:342|163:384,1,112.5,8|0,0:2|1:2,0:0:0:0:
190,193,22008,2,0,P|257:182|316:206,1,112.5,8|0,0:2|1:2,0:0:0:0:
379,272,22320,1,8,0:2:0:0:
313,50,22476,6,0,B|197:0|203:115|64:52,1,225,6|0,1:2|1:2,0:0:0:0:
298,194,22945,2,0,P|361:157|413:91,1,112.5,8|0,0:2|1:2,0:0:0:0:
170,249,23258,2,0,P|233:286|285:352,1,112.5,8|0,0:2|1:2,0:0:0:0:
354,369,23570,1,8,0:2:0:0:
78,303,23726,6,0,B|30:189|133:186|61:70,1,225,6|0,1:2|1:2,0:0:0:0:
170,249,24195,2,0,P|194:327|309:344,1,168.75,10|0,0:2|0:0,0:0:0:0:
344,300,24508,1,8,1:2:0:0:
352,285,24586,1,8,0:2:0:0:
362,272,24664,1,8,0:2:0:0:
374,259,24742,1,8,0:2:0:0:
387,249,24820,1,10,1:2:0:0:
401,239,24898,1,8,0:2:0:0:
416,232,24976,1,8,0:2:0:0:
432,226,25054,1,8,0:2:0:0:
448,222,25133,2,0,B|389:109|515:110|418:0,1,225,14|8,0:2|0:2,0:0:0:0:
232,78,25601,5,10,0:2:0:0:
272,166,25758,1,8,0:2:0:0:
169,140,25914,5,8,0:2:0:0:
349,87,26070,1,10,0:2:0:0:
203,246,26226,5,8,0:2:0:0:
272,166,26383,1,10,0:2:0:0:
307,278,26539,5,8,0:2:0:0:
169,140,26695,1,8,0:2:0:0:
160,341,26851,1,10,0:2:0:0:
272,166,27008,5,8,0:2:0:0:
65,209,27164,1,8,0:2:0:0:
254,362,27320,1,10,0:2:0:0:
59,93,27476,1,8,0:2:0:0:
160,341,27633,5,14,0:2:0:0:
233,44,27789,1,0,1:2:0:0:
350,287,27945,5,0,1:2:0:0:
142,154,28101,1,14,0:2:0:0:
368,68,28258,5,0,1:2:0:0:
215,260,28414,1,0,1:2:0:0:
408,296,28570,5,14,0:2:0:0:
228,360,28726,1,0,1:2:0:0:
321,163,28883,2,0,P|248:146|210:105,1,112.5,2|0,1:2|1:2,0:0:0:0:
368,68,29195,1,8,0:2:0:0:
438,185,29351,1,2,0:2:0:0:
219,287,29508,6,0,L|229:349,3,56.25,8|8|8|8,1:2|0:2|0:2|0:2,0:0:0:0:
123,269,29820,6,0,L|113:331,3,56.25,10|8|8|8,1:2|0:2|0:2|0:2,0:0:0:0:
113,163,30133,6,0,P|170:177|226:172,1,80.9999975280763,6|0,1:2|0:2,0:0:0:0:
174,78,30445,1,8,0:2:0:0:
18,179,30601,2,0,P|47:251|123:270,1,161.999995056153,2|0,1:2|1:2,0:0:0:0:
285,243,31070,2,0,P|249:259|210:304,1,80.9999975280763,10|0,0:2|0:2,0:0:0:0:
307,340,31383,6,0,P|354:333|412:351,1,80.9999975280763,2|0,1:2|1:2,0:0:0:0:
475,356,31695,1,8,0:2:0:0:
343,129,31851,2,0,P|290:148|288:246,1,161.999995056153,2|0,1:2|1:2,0:0:0:0:
438,152,32320,2,0,P|436:103|411:61,1,80.9999975280763,10|0,0:2|0:2,0:0:0:0:
228,68,32633,5,2,1:2:0:0:
343,129,32789,1,0,1:2:0:0:
331,7,32945,1,8,0:2:0:0:
138,199,33101,2,0,B|178:114|92:116|145:8,1,161.999995056153,2|0,1:2|1:2,0:0:0:0:
62,158,33570,2,0,P|25:179|-12:226,1,80.9999975280763,10|0,0:2|0:2,0:0:0:0:
161,311,33883,5,2,1:2:0:0:
65,272,34039,1,0,1:2:0:0:
68,370,34195,1,8,0:2:0:0:
138,199,34351,2,0,P|189:191|293:259,1,161.999995056153,2|0,1:2|1:2,0:0:0:0:
377,295,34820,2,0,P|383:217|367:191,1,80.9999975280763,10|0,0:2|0:2,0:0:0:0:
282,98,35133,6,0,P|356:121|449:88,1,161.999995056153,2|8,1:2|0:2,0:0:0:0:
505,28,35601,1,2,1:2:0:0:
271,16,35758,2,0,P|216:43|194:88,1,80.9999975280763,0|0,0:2|1:2,0:0:0:0:
169,206,36070,5,8,0:2:0:0:
127,127,36226,1,0,0:2:0:0:
40,227,36383,1,0,1:2:0:0:
40,227,36539,1,0,1:2:0:0:
23,129,36695,5,8,0:2:0:0:
127,307,36851,1,0,1:2:0:0:
16,332,37008,1,0,0:2:0:0:
169,206,37164,1,0,1:2:0:0:
290,320,37320,6,0,P|239:328|200:359,1,80.9999975280763,10|0,0:2|0:2,0:0:0:0:
391,335,37633,2,0,P|384:291|403:229,1,80.9999975280763,2|0,1:2|1:2,0:0:0:0:
428,170,37945,1,8,0:2:0:0:
302,163,38101,2,0,B|230:172|235:104|138:121,1,161.999995056153,2|0,1:2|1:2,0:0:0:0:
293,66,38570,2,0,P|343:67|394:91,1,80.9999975280763,10|0,0:2|0:2,0:0:0:0:
144,230,38883,5,2,1:2:0:0:
293,66,39039,1,0,1:2:0:0:
302,163,39195,1,8,0:2:0:0:
123,30,39351,2,0,P|82:47|75:188,1,202.499993820191,2|0,1:2|0:0,0:0:0:0:
144,230,39820,5,10,0:2:0:0:
180,246,39898,1,0,0:0:0:0:
207,276,39976,1,8,0:2:0:0:
221,314,40054,1,8,0:2:0:0:
219,354,40133,5,6,1:2:0:0:
124,326,40289,1,0,0:2:0:0:
310,323,40445,1,8,0:2:0:0:
262,93,40601,2,0,P|264:146|346:238,1,161.999995056153,2|0,1:2|1:2,0:0:0:0:
386,109,41070,2,0,P|366:59|375:8,1,80.9999975280763,10|0,0:2|0:2,0:0:0:0:
440,203,41383,5,2,1:2:0:0:
329,229,41539,1,0,0:2:0:0:
387,108,41695,1,8,0:2:0:0:
465,303,41851,2,0,B|383:271|386:360|279:313,1,161.999995056153,2|0,1:2|1:2,0:0:0:0:
269,153,42320,2,0,P|239:184|231:239,1,80.9999975280763,10|0,0:2|0:2,0:0:0:0:
312,323,42633,5,2,1:2:0:0:
229,221,42789,1,0,1:2:0:0:
336,230,42945,1,8,0:2:0:0:
133,340,43101,2,0,B|164:251|84:258|152:156,1,161.999995056153,2|0,1:2|1:2,0:0:0:0:
81,40,43570,2,0,P|72:83|92:134,1,80.9999975280763,10|0,0:2|0:2,0:0:0:0:
135,183,43883,5,2,1:2:0:0:
31,256,44039,1,0,1:2:0:0:
133,340,44195,1,8,0:2:0:0:
231,220,44351,2,0,B|312:192|307:277|408:234,1,161.999995056153,2|0,1:2|1:2,0:0:0:0:
430,115,44820,2,0,P|389:124|356:164,1,80.9999975280763,10|0,0:2|0:2,0:0:0:0:
363,334,45133,6,0,P|421:331|471:214,1,161.999995056153,2|8,1:2|0:2,0:0:0:0:
511,75,45601,2,0,P|519:129|502:173,1,80.9999975280763,2|0,1:2|0:2,0:0:0:0:
385,242,45914,1,0,1:2:0:0:
272,147,46070,1,8,0:2:0:0:
261,299,46226,1,0,0:2:0:0:
476,339,46383,5,0,1:2:0:0:
476,339,46539,1,0,1:2:0:0:
385,242,46695,1,8,0:2:0:0:
261,299,46851,1,0,1:2:0:0:
363,334,47008,5,0,0:2:0:0:
298,210,47164,1,0,1:2:0:0:
157,281,47320,2,0,P|149:225|116:185,1,80.9999975280763,10|0,0:2|0:2,0:0:0:0:
57,124,47633,6,0,P|138:110|165:88,1,80.9999975280763,2|0,1:2|1:2,0:0:0:0:
204,46,47945,1,8,0:2:0:0:
222,156,48101,2,0,P|214:201|271:314,1,161.999995056153,2|0,1:2|1:2,0:0:0:0:
339,291,48570,2,0,P|388:276|452:283,1,80.9999975280763,10|0,0:2|0:2,0:0:0:0:
395,163,48883,5,2,1:2:0:0:
512,246,49039,1,0,1:2:0:0:
499,132,49195,1,8,0:2:0:0:
417,275,49351,1,2,0:2:0:0:
313,95,49508,6,0,L|299:44,3,40.4999987640381,8|8|8|8,1:2|0:2|0:2|0:2,0:0:0:0:
219,155,49820,2,0,L|233:104,2,40.4999987640381,10|8|8,1:2|0:2|0:2,0:0:0:0:
192,243,50133,5,6,1:2:0:0:
304,278,50289,1,2,1:2:0:0:
207,342,50445,1,10,0:2:0:0:
408,316,50601,2,0,B|451:232|367:240|420:138,1,161.999995056153,6|2,1:2|1:2,0:0:0:0:
302,42,51070,2,0,P|347:52|384:91,1,80.9999975280763,10|0,0:2|0:2,0:0:0:0:
229,115,51383,5,2,1:2:0:0:
192,243,51539,1,2,1:2:0:0:
92,168,51695,5,10,0:2:0:0:
192,243,51851,1,10,0:2:0:0:
103,72,52008,6,0,P|44:81|18:105,1,80.9999975280763,2|0,1:2|1:2,0:0:0:0:
181,337,52320,2,0,P|240:328|266:304,1,80.9999975280763,10|0,0:2|1:2,0:0:0:0:
322,246,52633,6,0,L|332:192,1,40.4999987640381,6|0,1:2|0:0,0:0:0:0:
421,198,52789,2,0,L|411:144,1,40.4999987640381,2|0,1:2|0:0,0:0:0:0:
373,73,52945,1,10,0:2:0:0:
255,315,53101,2,0,P|314:330|394:394,1,161.999995056153,6|2,1:2|1:2,0:0:0:0:
466,343,53570,2,0,P|447:301|391:265,1,80.9999975280763,10|0,0:2|0:2,0:0:0:0:
329,206,53883,5,2,1:2:0:0:
255,315,54039,1,2,1:2:0:0:
255,97,54195,5,10,0:2:0:0:
329,206,54351,1,10,0:2:0:0:
193,193,54508,2,0,P|145:193|100:211,1,80.9999975280763,2|0,1:2|1:2,0:0:0:0:
58,295,54820,2,0,P|106:295|151:313,1,80.9999975280763,10|0,0:2|1:2,0:0:0:0:
266,302,55133,5,6,1:2:0:0:
193,193,55289,1,2,1:2:0:0:
138,304,55445,1,10,0:2:0:0:
255,91,55601,2,0,B|330:82|323:149|413:133,1,161.999995056153,6|2,1:2|1:2,0:0:0:0:
480,75,56070,5,10,0:2:0:0:
443,236,56226,1,0,0:2:0:0:
384,33,56383,1,2,1:2:0:0:
506,162,56539,1,2,1:2:0:0:
301,183,56695,5,10,0:2:0:0:
405,134,56851,1,10,0:2:0:0:
345,284,57008,2,0,L|251:276,1,80.9999975280763,2|0,1:2|1:2,0:0:0:0:
351,378,57320,2,0,L|445:386,1,80.9999975280763,10|0,0:2|1:2,0:0:0:0:
301,183,57633,5,10,0:2:0:0:
345,284,57789,1,0,1:2:0:0:
211,184,57945,5,10,0:2:0:0:
412,214,58101,1,0,1:2:0:0:
249,94,58258,5,8,0:2:0:0:
264,277,58414,1,0,1:2:0:0:
382,123,58570,5,8,0:2:0:0:
140,99,58726,1,2,1:2:0:0:
88,298,58883,6,0,L|23:303,3,40.4999987640381,10|8|8|8,3:2|3:2|3:2|3:2,0:0:0:0:
118,188,59195,2,0,P|77:164|52:111,1,80.9999975280763,12|0,0:2|0:2,0:0:0:0:
225,201,59508,1,10,1:2:0:0:
197,230,59586,1,8,0:2:0:0:
179,266,59664,1,8,0:2:0:0:
174,306,59742,1,8,0:2:0:0:
190,342,59820,5,8,1:2:0:0:
230,342,59898,1,8,0:2:0:0:
266,327,59976,1,8,0:2:0:0:
293,296,60054,1,8,0:2:0:0:
295,250,60133,6,0,P|337:232|429:261,1,121.500000463486,6|2,1:2|1:2,0:0:0:0:
449,332,60445,1,10,0:2:0:0:
172,110,60601,2,0,B|223:191|121:239|194:346,1,243.000000926971,2|2,1:2|1:2,0:0:0:0:
295,250,61070,1,8,0:2:0:0:
187,15,61226,2,0,P|109:36|107:193,1,243.000000926971,2|0,1:2|1:2,0:0:0:0:
295,250,61695,1,10,0:2:0:0:
307,139,61851,2,0,P|351:110|447:133,1,121.500000463486,2|0,0:2|1:2,0:0:0:0:
423,307,62164,2,0,P|385:249|393:190,1,121.500000463486,2|8,1:2|0:2,0:0:0:0:
295,250,62476,1,2,0:2:0:0:
483,43,62633,6,0,P|515:94|512:154,1,121.500000463486,0|0,1:2|1:2,0:0:0:0:
389,199,62945,1,10,0:2:0:0:
236,76,63101,2,0,P|299:78|353:155,1,121.500000463486,2|0,1:2|0:2,0:0:0:0:
172,195,63414,2,0,P|106:213|55:274,1,121.500000463486,2|8,1:2|0:2,0:0:0:0:
253,384,63726,2,0,B|319:263|199:247|287:123,1,243.000000926971,2|0,1:2|1:2,0:0:0:0:
182,307,64195,1,10,0:2:0:0:
402,139,64351,6,0,P|358:61|297:48,1,121.500000463486,2|0,0:2|1:2,0:0:0:0:
507,146,64664,2,0,P|487:202|437:235,1,121.500000463486,2|8,1:2|0:2,0:0:0:0:
269,150,64976,1,2,0:2:0:0:
388,319,65133,6,0,P|469:326|523:291,1,121.500000463486,4|0,1:2|1:2,0:0:0:0:
507,146,65445,1,10,0:2:0:0:
259,242,65601,2,0,P|183:162|192:116,1,121.500000463486,2|0,1:2|0:2,0:0:0:0:
417,20,65914,2,0,L|400:151,1,121.500000463486,2|8,1:2|0:2,0:0:0:0:
121,350,66226,6,0,B|170:240|50:235|103:102,1,243.000000926971,2|0,1:2|1:2,0:0:0:0:
312,35,66695,2,0,P|224:25|187:52,1,121.500000463486,10|2,0:2|0:2,0:0:0:0:
97,118,67008,1,0,1:2:0:0:
280,231,67164,2,0,P|253:171|262:94,1,121.500000463486,2|8,1:2|0:2,0:0:0:0:
366,152,67476,1,2,1:2:0:0:
186,266,67633,6,0,P|284:334|320:324,1,121.500000463486,0|0,0:2|1:2,0:0:0:0:
368,291,67945,1,10,0:2:0:0:
139,186,68101,2,0,P|88:247|100:323,1,121.500000463486,2|0,0:2|1:2,0:0:0:0:
186,266,68414,1,2,1:2:0:0:
28,178,68570,1,8,0:2:0:0:
121,96,68726,2,0,B|229:77|229:202|361:156,1,243.000000926971,2|0,1:2|1:2,0:0:0:0:
313,65,69195,1,8,0:2:0:0:
419,86,69351,1,0,0:2:0:0:
323,292,69508,1,8,1:2:0:0:
294,303,69586,1,8,0:2:0:0:
264,307,69664,1,8,0:2:0:0:
234,304,69742,1,8,0:2:0:0:
206,293,69820,1,8,1:2:0:0:
181,275,69898,1,8,0:2:0:0:
162,252,69976,1,8,0:2:0:0:
149,225,70054,1,8,0:2:0:0:
143,195,70133,5,6,1:2:0:0:
71,290,70289,1,2,1:2:0:0:
246,201,70445,1,10,0:2:0:0:
62,61,70601,2,0,P|59:123|29:194,1,121.500000463486,2|0,1:2|0:2,0:0:0:0:
242,29,70914,2,0,P|192:57|164:133,1,121.500000463486,2|8,1:2|0:2,0:0:0:0:
235,306,71226,6,0,B|304:278|304:278|505:331,1,243.000000926971,2|0,1:2|1:2,0:0:0:0:
314,373,71695,1,10,0:2:0:0:
367,203,71851,2,0,L|513:234,1,121.500000463486,2|0,0:2|1:2,0:0:0:0:
466,320,72164,1,2,1:2:0:0:
367,203,72320,1,8,0:2:0:0:
314,373,72476,1,2,0:2:0:0:
228,217,72633,6,0,P|229:151|203:91,1,121.500000463486,0|0,1:2|1:2,0:0:0:0:
128,282,72945,1,10,0:2:0:0:
321,84,73101,2,0,P|396:81|437:45,1,121.500000463486,2|0,1:2|0:2,0:0:0:0:
197,7,73414,2,0,P|132:37|102:113,1,121.500000463486,2|8,1:2|0:2,0:0:0:0:
340,318,73726,2,0,B|272:192|377:183|312:68,1,243.000000926971,2|2,1:2|1:2,0:0:0:0:
232,320,74195,1,8,0:2:0:0:
340,318,74351,1,2,0:2:0:0:
95,244,74508,6,0,P|95:305|65:377,1,121.500000463486,0|2,1:2|1:2,0:0:0:0:
186,114,74820,2,0,P|185:172|217:247,1,121.500000463486,8|2,0:2|0:2,0:0:0:0:
95,68,75133,2,0,P|132:28|233:46,1,121.500000463486,4|0,1:2|1:2,0:0:0:0:
205,231,75445,1,10,0:2:0:0:
374,89,75601,6,0,P|407:33|474:7,1,121.500000463486,2|0,1:2|0:2,0:0:0:0:
393,188,75914,2,0,P|295:169|269:124,1,121.500000463486,2|8,1:2|0:2,0:0:0:0:
479,356,76226,2,0,B|414:244|538:248|458:108,1,243.000000926971,2|0,1:2|1:2,0:0:0:0:
348,313,76695,1,10,0:2:0:0:
190,168,76851,2,0,P|216:90|280:62,1,121.500000463486,2|0,0:2|1:2,0:0:0:0:
456,8,77164,2,0,P|410:52|340:63,1,121.500000463486,2|8,1:2|0:2,0:0:0:0:
130,69,77476,1,2,1:2:0:0:
233,316,77633,6,0,P|307:301|397:339,1,121.500000463486,0|0,0:2|1:2,0:0:0:0:
430,345,77945,1,10,0:2:0:0:
154,240,78101,2,0,P|125:296|143:376,1,121.500000463486,2|0,0:2|1:2,0:0:0:0:
221,177,78414,2,0,P|168:154|92:178,1,121.500000463486,2|8,1:2|0:2,0:0:0:0:
311,217,78726,2,0,B|330:84|227:120|223:-18,1,243.000000926971,2|0,1:2|1:2,0:0:0:0:
221,177,79195,1,8,0:2:0:0:
332,12,79351,1,0,0:2:0:0:
413,245,79508,5,10,1:2:0:0:
397,270,79586,1,8,0:2:0:0:
375,291,79664,1,8,0:2:0:0:
348,306,79742,1,8,0:2:0:0:
319,313,79820,1,10,1:2:0:0:
289,312,79898,1,8,0:2:0:0:
259,304,79976,1,8,0:2:0:0:
234,288,80054,1,8,0:2:0:0:
213,266,80133,5,6,1:2:0:0:
139,351,80289,1,0,1:2:0:0:
121,162,80445,5,8,0:2:0:0:
116,259,80601,1,2,1:2:0:0:
86,67,80758,5,8,0:2:0:0:
11,174,80914,1,0,1:2:0:0:
238,187,81070,6,0,P|300:146|324:60,1,121.500000463486,10|0,0:2|1:2,0:0:0:0:
216,93,81383,1,8,0:2:0:0:
358,259,81539,1,2,1:2:0:0:
498,19,81695,6,0,P|418:28|380:54,1,121.500000463486,8|0,0:2|1:2,0:0:0:0:
479,235,82008,2,0,P|452:165|475:90,1,121.500000463486,10|0,0:2|1:2,0:0:0:0:
358,259,82320,2,0,P|381:314|429:350,1,121.500000463486,10|0,0:2|1:2,0:0:0:0:
479,235,82633,5,10,0:2:0:0:
231,336,82789,1,0,1:2:0:0:
358,259,82945,5,8,0:2:0:0:
141,187,83101,1,2,1:2:0:0:
122,315,83258,5,8,0:2:0:0:
203,85,83414,1,0,1:2:0:0:
55,91,83570,5,10,0:2:0:0:
32,204,83726,1,0,1:2:0:0:
130,10,83883,5,10,0:2:0:0:
226,225,84039,1,0,1:2:0:0:
320,50,84195,5,8,0:2:0:0:
347,272,84351,1,2,1:2:0:0:
460,114,84508,5,8,0:2:0:0:
454,333,84664,1,0,1:2:0:0:
180,141,84820,2,0,P|228:129|310:198,1,121.500000463486,10|0,0:2|1:2,0:0:0:0:
246,347,85133,5,14,0:2:0:0:
226,225,85289,1,0,1:2:0:0:
226,225,85445,1,0,1:2:0:0:
113,237,85601,5,8,0:2:0:0:
347,272,85758,1,0,1:2:0:0:
347,272,85914,1,0,1:2:0:0:
148,331,86070,5,10,0:2:0:0:
180,141,86226,1,0,1:2:0:0:
180,141,86383,1,0,1:2:0:0:
132,50,86539,5,8,0:2:0:0:
290,159,86695,1,0,1:2:0:0:
290,159,86851,1,0,1:2:0:0:
27,236,87008,5,8,3:2:0:0:
29,205,87086,1,8,3:2:0:0:
31,175,87164,1,8,3:2:0:0:
33,145,87242,1,8,3:2:0:0:
35,114,87320,2,0,P|89:60|148:50,1,121.500000463486,12|0,3:2|0:0,0:0:0:0:
127,298,87633,5,6,1:2:0:0:
203,202,87945,5,8,0:2:0:0:
226,305,88101,1,8,0:2:0:0:
280,133,88258,5,8,0:2:0:0:
321,305,88414,1,8,0:2:0:0:
357,75,88570,5,8,0:2:0:0:
414,313,88726,1,8,0:2:0:0:
441,42,88883,2,0,P|388:-4|295:22,1,121.500000463486,12|0,0:2|0:0,0:0:0:0:
103,52,89195,5,8,1:2:0:0:
132,60,89273,1,8,0:2:0:0:
162,64,89351,1,8,0:2:0:0:
192,63,89429,1,8,0:2:0:0:
225,79,89508,5,8,1:2:0:0:
243,80,89586,1,8,0:2:0:0:
261,83,89664,1,8,0:2:0:0:
278,89,89742,1,8,0:2:0:0:
294,97,89820,2,0,P|289:178|256:243,1,121.500000463486,10|8,1:2|0:2,0:0:0:0:
77,224,90133,2,0,P|138:185|187:183,1,85.4999977169037,6|0,1:2|0:2,0:0:0:0:
159,284,90445,1,8,0:2:0:0:
55,125,90601,6,0,P|8:145|6:272,1,170.999995433807,2|0,1:2|1:2,0:0:0:0:
159,284,91070,2,0,P|216:292|279:313,1,85.4999977169037,10|0,0:2|0:2,0:0:0:0:
365,224,91383,6,0,P|357:269|372:333,1,85.4999977169037,2|0,1:2|1:2,0:0:0:0:
476,300,91695,1,8,0:2:0:0:
442,106,91851,2,0,P|395:134|263:105,1,170.999995433807,2|0,1:2|1:2,0:0:0:0:
434,16,92320,2,0,P|471:19|519:50,1,85.4999977169037,10|0,0:2|0:2,0:0:0:0:
355,239,92633,6,0,L|248:248,1,85.4999977169037,2|0,1:2|1:2,0:0:0:0:
209,306,92945,1,8,0:2:0:0:
400,337,93101,2,0,P|447:268|431:187,1,170.999995433807,2|0,1:2|1:2,0:0:0:0:
278,123,93570,2,0,P|339:119|383:131,1,85.4999977169037,10|0,0:2|0:2,0:0:0:0:
225,38,93883,6,0,P|196:75|194:150,1,85.4999977169037,2|0,1:2|1:2,0:0:0:0:
187,197,94195,1,8,0:2:0:0:
64,47,94351,2,0,P|125:20|241:49,1,170.999995433807,2|0,1:2|1:2,0:0:0:0:
187,197,94820,2,0,L|61:213,1,85.4999977169037,10|0,0:2|0:2,0:0:0:0:
10,281,95133,6,0,P|21:316|94:354,1,85.4999977169037,2|0,1:2|1:2,0:0:0:0:
139,325,95445,1,8,0:2:0:0:
120,44,95601,2,0,P|97:90|105:215,1,170.999995433807,2|0,1:2|1:2,0:0:0:0:
186,198,96070,2,0,P|239:192|300:216,1,85.4999977169037,8|0,0:2|0:2,0:0:0:0:
380,217,96383,5,0,1:2:0:0:
306,285,96539,1,0,1:2:0:0:
469,270,96695,2,0,L|495:175,1,85.4999977169037,8|0,0:2|1:2,0:0:0:0:
423,46,97008,2,0,P|416:91|440:147,1,85.4999977169037,0|0,0:2|1:2,0:0:0:0:
306,285,97320,2,0,P|261:286|203:311,1,85.4999977169037,10|0,0:2|0:2,0:0:0:0:
94,179,97633,5,2,1:2:0:0:
182,204,97789,1,0,1:2:0:0:
117,275,97945,1,8,0:2:0:0:
4,177,98101,2,0,P|77:88|125:93,1,170.999995433807,2|0,1:2|1:2,0:0:0:0:
259,30,98570,2,0,P|214:37|172:20,1,85.4999977169037,10|0,0:2|0:2,0:0:0:0:
121,92,98883,5,2,1:2:0:0:
94,179,99039,1,0,1:2:0:0:
117,275,99195,1,8,0:2:0:0:
229,298,99351,2,0,P|278:231|261:150,1,170.999995433807,2|0,1:2|1:2,0:0:0:0:
117,275,99820,6,0,L|13:306,1,85.4999977169037,10|0,0:2|0:2,0:0:0:0:
58,107,100133,2,0,B|127:145|188:70|188:70|249:8|343:72,1,297.000009063721,6|2,1:2|0:2,0:0:0:0:
347,203,101383,2,0,P|289:203|232:252,1,121.499996292114,2|0,0:2|0:0,0:0:0:0:
461,280,102008,5,10,0:2:0:0:
312,355,102164,1,0,1:2:0:0:
415,153,102320,2,0,L|407:209,1,40.4999987640381,10|0,0:2|1:2,0:0:0:0:
242,128,102633,6,0,P|305:115|353:56,1,112.5,2|0,1:2|0:2,0:0:0:0:
409,193,102945,1,8,0:2:0:0:
219,30,103101,2,0,B|82:61|180:144|20:166,1,225,2|0,1:2|1:2,0:0:0:0:
121,257,103570,2,0,P|169:244|251:299,1,112.5,10|0,0:2|0:2,0:0:0:0:
285,337,103883,5,2,1:2:0:0:
165,335,104039,1,0,1:2:0:0:
227,266,104195,1,8,0:2:0:0:
34,347,104351,2,0,P|13:251|-16:212,1,112.5,2|0,1:2|0:2,0:0:0:0:
84,194,104664,1,0,1:2:0:0:
161,57,104820,2,0,P|182:153|211:192,1,112.5,10|0,0:2|0:2,0:0:0:0:
390,151,105133,2,0,B|264:155|333:288|165:257,1,225,2|8,1:2|0:2,0:0:0:0:
368,36,105601,2,0,P|444:45|493:189,1,225,2|0,1:2|1:2,0:0:0:0:
413,247,106070,2,0,P|406:308|435:359,1,112.5,8|0,0:2|0:2,0:0:0:0:
501,169,106383,6,0,L|367:149,1,112.5,2|0,1:2|1:2,0:0:0:0:
309,217,106695,1,8,0:2:0:0:
413,247,106851,1,0,1:2:0:0:
309,217,107008,2,0,P|230:226|183:261,1,112.5,2|0,0:2|1:2,0:0:0:0:
101,340,107320,2,0,P|141:328|250:362,1,112.5,8|0,0:2|0:2,0:0:0:0:
11,169,107633,6,0,B|76:274|-44:276|26:413,1,225,2|8,1:2|0:2,0:0:0:0:
101,340,108101,1,0,1:2:0:0:
202,242,108258,1,2,0:2:0:0:
210,336,108414,1,0,1:2:0:0:
111,241,108570,5,8,0:2:0:0:
292,283,108726,1,0,0:2:0:0:
212,90,108883,2,0,B|116:79|112:203|-31:162,1,225,2|8,1:2|0:2,0:0:0:0:
9,169,109351,1,0,1:2:0:0:
177,13,109508,6,0,P|233:13|269:31,1,56.25,10|8,0:2|0:2,0:0:0:0:
361,93,109664,2,0,P|305:93|269:111,1,56.25,8|8,0:2|0:2,0:0:0:0:
224,197,109820,2,0,P|263:228|296:322,1,112.5,2|0,1:2|0:2,0:0:0:0:
360,369,110133,6,0,P|366:336|436:254,1,135.000005149842,14|0,0:2|1:2,0:0:0:0:
508,207,110601,1,0,1:2:0:0:
361,93,110758,2,0,P|372:142|327:233,1,135.000005149842,10|0,0:2|1:2,0:0:0:0:
284,282,111226,1,0,1:2:0:0:
116,164,111383,6,0,L|264:139,1,135.000005149842,10|0,0:2|1:2,0:0:0:0:
174,253,111851,1,0,1:2:0:0:
18,46,112008,2,0,P|59:33|152:78,1,135.000005149842,10|0,0:2|1:2,0:0:0:0:
116,164,112476,1,0,1:2:0:0:
302,40,112633,6,0,L|211:58,1,67.5000025749208,10|0,0:2|0:2,0:0:0:0:
249,141,112945,1,8,0:2:0:0:
249,141,113101,1,8,0:2:0:0:
312,251,113258,5,10,0:2:0:0:
116,164,113414,1,8,0:2:0:0:
225,328,113570,5,8,0:2:0:0:
354,130,113726,1,8,0:2:0:0:
219,233,113883,5,2,1:2:0:0:
346,356,114039,1,0,1:2:0:0:
235,53,114195,1,12,0:2:0:0:
126,310,114351,1,0,0:2:0:0:
438,226,114508,5,10,1:2:0:0:
439,192,114586,1,8,0:2:0:0:
441,158,114664,1,8,0:2:0:0:
443,124,114742,1,8,0:2:0:0:
445,91,114820,2,0,P|419:54|342:32,1,101.250003862381,8|8,1:2|0:2,0:0:0:0:
235,53,115133,5,6,1:2:0:0:
135,110,115289,1,2,1:2:0:0:
246,157,115445,1,10,0:2:0:0:
45,163,115601,2,0,P|35:119|66:42,1,121.500000463486,2|0,1:2|0:2,0:0:0:0:
127,227,115914,2,0,P|56:269|-9:254,1,121.500000463486,2|8,1:2|0:2,0:0:0:0:
246,157,116226,6,0,B|374:133|310:279|500:223,1,243.000000926971,2|0,1:2|1:2,0:0:0:0:
269,248,116695,1,10,0:2:0:0:
443,32,116851,2,0,P|414:87|437:159,1,121.500000463486,2|0,0:2|1:2,0:0:0:0:
371,347,117164,1,2,1:2:0:0:
460,232,117320,1,8,0:2:0:0:
483,323,117476,1,2,0:2:0:0:
269,248,117633,6,0,P|258:179|187:106,1,121.500000463486,0|0,1:2|1:2,0:0:0:0:
171,303,117945,1,10,0:2:0:0:
422,26,118101,2,0,P|426:145|458:181,1,121.500000463486,2|0,1:2|0:2,0:0:0:0:
275,50,118414,2,0,P|212:43|130:98,1,121.500000463486,2|8,1:2|0:2,0:0:0:0:
276,246,118726,2,0,B|395:235|337:352|507:326,1,243.000000926971,2|0,1:2|1:2,0:0:0:0:
276,338,119195,1,10,0:2:0:0:
446,240,119351,2,0,P|513:189|511:120,1,121.500000463486,2|0,0:2|1:2,0:0:0:0:
362,155,119664,2,0,P|295:104|297:35,1,121.500000463486,2|8,1:2|0:2,0:0:0:0:
406,47,119976,1,2,0:2:0:0:
168,192,120133,6,0,P|159:251|174:309,1,121.500000463486,4|0,1:2|1:2,0:0:0:0:
268,348,120445,1,10,0:2:0:0:
69,145,120601,2,0,P|103:78|192:40,1,121.500000463486,2|0,1:2|0:2,0:0:0:0:
325,75,120914,2,0,P|257:83|193:130,1,121.500000463486,2|8,1:2|0:2,0:0:0:0:
0,323,121226,2,0,B|66:203|-78:206|10:48,1,243.000000926971,2|0,1:2|1:2,0:0:0:0:
262,239,121695,6,0,P|172:313|122:307,1,121.500000463486,10|2,0:2|0:2,0:0:0:0:
69,145,122008,1,0,1:2:0:0:
146,211,122164,1,2,1:2:0:0:
212,111,122320,1,8,0:2:0:0:
173,312,122476,6,0,P|236:285|395:372,1,243.000000926971,2|0,1:2|1:2,0:0:0:0:
385,352,122945,1,10,0:2:0:0:
466,253,123101,2,0,P|420:184|432:118,1,121.500000463486,2|0,0:2|1:2,0:0:0:0:
283,0,123414,2,0,P|321:72|294:137,1,121.500000463486,2|8,1:2|0:2,0:0:0:0:
170,304,123726,2,0,B|233:200|108:179|211:37,1,243.000000926971,2|0,1:2|1:2,0:0:0:0:
86,242,124195,1,12,0:2:0:0:
189,70,124351,1,0,0:2:0:0:
274,298,124508,5,8,1:2:0:0:
244,350,124586,1,8,0:2:0:0:
193,381,124664,1,8,0:2:0:0:
133,384,124742,1,8,0:2:0:0:
79,357,124820,2,0,L|2:357,1,60.7500002317429,8|8,1:2|0:2,0:0:0:0:
86,242,124976,2,0,L|165:241,1,60.7500002317429,8|8,0:2|0:2,0:0:0:0:
274,298,125133,5,6,1:2:0:0:
193,381,125289,1,2,1:2:0:0:
374,328,125445,1,10,0:2:0:0:
344,130,125601,2,0,B|201:133|296:239|139:241,1,243.000000926971,2|2,1:2|1:2,0:0:0:0:
86,242,126070,1,8,0:2:0:0:
217,83,126226,6,0,P|290:49|363:53,1,121.500000463486,2|0,1:2|0:2,0:0:0:0:
337,231,126539,1,0,1:2:0:0:
122,132,126695,2,0,P|111:55|57:6,1,121.500000463486,10|2,0:2|0:2,0:0:0:0:
0,126,127008,5,0,1:2:0:0:
217,83,127164,1,2,1:2:0:0:
86,242,127320,1,8,0:2:0:0:
84,22,127476,1,2,0:2:0:0:
226,218,127633,6,0,P|232:281|175:348,1,121.500000463486,0|0,1:2|1:2,0:0:0:0:
86,242,127945,1,10,0:2:0:0:
338,230,128101,2,0,P|320:163|245:125,1,121.500000463486,2|0,1:2|0:2,0:0:0:0:
329,328,128414,2,0,P|400:311|436:238,1,121.500000463486,2|8,1:2|0:2,0:0:0:0:
326,24,128726,2,0,B|190:2|224:155|61:92,1,243.000000926971,2|2,1:2|1:2,0:0:0:0:
6,61,129195,1,8,0:2:0:0:
104,222,129351,2,0,P|188:216|242:171,1,121.500000463486,2|0,0:2|1:2,0:0:0:0:
394,108,129664,2,0,P|310:114|256:159,1,121.500000463486,2|8,1:2|0:2,0:0:0:0:
218,197,129976,1,2,0:2:0:0:
452,288,130133,2,0,B|396:156|532:199|470:55,1,243.000000926971,4|10,1:2|0:2,0:0:0:0:
334,239,130601,6,0,P|346:312|385:364,1,121.500000463486,2|0,1:2|0:2,0:0:0:0:
217,199,130914,2,0,P|205:272|166:324,1,121.500000463486,2|8,1:2|0:2,0:0:0:0:
8,63,131226,2,0,P|85:23|115:157,1,243.000000926971,2|0,1:2|1:2,0:0:0:0:
79,224,131695,1,10,0:2:0:0:
324,158,131851,6,0,P|282:99|200:93,1,121.500000463486,2|0,0:2|1:2,0:0:0:0:
335,240,132164,2,0,P|407:239|459:175,1,121.500000463486,2|8,1:2|0:2,0:0:0:0:
421,111,132476,1,2,1:2:0:0:
141,18,132633,6,0,B|74:129|216:148|101:296,1,243.000000926971,0|10,0:2|0:2,0:0:0:0:
59,342,133101,2,0,P|27:264|-25:232,1,121.500000463486,2|0,0:2|1:2,0:0:0:0:
54,173,133414,1,2,1:2:0:0:
175,347,133570,2,0,P|230:287|224:213,1,121.500000463486,8|2,0:2|1:2,0:0:0:0:
276,79,133883,6,0,P|325:140|479:139,1,243.000000926971,0|8,0:2|0:2,0:0:0:0:
478,139,134351,1,0,0:2:0:0:
344,13,134508,1,10,1:2:0:0:
312,0,134586,1,8,0:2:0:0:
276,0,134664,1,8,0:2:0:0:
240,0,134742,1,8,0:2:0:0:
209,16,134820,2,0,P|165:61|106:84,1,90,8|8,1:2|0:2,0:0:0:0:
237,264,135133,6,0,P|285:230|406:263,1,180,14|0,0:2|1:2,0:0:0:0:
320,328,135601,1,0,1:2:0:0:
471,130,135758,2,0,B|433:208|536:220|463:334,1,180,10|0,0:2|1:2,0:0:0:0:
397,253,136226,1,0,1:2:0:0:
182,225,136383,6,0,P|84:256|74:348,1,180,10|0,0:2|1:2,0:0:0:0:
165,311,136851,1,0,1:2:0:0:
183,112,137008,2,0,B|276:103|252:180|359:164,1,180,10|8,0:2|0:2,0:0:0:0:
334,70,137476,1,0,1:2:0:0:
141,0,137633,6,0,P|83:43|105:163,1,180,6|0,1:2|0:0,0:0:0:0:
181,227,138101,1,8,0:2:0:0:
334,70,138258,2,0,P|279:40|238:39,1,90,10|0,3:2|0:0,0:0:0:0:
433,132,138570,2,0,P|378:162|337:163,1,90,8|0,0:2|0:0,0:0:0:0:
181,227,138883,6,0,P|237:267|282:270,1,90,2|0,1:2|1:2,0:0:0:0:
354,328,139195,2,0,P|298:368|253:371,1,90,8|0,0:2|0:0,0:0:0:0:
174,341,139508,1,10,3:2:0:0:
94,299,139664,1,8,3:2:0:0:
25,241,139820,2,0,L|30:129,1,90,8|8,3:2|3:2,0:0:0:0:
234,84,140133,6,0,P|178:142|189:241,1,169.199997418213,6|10,0:2|0:2,0:0:0:0:
359,122,141070,2,0,L|349:22,1,84.5999987091065,2|0,0:2|0:0,0:0:0:0:
270,175,141695,1,0,1:2:0:0:
447,78,142008,1,8,0:2:0:0:
504,119,153979,6,0,P|439:131|371:284,1,243.000000926971,6|10,3:2|0:2,0:0:0:0:
274,384,154447,6,0,P|281:323|211:239,1,121.500000463486,2|0,0:2|3:2,0:0:0:0:
188,162,154760,5,0,3:2:0:0:
79,307,154916,6,0,P|120:337|215:332,1,121.500000463486,10|2,0:2|0:2,0:0:0:0:
64,50,155229,6,0,P|58:174|-33:257,1,243.000000926971,0|8,3:2|0:2,0:0:0:0:
79,307,155697,1,0,0:2:0:0:
188,162,155854,2,0,P|224:89|218:28,1,121.500000463486,2|0,3:2|3:2,0:0:0:0:
350,22,156088,1,0,0:0:0:0:
350,22,156166,2,0,P|345:84|364:148,1,121.500000463486,10|2,0:2|0:2,0:0:0:0:
256,270,156479,6,0,B|368:241|370:370|501:309,1,243.000000926971,6|10,3:2|0:2,0:0:0:0:
468,107,156947,2,0,P|444:171|455:249,1,121.500000463486,2|0,0:2|3:2,0:0:0:0:
482,316,157260,1,2,3:2:0:0:
361,141,157416,2,0,P|372:62|536:35,1,243.000000926971,10|0,0:2|3:2,0:0:0:0:
446,223,157885,1,0,3:2:0:0:
258,167,158041,2,0,B|141:192|146:68|10:119,1,243.000000926971,10|0,0:2|3:2,0:0:0:0:
41,222,158510,1,0,3:2:0:0:
343,228,158666,5,10,3:2:0:0:
355,187,158744,1,8,0:2:0:0:
351,145,158822,1,8,0:2:0:0:
331,108,158900,1,8,0:2:0:0:
298,81,158979,1,6,3:2:0:0:
215,252,159135,1,0,3:2:0:0:
343,228,159291,1,14,0:2:0:0:
31,112,159447,6,0,B|-14:239|95:234|15:377,1,243.000000926971,2|0,0:2|3:2,0:0:0:0:
215,252,159916,2,0,P|192:191|123:158,1,121.500000463486,10|0,0:2|0:2,0:0:0:0:
227,342,160229,5,2,3:2:0:0:
126,249,160385,1,0,3:2:0:0:
29,347,160541,1,10,0:2:0:0:
327,272,160697,2,0,L|306:131,1,121.500000463486,2|0,0:2|3:2,0:0:0:0:
143,69,161010,2,0,P|87:92|51:192,1,121.500000463486,2|8,3:2|0:2,0:0:0:0:
417,143,161322,6,0,P|381:74|305:55,1,121.500000463486,2|4,0:2|3:2,0:0:0:0:
138,313,161635,2,0,B|246:283|241:409|381:376,1,243.000000926971,2|0,0:2|0:2,0:0:0:0:
485,249,162104,2,0,P|418:273|338:242,1,121.500000463486,0|0,3:2|3:2,0:0:0:0:
256,202,162416,1,8,0:2:0:0:
417,143,162572,1,0,0:2:0:0:
138,313,162729,5,0,3:2:0:0:
256,202,162885,1,0,3:2:0:0:
357,362,163041,1,12,0:2:0:0:
137,178,163197,1,0,0:2:0:0:
370,263,163354,5,10,3:2:0:0:
370,263,163432,1,8,0:2:0:0:
370,263,163510,2,0,L|371:194,1,60.7500002317429,8|10,0:2|0:2,0:0:0:0:
417,143,163666,1,8,3:2:0:0:
417,143,163744,1,8,0:2:0:0:
417,143,163822,2,0,L|359:105,1,60.7500002317429,10|8,0:2|0:2,0:0:0:0:
290,37,163979,5,6,3:2:0:0:
466,224,164135,1,0,3:2:0:0:
136,291,164291,1,14,0:2:0:0:
260,117,164447,2,0,B|323:233|197:233|290:372,1,243.000000926971,2|0,0:2|3:2,0:0:0:0:
466,224,164916,1,10,0:2:0:0:
370,263,165072,1,2,0:2:0:0:
379,46,165229,6,0,P|443:68|453:237,1,243.000000926971,0|8,3:2|0:2,0:0:0:0:
370,263,165697,1,0,0:2:0:0:
253,168,165854,2,0,P|190:166|137:222,1,121.500000463486,2|0,3:2|3:2,0:0:0:0:
13,330,166166,2,0,L|28:177,1,121.500000463486,10|2,0:2|0:2,0:0:0:0:
189,74,166479,6,0,P|271:64|348:203,1,243.000000926971,6|10,3:2|0:2,0:0:0:0:
119,290,166947,2,0,L|-29:319,1,121.500000463486,2|0,0:2|3:2,0:0:0:0:
25,185,167260,1,2,3:2:0:0:
157,380,167416,2,0,B|248:358|248:358|322:383|322:383|411:359,1,243.000000926971,10|0,0:2|3:2,0:0:0:0:
390,365,167885,1,0,3:2:0:0:
466,191,168041,6,0,B|341:231|361:97|251:108,1,243.000000926971,10|0,0:2|3:2,0:0:0:0:
451,288,168510,1,0,3:2:0:0:
434,96,168666,1,8,0:2:0:0:
434,96,168744,1,8,0:2:0:0:
434,96,168822,2,0,L|451:23,1,60.7500002317429,8|8,0:2|0:2,0:0:0:0:
274,17,168979,6,0,P|198:33|156:106,1,121.500000463486,6|0,3:2|3:2,0:0:0:0:
194,231,169291,1,10,0:2:0:0:
56,9,169447,2,0,B|6:121|124:135|44:277,1,243.000000926971,2|0,0:2|3:2,0:0:0:0:
151,341,169916,2,0,P|211:348|282:311,1,121.500000463486,10|0,0:2|0:2,0:0:0:0:
405,136,170229,6,0,B|318:149|318:149|274:205|274:205|147:222,1,243.000000926971,2|10,3:2|0:2,0:0:0:0:
198,102,170697,1,2,0:2:0:0:
376,243,170854,2,0,L|518:220,1,121.500000463486,0|0,3:2|3:2,0:0:0:0:
289,46,171166,2,0,P|245:5|185:0,1,121.500000463486,10|0,0:2|0:2,0:0:0:0:
41,112,171479,5,6,3:2:0:0:
176,204,171635,1,0,3:2:0:0:
38,340,171791,2,0,B|17:256|17:256|55:194|55:194|35:77,1,243.000000926971,10|0,0:2|3:2,0:0:0:0:
171,201,172260,1,0,3:2:0:0:
256,62,172416,1,10,0:2:0:0:
379,258,172572,1,0,0:2:0:0:
157,301,172729,6,0,L|-6:322,1,121.500000463486,2|0,3:2|3:2,0:0:0:0:
171,201,173041,1,12,0:2:0:0:
265,329,173197,1,2,0:2:0:0:
127,106,173354,1,8,0:2:0:0:
100,119,173432,1,8,0:2:0:0:
78,140,173510,1,8,3:2:0:0:
64,167,173588,1,8,3:2:0:0:
58,197,173666,2,0,L|32:346,1,121.500000463486,14|0,3:2|0:2,0:0:0:0:
127,106,173979,5,14,0:2:0:0:
156,310,174135,1,0,3:2:0:0:
257,148,174291,5,10,0:2:0:0:
253,364,174447,1,2,3:2:0:0:
353,76,174604,5,8,0:2:0:0:
357,292,174760,1,2,3:2:0:0:
483,34,174916,5,10,0:2:0:0:
454,238,175072,1,0,3:2:0:0:
246,37,175229,5,8,0:2:0:0:
454,238,175385,1,0,3:2:0:0:
156,310,175541,1,10,0:2:0:0:
363,169,175697,6,0,L|356:306,1,121.500000463486,2|8,3:2|0:2,0:0:0:0:
428,353,176010,1,0,3:2:0:0:
268,152,176166,2,0,P|304:100|403:85,1,121.500000463486,10|0,0:2|3:2,0:0:0:0:
356,290,176479,5,14,0:2:0:0:
73,178,176635,1,0,3:2:0:0:
73,178,176791,1,0,3:2:0:0:
276,345,176947,5,14,0:2:0:0:
120,79,177104,1,0,3:2:0:0:
120,79,177260,1,0,3:2:0:0:
179,375,177416,5,8,0:2:0:0:
179,375,177572,1,8,0:2:0:0:
232,65,177729,1,6,1:2:0:0:
197,254,178666,6,0,P|238:244|282:197,1,101.250003862381,2|0,0:2|0:0,0:0:0:0:
248,118,178979,6,0,P|290:87|348:84,1,103.500001974106,6|2,3:2|3:2,0:0:0:0:
382,95,179213,1,0,3:2:0:0:
382,95,179291,1,10,0:2:0:0:
279,204,179447,1,2,0:2:0:0:
486,222,179604,2,0,L|472:82,1,103.500001974106,2|0,3:2|3:2,0:0:0:0:
470,27,179916,5,10,0:2:0:0:
377,217,180072,1,2,3:2:0:0:
377,217,180150,1,0,3:2:0:0:
377,217,180229,1,2,3:2:0:0:
382,95,180385,5,2,3:2:0:0:
453,313,180541,2,0,P|484:273|473:197,1,103.500001974106,10|0,0:2|3:2,0:0:0:0:
377,217,180854,2,0,P|320:222|267:281,1,103.500001974106,2|2,3:2|3:2,0:0:0:0:
181,332,181166,5,10,3:2:0:0:
188,281,181244,1,8,0:2:0:0:
178,230,181322,1,8,0:2:0:0:
150,187,181400,1,8,0:2:0:0:
110,157,181479,2,0,P|35:175|6:205,1,103.500001974106,2|2,3:2|3:2,0:0:0:0:
85,261,181791,1,10,0:2:0:0:
281,49,181947,5,2,0:2:0:0:
281,49,182025,1,0,0:0:0:0:
281,49,182104,2,0,B|234:147|327:147|277:265,1,207.000003948212,2|10,3:2|0:2,0:0:0:0:
359,344,182572,5,2,3:2:0:0:
359,344,182650,1,0,3:2:0:0:
359,344,182729,2,0,P|390:304|379:228,1,103.500001974106,2|2,3:2|3:2,0:0:0:0:
283,248,183041,2,0,P|226:253|173:312,1,103.500001974106,10|0,0:2|0:2,0:0:0:0:
94,363,183354,5,10,3:2:0:0:
102,327,183432,1,8,0:2:0:0:
99,291,183510,1,10,0:2:0:0:
86,258,183588,1,8,0:2:0:0:
63,230,183666,1,10,3:2:0:0:
48,197,183744,1,8,0:2:0:0:
45,161,183822,1,8,0:2:0:0:
52,126,183900,1,8,0:2:0:0:
69,94,183979,6,0,P|138:93|199:129,1,103.500001974106,6|2,3:2|3:2,0:0:0:0:
188,149,184213,1,0,3:2:0:0:
188,149,184291,1,10,0:2:0:0:
92,262,184447,1,2,0:2:0:0:
317,52,184604,2,0,P|301:128|392:251,1,207.000003948212,2|8,3:2|0:2,0:0:0:0:
461,295,185072,5,2,3:2:0:0:
461,295,185150,1,0,3:2:0:0:
461,295,185229,1,2,3:2:0:0:
415,121,185385,1,2,3:2:0:0:
304,315,185541,2,0,L|181:338,1,103.500001974106,10|0,0:2|3:2,0:0:0:0:
188,148,185854,2,0,L|311:171,1,103.500001974106,2|2,3:2|3:2,0:0:0:0:
101,225,186166,5,8,3:2:0:0:
98,188,186244,1,8,0:2:0:0:
95,152,186322,1,8,0:2:0:0:
92,116,186400,1,8,0:2:0:0:
89,80,186479,6,0,L|186:66,1,51.7500009870529,2|0,3:2|0:2,0:0:0:0:
95,152,186635,2,0,L|-2:138,1,51.7500009870529,2|0,3:2|0:2,0:0:0:0:
101,225,186791,2,0,L|198:211,1,51.7500009870529,10|0,0:2|0:2,0:0:0:0:
107,297,186947,2,0,L|10:283,1,51.7500009870529,2|0,0:2|0:2,0:0:0:0:
214,353,187104,6,0,L|194:278,1,51.7500009870529,2|0,3:2|0:2,0:0:0:0:
289,290,187260,2,0,L|283:213,1,51.7500009870529,2|0,3:2|0:2,0:0:0:0:
395,189,187416,6,0,L|375:264,1,51.7500009870529,10|0,0:2|0:2,0:0:0:0:
470,252,187572,2,0,L|464:329,1,51.7500009870529,2|0,0:2|0:2,0:0:0:0:
357,340,187729,5,10,3:2:0:0:
316,371,187807,1,8,3:2:0:0:
266,375,187885,1,10,3:2:0:0:
221,349,187963,1,8,3:2:0:0:
199,303,188041,2,0,P|179:240|115:208,1,103.500001974106,14|0,0:2|0:0,0:0:0:0:
106,299,188354,1,14,0:2:0:0:
322,85,188510,2,0,L|289:290,1,207.000003948212,14|0,0:2|0:0,0:0:0:0:
211,138,188979,5,14,0:2:0:0:
414,120,189135,1,2,3:2:0:0:
414,120,189213,1,0,0:2:0:0:
414,120,189291,1,2,3:2:0:0:
192,43,189447,1,14,0:2:0:0:
409,218,189604,2,0,L|389:358,1,103.500001974106,2|0,3:2|3:2,0:0:0:0:
285,381,189916,5,14,0:2:0:0:
501,279,190072,1,2,3:2:0:0:
501,279,190150,1,0,0:2:0:0:
501,279,190229,1,2,3:2:0:0:
274,269,190385,1,14,0:2:0:0:
512,141,190541,2,0,L|501:15,1,103.500001974106,2|0,3:2|3:2,0:0:0:0:
275,88,190854,5,14,0:2:0:0:
411,188,191010,1,2,3:2:0:0:
177,64,191166,2,0,P|207:11|280:-17,1,103.500001974106,14|0,0:2|3:2,0:0:0:0:
274,269,191479,5,14,0:2:0:0:
275,88,191635,1,2,3:2:0:0:
275,88,191713,1,0,0:2:0:0:
275,88,191791,1,2,3:2:0:0:
148,288,191947,1,14,0:2:0:0:
369,115,192104,2,0,P|370:48|315:-1,1,103.500001974106,2|0,3:2|3:2,0:0:0:0:
274,269,192416,1,14,0:2:0:0:
49,149,192572,5,2,3:2:0:0:
49,149,192650,1,0,0:2:0:0:
49,149,192729,2,0,L|35:287,1,103.500001974106,2|14,3:2|0:2,0:0:0:0:
183,58,193041,2,0,P|114:69|46:42,1,103.500001974106,2|0,3:2|3:2,0:0:0:0:
152,161,193354,5,14,0:2:0:0:
182,163,193432,1,8,3:2:0:0:
213,157,193510,1,10,3:2:0:0:
240,142,193588,1,8,3:2:0:0:
261,119,193666,2,0,P|314:60|383:49,1,103.500001974106,12|0,0:2|0:0,0:0:0:0:
274,269,193979,5,14,0:2:0:0:
364,157,194135,1,2,3:2:0:0:
364,157,194213,1,0,0:0:0:0:
364,157,194291,2,0,L|472:179,1,103.500001974106,10|2,0:2|3:2,0:0:0:0:
324,360,194604,2,0,P|264:374|194:333,1,103.500001974106,10|0,0:2|3:2,0:0:0:0:
127,174,194916,5,10,0:2:0:0:
274,269,195072,1,2,3:2:0:0:
274,269,195150,1,0,0:0:0:0:
273,269,195229,2,0,P|324:257|373:269,1,103.500001974106,10|2,0:2|3:2,0:0:0:0:
504,140,195541,2,0,P|453:147|411:176,1,103.500001974106,10|0,0:2|3:2,0:0:0:0:
457,384,195854,5,10,0:2:0:0:
462,348,195932,1,0,0:0:0:0:
467,312,196010,1,2,3:2:0:0:
473,276,196088,1,0,0:0:0:0:
478,240,196166,2,0,L|514:106,1,103.500001974106,10|0,0:2|3:2,0:0:0:0:
419,62,196479,6,0,L|417:159,1,51.7500009870529,14|0,3:2|0:2,0:0:0:0:
338,67,196635,2,0,L|367:-26,1,51.7500009870529,2|0,0:2|0:2,0:0:0:0:
253,63,196791,2,0,L|251:160,1,51.7500009870529,10|0,0:2|0:2,0:0:0:0:
173,54,196947,2,0,L|202:-39,1,51.7500009870529,2|0,0:2|0:2,0:0:0:0:
137,133,197104,6,0,L|85:138,1,51.7500009870529,10|0,0:2|0:2,0:0:0:0:
151,218,197260,2,0,L|227:224,1,51.7500009870529,2|0,0:2|0:2,0:0:0:0:
239,336,197416,6,0,L|168:304,1,51.7500009870529,14|0,0:2|0:2,0:0:0:0:
138,380,197572,2,0,L|62:362,1,51.7500009870529,2|0,0:2|0:2,0:0:0:0:
74,273,197729,5,10,0:2:0:0:
49,228,197807,1,0,0:0:0:0:
53,177,197885,1,10,0:2:0:0:
85,138,197963,1,0,0:0:0:0:
137,133,198041,2,0,P|203:122|244:64,1,103.500001974106,10|10,0:2|0:2,0:0:0:0:
144,31,198354,5,10,0:2:0:0:
210,282,198510,1,10,0:2:0:0:
291,16,198666,5,10,0:2:0:0:
53,177,198822,1,10,0:2:0:0:
105,105,203716,6,0,B|87:235|200:179|169:343,1,243.000000926971,0|0,0:0|3:2,0:0:0:0:
313,367,204210,2,0,L|328:219,1,121.500000463486,10|0,0:2|0:0,0:0:0:0:
316,111,204540,1,2,3:2:0:0:
171,326,204705,1,0,3:2:0:0:
434,329,204869,1,10,0:2:0:0:
321,20,205034,6,0,B|215:13|221:153|70:93,1,243.000000926971,2|0,3:2|3:2,0:0:0:0:
197,317,205529,1,10,0:2:0:0:
0,211,205694,2,0,P|61:212|126:247,1,121.500000463486,2|0,0:2|3:2,0:0:0:0:
297,341,206023,2,0,P|301:258|257:192,1,121.500000463486,2|8,3:2|0:2,0:0:0:0:
384,40,206353,6,0,P|379:100|529:216,1,243.000000926971,2|0,3:2|3:2,0:0:0:0:
483,101,206847,1,10,0:2:0:0:
285,224,207012,6,0,P|245:321|255:360,1,121.500000463486,2|0,0:2|3:2,0:0:0:0:
454,355,207342,2,0,P|406:313|323:302,1,121.500000463486,2|8,3:2|0:2,0:0:0:0:
208,165,207672,6,0,L|252:15,1,121.500000463486,2|0,3:2|0:0,0:0:0:0:
49,240,208001,2,0,P|154:239|248:339,1,243.000000926971,2|0,3:2|0:0,0:0:0:0:
113,341,208496,5,2,3:2:0:0:
89,126,208661,1,2,3:2:0:0:
49,240,208825,1,10,0:2:0:0:
330,212,208990,6,0,P|401:199|485:237,1,121.500000463486,6|0,3:2|0:0,0:0:0:0:
512,53,209320,2,0,P|441:71|390:117,1,121.500000463486,2|8,3:2|0:2,0:0:0:0:
243,285,209650,2,0,B|173:168|292:168|214:40,1,243.000000926971,2|0,0:2|3:2,0:0:0:0:
136,121,210144,1,10,0:2:0:0:
343,219,210309,6,0,P|362:267|337:358,1,121.500000463486,6|0,3:2|0:0,0:0:0:0:
492,170,210639,2,0,P|461:120|400:99,1,121.500000463486,2|8,3:2|0:2,0:0:0:0:
144,309,210968,2,0,P|179:364|276:379,1,121.500000463486,2|0,0:2|3:2,0:0:0:0:
351,334,211298,5,2,3:2:0:0:
242,284,211463,1,10,0:2:0:0:
488,258,211628,2,0,P|475:334|489:376,1,121.500000463486,6|0,3:2|0:0,0:0:0:0:
404,100,211957,2,0,P|417:176|403:218,1,121.500000463486,6|8,3:2|0:2,0:0:0:0:
205,218,212287,2,0,P|266:170|309:163,1,121.500000463486,6|0,3:2|0:0,0:0:0:0:
26,218,212617,2,0,P|99:193|129:161,1,121.500000463486,6|8,3:2|0:2,0:0:0:0:
488,178,212946,6,0,P|475:102|489:60,1,121.500000463486,6|0,3:2|0:0,0:0:0:0:
404,336,213276,2,0,P|417:260|401:215,1,121.500000463486,6|8,3:2|0:2,0:0:0:0:
205,218,213606,2,0,P|266:265|309:272,1,121.500000463486,6|0,3:2|0:0,0:0:0:0:
207,110,213935,5,8,0:2:0:0:
148,122,214018,1,8,0:2:0:0:
106,164,214100,1,8,0:2:0:0:
94,223,214183,1,8,0:2:0:0:
116,279,214265,6,0,P|166:334|243:351,1,121.500000463486,6|0,3:2|0:0,0:0:0:0:
205,218,214595,1,0,3:2:0:0:
1,291,214759,2,0,P|-9:231|0:172,1,121.500000463486,10|0,0:2|0:0,0:0:0:0:
205,218,215089,1,2,3:2:0:0:
106,164,215254,1,0,3:2:0:0:
116,279,215419,1,10,0:2:0:0:
353,196,215584,6,0,P|286:72|344:-15,1,243.000000926971,2|0,3:2|3:2,0:0:0:0:
190,89,216078,1,10,0:2:0:0:
399,88,216243,2,0,P|475:103|527:144,1,121.500000463486,2|0,0:2|3:2,0:0:0:0:
388,324,216573,6,0,P|317:327|260:268,1,121.500000463486,2|8,3:2|0:2,0:0:0:0:
503,111,216902,2,0,L|491:360,1,243.000000926971,2|0,3:2|3:2,0:0:0:0:
388,324,217397,1,10,0:2:0:0:
272,88,217562,6,0,P|286:159|265:231,1,121.500000463486,2|0,0:2|3:2,0:0:0:0:
123,27,217891,2,0,P|109:98|130:170,1,121.500000463486,2|8,3:2|0:2,0:0:0:0:
82,315,218221,2,0,P|48:250|-26:193,1,121.500000463486,2|0,3:2|0:0,0:0:0:0:
198,285,218551,6,0,P|259:322|381:218,1,243.000000926971,2|0,3:2|0:0,0:0:0:0:
350,129,219045,1,2,3:2:0:0:
277,205,219210,1,2,3:2:0:0:
381,232,219375,1,10,0:2:0:0:
344,33,219540,6,0,P|278:61|245:133,1,121.500000463486,6|0,3:2|0:0,0:0:0:0:
84,116,219869,2,0,P|149:144|183:216,1,121.500000463486,2|8,3:2|0:2,0:0:0:0:
285,312,220199,2,0,B|422:281|324:198|490:173,1,243.000000926971,2|0,0:2|3:2,0:0:0:0:
280,219,220694,5,10,0:2:0:0:
280,219,220776,1,0,0:0:0:0:
280,219,220858,2,0,L|244:73,1,121.500000463486,6|0,3:2|0:0,0:0:0:0:
147,302,221188,2,0,L|183:156,1,121.500000463486,2|8,3:2|0:2,0:0:0:0:
70,384,221518,2,0,L|14:116,1,243.000000926971,2|0,0:2|3:2,0:0:0:0:
247,272,222177,6,0,P|246:331|169:392,1,121.500000463486,6|0,3:2|0:0,0:0:0:0:
296,188,222507,2,0,P|337:230|325:328,1,121.500000463486,6|8,3:2|0:2,0:0:0:0:
259,116,222836,2,0,P|260:57|337:-4,1,121.500000463486,6|0,3:2|0:0,0:0:0:0:
216,196,223166,2,0,P|174:153|186:55,1,121.500000463486,6|8,3:2|0:2,0:0:0:0:
350,86,223496,6,0,P|424:103|469:157,1,121.500000463486,6|0,3:2|0:0,0:0:0:0:
441,228,223825,2,0,P|370:257|334:317,1,121.500000463486,6|8,3:2|0:2,0:0:0:0:
162,298,224155,2,0,P|87:280|42:226,1,121.500000463486,6|0,3:2|0:0,0:0:0:0:
71,156,224485,2,0,P|142:127|178:67,1,121.500000463486,6|8,3:2|0:2,0:0:0:0:
188,3,224814,1,2,0:2:0:0:
265,141,224979,6,0,L|250:278,1,121.500000463486,6|0,3:2|3:2,0:0:0:0:
432,371,225309,2,0,P|392:314|314:292,1,121.500000463486,10|0,0:2|3:2,0:0:0:0:
274,368,225639,1,2,3:2:0:0:
378,188,225803,1,2,3:2:0:0:
251,261,225968,1,10,0:2:0:0:
492,254,226133,2,0,L|479:88,1,121.500000463486,2|0,3:2|3:2,0:0:0:0:
206,152,226463,6,0,P|158:173|135:263,1,121.500000463486,2|8,3:2|0:2,0:0:0:0:
251,261,226792,1,2,3:2:0:0:
287,93,226957,2,0,P|247:58|156:75,1,121.500000463486,2|2,3:2|3:2,0:0:0:0:
81,124,227287,1,10,0:2:0:0:
378,188,227452,6,0,P|387:286|527:306,1,243.000000926971,6|0,3:2|3:2,0:0:0:0:
406,71,227946,2,0,L|254:98,1,121.500000463486,10|0,0:2|3:2,0:0:0:0:
218,203,228276,1,2,3:2:0:0:
378,188,228441,1,2,3:2:0:0:
287,93,228606,1,10,0:2:0:0:
391,303,228770,6,0,P|440:283|484:190,1,121.500000463486,2|0,3:2|3:2,0:0:0:0:
109,143,229100,2,0,L|137:400,1,243.000000926971,2|2,3:2|3:2,0:0:0:0:
247,321,229595,1,2,3:2:0:0:
27,272,229759,1,2,3:2:0:0:
135,384,229924,1,10,0:2:0:0:
228,210,230089,6,0,P|306:213|351:365,1,243.000000926971,6|0,3:2|3:2,0:0:0:0:
486,313,230584,2,0,P|462:251|464:185,1,121.500000463486,10|0,0:2|3:2,0:0:0:0:
497,159,230831,1,8,0:2:0:0:
497,159,230913,1,2,3:2:0:0:
358,350,231078,1,2,3:2:0:0:
338,65,231243,2,0,B|205:69|286:179|88:144,1,243.000000926971,10|0,0:2|3:2,0:0:0:0:
142,329,231737,6,0,L|308:312,1,121.500000463486,2|8,3:2|0:2,0:0:0:0:
358,350,232067,1,2,3:2:0:0:
259,225,232232,2,0,L|425:208,1,121.500000463486,2|2,3:2|3:2,0:0:0:0:
464,158,232562,1,10,0:2:0:0:
142,329,232726,6,0,L|116:216,1,90,6|0,3:2|0:0,0:0:0:0:
24,297,233056,2,0,L|50:410,1,90,6|8,3:2|0:2,0:0:0:0:
173,144,233386,6,0,P|120:132|62:157,1,90,6|0,3:2|0:0,0:0:0:0:
225,62,233716,2,0,P|278:74|336:49,1,90,6|8,3:2|0:2,0:0:0:0:
420,8,234045,6,0,L|413:108,1,90,6|0,3:2|0:0,0:0:0:0:
512,206,234375,2,0,L|506:100,1,90,6|8,3:2|0:2,0:0:0:0:
429,260,234705,6,0,P|470:295|533:300,1,90,6|0,3:2|0:0,0:0:0:0:
344,307,235034,2,0,P|302:271|239:266,1,90,6|0,3:2|0:0,0:0:0:0:
89,207,235529,5,14,0:2:0:0:
269,263,235694,1,0,3:2:0:0:
269,263,235858,1,0,3:2:0:0:
143,111,236023,5,14,0:2:0:0:
179,341,236188,1,0,3:2:0:0:
179,341,236353,1,0,3:2:0:0:
257,66,236518,5,14,0:2:0:0:
64,328,236683,1,10,0:2:0:0:
169,126,246070,6,0,L|23:110,1,116.999994644165,4|0,1:2|0:2,0:0:0:0:
60,264,246382,1,10,0:2:0:0:
302,279,246538,2,0,B|283:194|283:194|302:151|302:151|283:15,1,233.999989288331,2|0,0:2|1:2,0:0:0:0:
407,344,247007,1,10,0:2:0:0:
430,243,247163,2,0,L|451:105,2,116.999994644165,2|0|0,0:2|1:2|0:2,0:0:0:0:
407,344,247632,1,10,0:2:0:0:
55,254,247788,6,0,L|171:246,1,116.999994644165,2|0,0:2|1:2,0:0:0:0:
265,359,248101,2,0,L|148:351,1,116.999994644165,2|8,1:2|0:2,0:0:0:0:
1,176,248413,1,2,0:2:0:0:
113,94,248570,6,0,B|220:63|229:185|353:120,1,233.999989288331,0|10,1:2|0:2,0:0:0:0:
504,177,249038,2,0,P|453:187|388:253,1,116.999994644165,2|0,0:2|1:2,0:0:0:0:
318,35,249351,2,0,P|363:46|419:115,1,116.999994644165,2|8,1:2|0:2,0:0:0:0:
499,373,249663,6,0,P|485:317|506:248,1,116.999994644165,2|0,0:2|1:2,0:0:0:0:
496,83,249976,1,2,0:2:0:0:
301,211,250132,2,0,P|243:222|170:184,1,116.999994644165,10|0,0:2|0:2,0:0:0:0:
12,287,250445,6,0,P|61:281|184:348,1,175.499991966248,2|0,1:2|0:0,0:0:0:0:
263,359,250757,2,0,P|308:367|381:340,1,116.999994644165,10|2,0:2|0:2,0:0:0:0:
179,97,251070,2,0,P|128:124|105:202,1,116.999994644165,4|0,1:2|0:2,0:0:0:0:
172,332,251382,1,10,0:2:0:0:
301,228,251538,6,0,B|289:135|289:135|308:86|308:86|293:-24,1,233.999989288331,2|2,0:2|1:2,0:0:0:0:
104,176,252007,1,10,0:2:0:0:
392,44,252163,2,0,P|440:41|499:195,1,233.999989288331,2|0,0:2|0:2,0:0:0:0:
419,325,252632,1,10,0:2:0:0:
268,200,252788,6,0,L|428:234,1,116.999994644165,2|0,0:2|1:2,0:0:0:0:
235,298,253101,2,0,L|75:332,1,116.999994644165,2|8,1:2|0:2,0:0:0:0:
137,159,253413,1,2,0:2:0:0:
274,96,253570,6,0,P|306:82|349:33,1,90,6|2,1:2|0:2,0:0:0:0:
479,34,253882,2,0,B|472:95|472:95|490:132|490:132|487:245,1,180,10|0,0:2|1:2,0:0:0:0:
397,298,254351,1,0,1:2:0:0:
268,200,254507,2,0,P|207:185|157:193,1,90,12|0,0:2|0:0,0:0:0:0:
48,77,254820,5,8,1:2:0:0:
49,103,254898,1,8,0:2:0:0:
50,130,254976,1,8,0:2:0:0:
51,157,255054,1,8,0:2:0:0:
87,174,255132,5,8,1:2:0:0:
88,200,255210,1,8,0:2:0:0:
89,227,255288,1,8,0:2:0:0:
90,254,255366,1,8,0:2:0:0:
128,268,255445,5,10,1:2:0:0:
150,306,255523,1,8,0:2:0:0:
185,333,255601,1,10,0:2:0:0:
229,344,255679,1,8,0:2:0:0:
273,337,255757,1,10,1:2:0:0:
310,313,255835,1,8,0:2:0:0:
336,276,255913,1,10,0:2:0:0:
344,232,255991,1,8,0:2:0:0:
353,187,256070,6,0,P|402:155|484:165,1,116.999994644165,4|0,1:2|0:2,0:0:0:0:
429,245,256382,1,14,0:2:0:0:
327,89,256538,2,0,P|256:125|132:43,1,233.999989288331,2|0,0:2|1:2,0:0:0:0:
134,51,257007,1,10,0:2:0:0:
133,214,257163,1,2,0:2:0:0:
292,0,257320,2,0,P|328:-6|420:69,1,116.999994644165,0|0,1:2|0:2,0:0:0:0:
327,89,257632,1,10,0:2:0:0:
127,303,257788,6,0,P|70:330|-8:311,1,116.999994644165,2|0,0:2|1:2,0:0:0:0:
231,212,258101,2,0,P|271:218|344:269,1,116.999994644165,2|8,1:2|0:2,0:0:0:0:
88,9,258413,2,0,B|85:94|85:94|55:144|55:144|56:249,1,233.999989288331,2|0,0:2|0:2,0:0:0:0:
127,303,258882,1,10,0:2:0:0:
247,22,259038,6,0,P|270:77|265:152,1,116.999994644165,2|0,0:2|1:2,0:0:0:0:
312,336,259351,2,0,P|277:268|283:214,1,116.999994644165,2|8,1:2|0:2,0:0:0:0:
72,80,259663,2,0,P|133:74|188:112,1,116.999994644165,2|0,0:2|1:2,0:0:0:0:
426,32,259976,2,0,B|353:136|499:163|360:278,1,233.999989288331,2|0,0:2|0:2,0:0:0:0:
482,299,260445,5,2,1:2:0:0:
327,173,260601,1,2,1:2:0:0:
493,87,260757,1,10,0:2:0:0:
482,299,260913,1,2,0:2:0:0:
225,224,261070,6,0,P|155:241|99:284,1,116.999994644165,4|0,1:2|0:2,0:0:0:0:
43,355,261382,1,10,0:2:0:0:
217,341,261538,2,0,P|295:323|445:382,1,233.999989288331,2|0,0:2|1:2,0:0:0:0:
371,244,262007,1,10,0:2:0:0:
217,341,262163,1,2,0:2:0:0:
237,196,262320,5,8,0:2:0:0:
275,207,262398,1,0,0:0:0:0:
316,223,262476,2,0,L|408:258,1,58.4999973220826,0|0,1:2|0:0,0:0:0:0:
482,175,262632,2,0,L|354:135,1,116.999994644165,8|0,0:2|1:2,0:0:0:0:
106,278,262945,6,0,P|164:278|217:306,1,116.999994644165,10|8,1:2|0:2,0:0:0:0:
230,338,263179,1,8,0:2:0:0:
230,338,263257,1,14,0:2:0:0:
67,377,263413,1,2,0:2:0:0:
36,140,263570,5,12,0:2:0:0:
106,278,263726,1,0,1:2:0:0:
143,50,263882,5,10,0:2:0:0:
184,178,264038,1,2,1:2:0:0:
289,21,264195,5,8,0:2:0:0:
285,265,264351,1,0,1:2:0:0:
430,44,264507,5,10,0:2:0:0:
366,178,264663,1,2,1:2:0:0:
472,343,264820,5,12,0:2:0:0:
477,144,264976,1,0,1:2:0:0:
239,142,265132,5,10,0:2:0:0:
397,275,265288,1,2,1:2:0:0:
342,85,265445,5,8,0:2:0:0:
285,281,265601,1,2,1:2:0:0:
211,40,265757,5,8,0:2:0:0:
366,178,265913,1,2,1:2:0:0:
135,132,266070,6,0,L|-3:154,1,116.999994644165,12|0,0:2|1:2,0:0:0:0:
6,245,266382,1,10,0:2:0:0:
52,50,266538,5,2,1:2:0:0:
140,270,266695,1,8,0:2:0:0:
135,132,266851,5,2,1:2:0:0:
48,342,267007,1,8,0:2:0:0:
233,194,267163,5,2,1:2:0:0:
6,245,267320,1,8,0:2:0:0:
172,384,267476,5,2,1:2:0:0:
172,384,267554,1,0,0:0:0:0:
172,384,267632,1,10,0:2:0:0:
48,342,267788,1,0,1:2:0:0:
233,194,267945,5,10,0:2:0:0:
283,325,268101,1,2,1:2:0:0:
331,70,268257,1,10,0:2:0:0:
335,181,268413,1,2,1:2:0:0:
36,244,268570,5,14,0:2:0:0:
115,98,268726,1,0,1:2:0:0:
143,334,268882,5,10,0:2:0:0:
184,206,269038,1,2,1:2:0:0:
289,363,269195,5,8,0:2:0:0:
285,119,269351,1,2,1:2:0:0:
430,340,269507,5,8,0:2:0:0:
366,206,269663,1,2,1:2:0:0:
472,41,269820,5,12,0:2:0:0:
477,240,269976,1,0,1:2:0:0:
239,242,270132,5,10,0:2:0:0:
397,109,270288,1,2,1:2:0:0:
342,299,270445,5,8,0:2:0:0:
285,119,270601,1,2,1:2:0:0:
211,344,270757,5,8,0:2:0:0:
331,198,270913,1,2,1:2:0:0:
135,252,271070,6,0,L|-11:238,1,116.999994644165,14|2,0:2|1:2,0:0:0:0:
7,151,271382,1,10,0:2:0:0:
52,334,271538,5,0,1:2:0:0:
140,114,271695,1,8,0:2:0:0:
134,251,271851,5,0,1:2:0:0:
48,42,272007,1,8,0:2:0:0:
233,190,272163,5,0,1:2:0:0:
8,144,272320,6,0,L|-2:212,1,58.4999973220826,8|8,3:2|3:2,0:0:0:0:
85,312,272476,2,0,L|95:219,1,58.4999973220826,8|0,3:2|0:0,0:0:0:0:
135,99,272632,6,0,L|125:167,1,58.4999973220826,8|0,0:2|0:0,0:0:0:0:
184,335,272788,2,0,L|194:242,1,58.4999973220826,8|8,3:2|3:2,0:0:0:0:
233,190,272945,5,10,1:2:0:0:
261,155,273023,1,8,0:2:0:0:
300,134,273101,1,10,0:2:0:0:
345,128,273179,1,8,0:2:0:0:
388,140,273257,1,10,1:2:0:0:
424,166,273335,1,8,0:2:0:0:
448,204,273413,1,10,0:2:0:0:
456,248,273491,1,0,0:2:0:0:
447,292,273570,6,0,L|303:313,1,116.999994644165,4|0,1:2|0:2,0:0:0:0:
207,343,273882,1,10,0:2:0:0:
275,173,274038,2,0,B|414:159|334:67|505:41,1,233.999989288331,2|0,0:2|1:2,0:0:0:0:
480,151,274507,1,10,0:2:0:0:
280,67,274663,2,0,P|194:91|87:-17,1,233.999989288331,2|0,0:2|0:2,0:0:0:0:
203,0,275132,1,10,0:2:0:0:
56,143,275288,6,0,L|35:263,1,116.999994644165,2|0,0:2|1:2,0:0:0:0:
139,234,275601,2,0,L|163:369,1,116.999994644165,2|8,1:2|0:2,0:0:0:0:
67,353,275913,1,2,0:2:0:0:
266,294,276070,2,0,B|274:204|274:204|257:165|257:165|285:42,1,233.999989288331,2|10,1:2|0:2,0:0:0:0:
362,19,276538,2,0,P|378:50|366:142,1,116.999994644165,2|0,0:2|1:2,0:0:0:0:
469,167,276851,2,0,P|453:198|461:302,1,116.999994644165,2|8,1:2|0:2,0:0:0:0:
373,356,277163,6,0,P|299:366|230:328,1,116.999994644165,2|0,0:2|1:2,0:0:0:0:
233,333,277398,1,0,0:0:0:0:
233,333,277476,1,2,0:2:0:0:
95,215,277632,2,0,P|153:208|209:225,1,116.999994644165,8|0,0:2|0:2,0:0:0:0:
11,284,277945,5,2,1:2:0:0:
233,333,278101,1,2,1:2:0:0:
78,384,278257,1,10,0:2:0:0:
84,98,278413,6,0,B|223:79|140:214|303:182,1,233.999989288331,2|0,0:2|0:2,0:0:0:0:
286,70,278882,1,10,0:2:0:0:
181,18,279038,2,0,P|119:5|35:27,1,116.999994644165,2|0,0:2|1:2,0:0:0:0:
192,265,279351,2,0,P|254:278|330:253,1,116.999994644165,2|8,1:2|0:2,0:0:0:0:
201,143,279663,1,2,0:2:0:0:
24,248,279820,5,8,1:2:0:0:
25,292,279898,1,8,0:2:0:0:
46,331,279976,1,8,0:2:0:0:
82,357,280054,1,8,0:2:0:0:
127,364,280132,1,10,0:2:0:0:
171,367,280210,1,8,0:2:0:0:
216,370,280288,1,8,0:2:0:0:
261,373,280366,1,8,0:2:0:0:
306,376,280445,6,0,L|375:351,1,45,2|0,0:2|0:0,0:0:0:0:
443,303,280601,2,0,L|374:277,1,45,0|0,1:2|0:0,0:0:0:0:
282,272,280757,2,0,L|350:246,1,45,10|0,0:2|0:0,0:0:0:0:
418,198,280913,2,0,L|349:172,1,45,0|0,1:2|0:0,0:0:0:0:
284,149,281070,5,6,1:2:0:0:
284,149,281148,1,0,0:0:0:0:
284,149,281226,1,2,1:2:0:0:
361,55,281382,1,10,0:2:0:0:
125,60,281538,2,0,P|170:47|237:50,1,90,2|0,0:2|1:2,0:0:0:0:
47,151,281851,2,0,P|92:164|168:163,1,90,2|8,1:2|0:2,0:0:0:0:
234,264,282163,6,0,P|141:262|115:266,1,90,2|0,0:2|1:2,0:0:0:0:
169,363,282476,2,0,P|76:361|50:365,1,90,2|8,1:2|0:2,0:0:0:0:
144,261,282788,1,2,0:2:0:0:
305,349,282945,5,2,1:2:0:0:
305,349,283023,1,2,0:2:0:0:
305,349,283101,2,0,L|356:308,1,45,2|2,1:2|0:2,0:0:0:0:
351,229,283257,5,10,0:2:0:0:
351,229,283335,1,2,0:2:0:0:
351,229,283413,2,0,L|411:254,1,45,2|2,0:2|0:2,0:0:0:0:
446,335,283570,5,6,1:2:0:0:
389,127,283726,1,2,1:2:0:0:
495,191,283882,1,10,0:2:0:0:
328,46,284038,6,0,L|239:56,1,90,2|0,0:2|1:2,0:0:0:0:
131,162,284351,2,0,L|237:151,1,90,2|8,1:2|0:2,0:0:0:0:
10,74,284663,6,0,L|23:186,1,90,2|0,0:2|1:2,0:0:0:0:
120,251,284976,2,0,L|131:162,1,90,2|8,1:2|0:2,0:0:0:0:
71,341,285288,1,2,0:2:0:0:
251,222,285445,5,2,1:2:0:0:
251,222,285523,1,2,0:2:0:0:
251,222,285601,2,0,L|314:233,1,45,2|2,1:2|0:2,0:0:0:0:
331,321,285757,5,10,0:2:0:0:
331,321,285835,1,2,0:2:0:0:
331,321,285913,2,0,L|392:303,1,45,2|2,0:2|0:2,0:0:0:0:
403,209,286070,5,6,1:2:0:0:
431,78,286226,1,2,1:2:0:0:
510,162,286382,1,10,0:2:0:0:
331,321,286538,6,0,L|241:311,1,90,2|0,0:2|1:2,0:0:0:0:
134,206,286851,2,0,L|240:217,1,90,2|8,1:2|0:2,0:0:0:0:
32,294,287163,6,0,L|45:182,1,90,2|0,0:2|1:2,0:0:0:0:
123,116,287476,2,0,L|133:205,1,90,2|8,1:2|0:2,0:0:0:0:
74,27,287788,1,2,0:2:0:0:
254,146,287945,5,2,1:2:0:0:
254,146,288023,1,2,0:2:0:0:
254,146,288101,2,0,L|317:135,1,45,2|2,1:2|0:2,0:0:0:0:
334,47,288257,5,10,0:2:0:0:
334,47,288335,1,2,0:2:0:0:
334,47,288413,2,0,L|395:64,1,45,2|2,0:2|0:2,0:0:0:0:
497,110,288570,5,10,1:2:0:0:
491,154,288648,1,8,0:2:0:0:
485,199,288726,1,10,0:2:0:0:
479,243,288804,1,8,0:2:0:0:
473,288,288882,2,0,P|431:324|379:332,1,90,10|2,0:2|0:2,0:0:0:0:
299,336,289195,1,8,0:2:0:0:
394,155,289351,2,0,L|381:275,1,90,6|0,1:2|0:0,0:0:0:0:
497,110,289663,1,6,1:2:0:0:
256,192,289741,12,0,297085,0:0:0:0:
73,65,304250,6,0,L|88:159,1,67.5000025749208,6|0,3:2|0:2,0:0:0:0:
140,215,304556,6,0,P|184:249|232:247,1,90,2|10,3:2|3:0,0:0:0:0:
319,135,304862,2,0,L|230:148,1,90,0|0,3:2|3:2,0:0:0:0:
423,177,305168,2,0,P|427:131|403:72,1,90,10|0,3:0|3:2,0:0:0:0:
197,58,305474,5,8,3:0:0:0:
197,58,305627,1,0,1:2:0:0:
140,215,305780,2,0,L|33:236,1,90,0|0,3:0|3:2,0:0:0:0:
291,288,306086,1,8,3:0:0:0:
93,348,306239,1,0,1:2:0:0:
291,288,306392,5,8,0:2:0:0:
441,329,306698,6,0,L|424:225,1,90,6|0,3:2|3:2,0:0:0:0:
372,169,307004,2,0,P|334:145|266:143,1,90,8|2,3:0|3:2,0:0:0:0:
193,249,307310,2,0,L|296:237,1,90,8|0,3:0|3:2,0:0:0:0:
89,207,307616,2,0,P|85:253|119:320,1,90,10|0,3:0|3:2,0:0:0:0:
315,326,307922,5,10,3:0:0:0:
315,326,308075,1,0,3:2:0:0:
372,168,308228,2,0,L|488:144,1,90,8|0,3:0|3:2,0:0:0:0:
221,96,308534,1,8,0:2:0:0:
419,36,308687,1,0,3:2:0:0:
221,96,308840,5,10,0:2:0:0:
221,96,309147,6,0,P|167:134|158:229,1,135,6|0,3:2|0:0,0:0:0:0:
160,252,309454,5,8,3:2:0:0:
150,295,309530,1,8,0:2:0:0:
119,326,309607,1,8,0:2:0:0:
75,334,309683,1,8,0:2:0:0:
34,317,309760,1,8,3:2:0:0:
10,280,309836,1,8,0:2:0:0:
10,236,309913,1,8,0:2:0:0:
29,196,309989,1,8,0:2:0:0:
67,173,310066,1,8,3:2:0:0:
112,174,310142,1,8,0:2:0:0:
149,198,310219,6,0,L|200:232,1,45,8|8,0:2|0:2,0:0:0:0:
279,282,310372,6,0,L|228:316,1,45,8|8,0:2|0:2,0:0:0:0:
298,183,310525,1,8,0:0:0:0:
298,183,310602,1,8,0:0:0:0:
298,183,310678,5,8,3:2:0:0:
346,189,310754,1,8,0:2:0:0:
383,222,310831,1,8,0:2:0:0:
396,268,310907,1,8,0:2:0:0:
382,315,310984,6,0,L|339:354,1,49.5000015106202,8|8,3:2|0:2,0:0:0:0:
476,233,311137,2,0,L|518:272,1,49.5000015106202,8|8,0:2|0:2,0:0:0:0:
382,155,311290,6,0,L|339:194,1,49.5000015106202,8|8,3:2|0:2,0:0:0:0:
476,73,311443,2,0,L|518:112,1,49.5000015106202,8|8,0:2|0:2,0:0:0:0:
315,50,311596,6,0,L|230:73,1,49.5000015106202,10|0,3:2|0:2,0:0:0:0:
169,71,311750,1,0,0:0:0:0:
128,84,311826,1,8,0:2:0:0:
90,115,311902,1,8,3:2:0:0:
76,162,311979,1,8,0:2:0:0:
87,209,312055,1,8,0:2:0:0:
122,244,312132,1,8,0:2:0:0:
169,255,312209,6,0,L|236:237,1,49.5000015106202,8|8,3:2|0:2,0:0:0:0:
368,222,312362,2,0,L|292:257,1,49.5000015106202,8|8,0:2|0:2,0:0:0:0:
234,146,312515,1,10,3:2:0:0:
234,146,312591,1,8,0:2:0:0:
234,146,312668,1,8,0:2:0:0:
383,320,312821,6,0,P|432:308|435:164,2,202.500007724762,6|2|2,0:2|0:2|0:2,0:0:0:0:
348,68,314045,2,0,L|486:54,1,121.500000463486,6|0,3:2|0:2,0:0:0:0:
179,200,314352,5,14,0:2:0:0:
314,207,314505,1,2,0:2:0:0:
107,285,314658,2,0,P|72:228|92:149,1,121.500000463486,2|0,3:2|3:2,0:0:0:0:
231,98,314964,1,10,0:2:0:0:
314,209,315117,1,2,0:2:0:0:
135,56,315270,2,0,P|184:7|265:8,1,121.500000463486,2|0,3:2|3:2,0:0:0:0:
214,322,315576,6,0,L|185:186,1,121.500000463486,10|0,0:2|0:2,0:0:0:0:
420,17,315882,2,0,B|357:137|491:131|406:296,1,243.000000926971,2|10,3:2|0:2,0:0:0:0:
323,346,316341,1,0,0:0:0:0:
102,236,316494,6,0,P|106:129|232:124,1,243.000000926971,6|8,3:2|0:2,0:0:0:0:
323,310,316954,1,2,0:2:0:0:
461,264,317107,2,0,L|490:139,1,121.500000463486,2|0,3:2|3:2,0:0:0:0:
448,31,317413,1,10,0:2:0:0:
254,78,317566,6,0,P|200:130|112:132,1,121.500000463486,2|0,0:2|3:2,0:0:0:0:
42,163,317872,1,2,3:2:0:0:
120,289,318025,2,0,B|203:287|203:287|253:329|253:329|360:322,1,243.000000926971,8|0,0:2|3:2,0:0:0:0:
460,310,318484,1,0,3:2:0:0:
405,104,318637,5,0,0:0:0:0:
404,134,318714,1,8,0:2:0:0:
405,164,318790,1,0,0:0:0:0:
404,195,318867,1,8,0:2:0:0:
405,225,318943,6,0,L|264:232,1,121.500000463486,6|0,3:2|0:2,0:0:0:0:
282,125,319250,1,14,0:2:0:0:
499,275,319403,1,2,0:2:0:0:
282,125,319556,2,0,L|413:134,1,121.500000463486,2|0,3:2|3:2,0:0:0:0:
386,264,319862,1,10,0:2:0:0:
504,175,320015,1,2,0:2:0:0:
437,34,320168,2,0,L|302:23,1,121.500000463486,2|0,3:2|3:2,0:0:0:0:
183,109,320474,1,10,0:2:0:0:
315,24,320627,1,2,0:2:0:0:
128,333,320780,6,0,P|127:271|82:197,1,121.500000463486,2|0,3:2|3:2,0:0:0:0:
17,132,321086,1,0,0:0:0:0:
11,284,321239,1,0,0:0:0:0:
219,272,321392,6,0,P|292:218|306:175,1,121.500000463486,2|0,0:2|3:2,0:0:0:0:
423,85,321698,2,0,P|403:127|427:243,1,121.500000463486,10|0,0:2|0:2,0:0:0:0:
511,384,322005,2,0,B|444:273|577:260|478:111,1,243.000000926971,2|10,3:2|0:2,0:0:0:0:
487,13,322464,2,0,P|430:-12|350:17,1,121.500000463486,2|0,0:2|3:2,0:0:0:0:
296,78,322770,1,2,3:2:0:0:
405,201,322923,6,0,P|404:276|293:280,1,182.250000695229,12|0,0:2|0:0,0:0:0:0:
272,266,323229,1,8,3:2:0:0:
225,227,323306,1,8,3:2:0:0:
167,212,323382,1,8,3:2:0:0:
108,225,323459,1,8,3:2:0:0:
60,261,323535,2,0,L|75:345,1,67.5000025749208,0|2,0:0|0:2,0:0:0:0:
94,119,323841,5,14,0:2:0:0:
180,329,323994,1,0,3:2:0:0:
94,119,324147,1,2,3:2:0:0:
272,97,324301,5,14,0:2:0:0:
60,261,324454,1,0,3:2:0:0:
272,97,324607,1,2,3:2:0:0:
0,86,324760,5,14,0:2:0:0:
300,276,324913,1,0,3:2:0:0:
0,86,325066,1,0,3:2:0:0:
180,329,325219,5,12,0:2:0:0:
163,32,325372,1,0,3:2:0:0:
180,329,325525,1,0,3:2:0:0:
65,69,325678,5,10,3:2:0:0:
103,123,325754,1,8,0:2:0:0:
166,143,325831,1,8,0:2:0:0:
228,121,325907,1,8,0:2:0:0:
265,66,325984,1,10,3:2:0:0:
180,329,326137,1,10,0:2:0:0:
180,329,326214,1,8,0:2:0:0:
180,329,326290,1,6,3:2:0:0:
163,32,326596,5,10,0:2:0:0:
310,210,326750,1,10,0:2:0:0:
406,46,326903,5,8,0:2:0:0:
80,227,327056,1,10,0:2:0:0:
286,0,327209,5,10,0:2:0:0:
309,358,327362,1,8,0:2:0:0:
159,180,327515,5,8,3:2:0:0:
159,180,327591,1,8,3:2:0:0:
159,180,327668,2,0,L|236:143,1,67.5000025749208,8|8,3:2|3:2,0:0:0:0:
272,53,327821,1,8,3:2:0:0:
272,53,327897,1,8,3:2:0:0:
272,53,327974,2,0,L|188:34,1,67.5000025749208,8|8,3:2|3:2,0:0:0:0:
51,115,328127,6,0,L|42:46,1,67.5000025749208,12|8,3:2|0:2,0:0:0:0:
159,112,328280,2,0,L|159:180,1,67.5000025749208,8|8,0:2|0:2,0:0:0:0:
61,282,328433,2,0,L|50:200,1,67.5000025749208,14|8,3:2|0:2,0:0:0:0:
175,281,328586,2,0,L|164:353,1,67.5000025749208,10|8,0:2|0:2,0:0:0:0:
348,268,328739,6,0,B|287:138|413:140|327:-37,1,270.000010299683,6|10,3:2|0:2,0:0:0:0:
191,76,329198,1,0,0:2:0:0:
445,246,329352,2,0,P|439:333|274:332,1,270.000010299683,2|10,3:2|0:2,0:0:0:0:
64,186,329811,5,2,0:2:0:0:
193,76,329964,2,0,L|162:359,1,270.000010299683,2|10,3:2|0:2,0:0:0:0:
66,187,330423,1,2,0:2:0:0:
356,282,330576,6,0,P|438:233|443:365,1,270.000010299683,2|10,3:2|0:2,0:0:0:0:
163,344,331035,1,0,0:0:0:0:
341,158,331188,6,0,P|400:132|497:156,1,135.000005149842,6|0,3:2|0:2,0:0:0:0:
253,72,331494,2,0,P|193:35|97:55,1,135.000005149842,10|0,0:2|0:2,0:0:0:0:
94,258,331801,2,0,B|217:220|216:328|368:278,1,270.000010299683,2|10,3:2|0:2,0:0:0:0:
0,214,332260,6,0,P|-13:285|50:354,1,135.000005149842,2|0,0:2|3:2,0:0:0:0:
155,342,332566,1,2,3:2:0:0:
241,171,332719,6,0,P|146:139|87:155,1,135.000005149842,8|0,0:2|0:2,0:0:0:0:
374,188,333025,2,0,P|345:92|298:53,1,135.000005149842,0|0,3:2|3:2,0:0:0:0:
298,294,333331,5,0,0:0:0:0:
298,294,333408,1,8,0:2:0:0:
298,294,333484,1,0,0:0:0:0:
499,154,333637,6,0,P|496:224|460:311,1,135.000005149842,6|0,0:2|0:2,0:0:0:0:
241,171,333943,1,14,0:2:0:0:
374,188,334096,1,2,0:2:0:0:
98,233,334250,6,0,L|91:45,1,135.000005149842,2|0,3:2|3:2,0:0:0:0:
228,63,334556,1,10,0:2:0:0:
0,177,334709,1,2,0:2:0:0:
211,351,334862,6,0,L|204:180,1,135.000005149842,2|0,3:2|3:2,0:0:0:0:
74,334,335168,1,10,0:2:0:0:
378,330,335321,1,2,0:2:0:0:
422,102,335474,6,0,P|366:151|378:251,1,135.000005149842,2|0,3:2|3:2,0:0:0:0:
175,93,335780,2,0,P|242:84|300:27,1,135.000005149842,0|0,0:0|3:2,0:0:0:0:
40,45,336086,6,0,L|66:201,1,135.000005149842,2|0,0:2|3:2,0:0:0:0:
248,345,336392,2,0,L|271:177,1,135.000005149842,10|0,0:2|0:2,0:0:0:0:
123,267,336698,6,0,P|33:277|-19:226,1,135.000005149842,2|0,3:2|3:2,0:0:0:0:
199,0,337005,1,10,0:2:0:0:
407,90,337158,2,0,L|384:283,1,135.000005149842,2|0,0:2|3:2,0:0:0:0:
248,344,337464,6,0,B|297:211|186:188|236:65,1,270.000010299683,2|0,3:2|0:2,0:0:0:0:
62,178,337923,5,8,3:2:0:0:
62,178,338000,1,8,3:2:0:0:
62,178,338076,1,8,3:2:0:0:
393,319,338229,6,0,P|461:299|493:228,1,135.000005149842,14|2,0:2|0:2,0:0:0:0:
142,330,338535,5,12,0:2:0:0:
391,224,338688,1,0,3:2:0:0:
391,224,338841,1,2,3:2:0:0:
248,344,338994,5,14,0:2:0:0:
407,90,339147,1,0,3:2:0:0:
407,90,339300,1,2,3:2:0:0:
381,331,339454,5,14,0:2:0:0:
266,85,339607,1,0,3:2:0:0:
266,85,339760,1,0,3:2:0:0:
391,224,339913,5,12,0:2:0:0:
135,106,340066,1,0,3:2:0:0:
135,106,340219,1,0,3:2:0:0:
72,238,340372,5,14,0:2:0:0:
272,179,340525,1,2,3:2:0:0:
224,5,340678,1,14,0:2:0:0:
3,53,340831,1,2,3:2:0:0:
196,313,340984,5,14,0:2:0:0:
135,106,341137,1,0,3:2:0:0:
135,106,341290,1,2,3:2:0:0:
279,117,341443,5,14,0:2:0:0:
50,306,341596,1,0,3:2:0:0:
50,306,341750,1,2,3:2:0:0:
249,43,341903,5,14,0:2:0:0:
323,324,342056,1,0,3:2:0:0:
323,324,342209,1,0,3:2:0:0:
421,0,342362,6,0,L|416:182,1,180,14|0,0:2|3:2,0:0:0:0:
426,328,342821,5,10,3:2:0:0:
426,328,342897,1,8,3:2:0:0:
426,328,342974,1,10,3:2:0:0:
301,155,343127,1,14,0:2:0:0:
185,270,343280,1,2,0:2:0:0:
307,41,343433,6,0,P|365:61|400:106,1,90,6|2,3:2|0:2,0:0:0:0:
191,101,343739,5,10,3:2:0:0:
156,125,343816,1,8,0:2:0:0:
113,138,343892,1,8,0:2:0:0:
68,135,343969,1,8,0:2:0:0:
27,117,344045,2,0,L|21:44,1,45,8|8,3:2|0:2,0:0:0:0:
107,0,344198,2,0,L|109:75,1,45,8|8,0:2|0:2,0:0:0:0:
80,271,344352,5,10,3:2:0:0:
130,249,344428,1,8,0:2:0:0:
174,241,344505,1,10,0:2:0:0:
218,245,344581,1,8,0:2:0:0:
260,261,344658,2,0,P|317:285|380:278,1,90,14|2,0:2|0:2,0:0:0:0:
90,172,344964,5,10,3:2:0:0:
39,190,345040,1,8,0:2:0:0:
4,230,345117,1,8,0:2:0:0:
0,282,345193,1,8,0:2:0:0:
10,334,345270,2,0,L|79:352,1,53.9999983520508,8|8,3:2|0:2,0:0:0:0:
130,249,345423,2,0,L|73:275,1,53.9999983520508,8|8,0:2|0:2,0:0:0:0:
182,341,345576,5,10,3:2:0:0:
215,299,345653,1,8,0:2:0:0:
223,246,345729,1,10,0:2:0:0:
205,196,345806,1,8,0:2:0:0:
164,160,345882,2,0,P|171:108|222:60,1,90,14|0,3:2|0:0,0:0:0:0:
320,50,346188,5,10,0:2:0:0:
31,176,346341,1,10,0:2:0:0:
345,180,346494,5,8,0:2:0:0:
65,35,346647,1,10,0:2:0:0:
215,299,346801,5,8,0:2:0:0:
215,47,346954,1,10,0:2:0:0:
30,326,347107,5,6,3:0:0:0:
30,326,348331,6,0,L|139:336,1,90,6|2,3:2|0:2,0:0:0:0:
202,292,348637,1,0,3:2:0:0:
65,138,348790,6,0,L|78:242,1,90,10|0,0:2|0:2,0:0:0:0:
171,123,349096,1,10,0:2:0:0:
331,166,349250,2,0,P|283:197|221:207,1,90,0|2,3:2|3:2,0:0:0:0:
171,123,349556,1,0,0:0:0:0:
263,87,349709,6,0,L|290:-27,2,90,10|0|10,0:2|3:2|0:2,0:0:0:0:
383,83,350168,1,2,3:2:0:0:
383,83,350321,1,2,3:2:0:0:
473,231,350474,2,0,L|464:116,1,90,10|2,0:2|0:2,0:0:0:0:
500,329,350780,6,0,L|391:339,1,90,2|2,3:2|3:2,0:0:0:0:
328,295,351086,1,0,3:2:0:0:
213,296,351239,6,0,L|233:396,1,90,10|0,0:2|0:2,0:0:0:0:
328,295,351545,1,10,0:2:0:0:
278,208,351698,2,0,P|235:194|199:169,1,90,0|2,3:2|3:2,0:0:0:0:
359,126,352005,1,0,0:0:0:0:
267,90,352158,6,0,L|240:-24,2,90,10|0|10,0:2|3:2|0:2,0:0:0:0:
147,86,352617,1,2,3:2:0:0:
147,86,352770,1,2,3:2:0:0:
57,234,352923,2,0,L|66:119,1,90,10|10,0:2|0:2,0:0:0:0:
155,287,353229,5,6,3:2:0:0:
155,287,353382,2,0,P|107:332|61:344,1,90,2|0,3:2|3:2,0:0:0:0:
166,184,353688,2,0,P|202:193|259:245,2,90,10|0|10,0:2|0:2|0:2,0:0:0:0:
331,192,354147,1,0,3:2:0:0:
318,307,354301,2,0,P|273:320|232:354,1,90,2|0,3:2|0:0,0:0:0:0:
418,346,354607,2,0,L|437:142,1,180,10|10,0:2|0:2,0:0:0:0:
403,58,355066,2,0,P|359:71|265:66,1,135,2|0,3:2|0:0,0:0:0:0:
212,22,355372,2,0,P|227:72|170:168,1,135,10|0,0:2|0:0,0:0:0:0:
157,180,355678,5,2,3:2:0:0:
157,180,355831,2,0,L|37:198,1,90,2|0,0:2|3:2,0:0:0:0:
183,357,356137,2,0,P|170:309|127:257,1,90,10|0,0:2|0:2,0:0:0:0:
258,260,356443,2,0,P|271:212|314:160,2,90,10|0|2,0:2|3:2|3:2,0:0:0:0:
402,176,356903,1,0,0:0:0:0:
402,176,357056,2,0,P|374:101|274:80,1,180,10|10,0:2|0:2,0:0:0:0:
258,260,357515,5,10,3:2:0:0:
417,311,357668,1,10,3:2:0:0:
293,178,357821,5,10,3:2:0:0:
345,371,357974,1,10,0:2:0:0:
357,97,358127,5,6,3:2:0:0:
357,97,358280,2,0,P|405:52|451:40,1,90,2|0,3:2|3:2,0:0:0:0:
346,200,358586,2,0,P|309:190|253:139,2,90,10|0|10,0:2|0:2|0:2,0:0:0:0:
181,192,359045,1,0,3:2:0:0:
194,77,359198,2,0,P|238:63|279:29,1,90,2|0,3:2|0:0,0:0:0:0:
94,38,359505,2,0,L|75:242,1,180,10|10,0:2|0:2,0:0:0:0:
109,326,359964,2,0,P|153:313|247:318,1,135,2|0,3:2|0:0,0:0:0:0:
300,362,360270,2,0,P|285:312|342:216,1,135,10|0,0:2|0:0,0:0:0:0:
355,204,360576,5,2,3:2:0:0:
355,204,360729,2,0,L|475:186,1,90,2|0,0:2|3:2,0:0:0:0:
329,27,361035,2,0,P|342:75|385:127,1,90,10|0,0:2|0:2,0:0:0:0:
254,124,361341,2,0,P|241:172|198:224,2,90,10|0|2,0:2|3:2|3:2,0:0:0:0:
110,208,361801,1,0,0:0:0:0:
110,208,361954,2,0,P|138:283|238:304,1,180,10|10,0:2|0:2,0:0:0:0:
254,124,362413,2,0,P|311:101|356:106,1,90,2|2,3:2|3:2,0:0:0:0:
217,28,362719,5,10,0:2:0:0:
323,214,362872,1,2,0:2:0:0:
149,128,363025,1,6,3:2:0:0:
149,128,363178,2,0,P|105:122|29:158,1,90,2|0,3:2|3:2,0:0:0:0:
115,298,363484,6,0,P|120:248|91:188,1,90,10|0,0:2|0:2,0:0:0:0:
221,370,363790,2,0,P|216:320|245:260,1,90,10|0,0:2|3:2,0:0:0:0:
294,188,364096,1,2,3:2:0:0:
352,311,364250,1,0,0:0:0:0:
320,84,364403,2,0,P|251:87|201:122,1,90,10|0,0:2|3:2,0:0:0:0:
301,200,364709,1,10,0:2:0:0:
90,64,364862,5,10,0:2:0:0:
90,64,364938,1,8,0:2:0:0:
90,64,365015,1,10,0:2:0:0:
90,64,365091,1,8,0:2:0:0:
90,64,365168,1,10,0:2:0:0:
147,181,365321,1,10,0:2:0:0:
94,293,365474,6,0,L|-8:289,1,90,6|6,3:2|3:2,0:0:0:0:
151,178,365780,1,0,0:0:0:0:
212,343,365933,2,0,P|269:348|344:247,1,180,10|10,0:2|0:2,0:0:0:0:
329,98,366392,1,6,3:2:0:0:
458,116,366545,6,0,L|437:242,1,90,6|0,3:2|0:0,0:0:0:0:
239,57,366852,2,0,P|294:6|397:27,1,180,10|10,0:2|0:2,0:0:0:0:
105,147,367311,6,0,L|32:164,3,45,8|8|8|8,3:2|3:2|3:2|3:2,0:0:0:0:
186,220,367617,2,0,L|113:237,3,45,8|8|8|8,3:2|3:2|3:2|3:2,0:0:0:0:
243,297,367923,1,6,0:2:0:0:
260,150,368076,6,0,L|364:122,1,90,2|0,0:2|0:0,0:0:0:0:
490,219,368382,2,0,L|385:204,1,90,2|0,0:2|0:0,0:0:0:0:
243,294,368688,6,0,L|347:266,1,90,2|0,0:2|0:0,0:0:0:0:
479,359,368994,2,0,L|374:344,1,90,2|0,0:2|0:0,0:0:0:0:
481,51,369301,6,0,L|485:135,1,67.5000025749208,2|0,0:2|0:0,0:0:0:0:
71,298,376608,6,0,P|136:265|230:277,1,135,10|8,3:2|0:2,0:0:0:0:
235,301,376938,1,10,3:2:0:0:
279,303,377020,1,8,0:2:0:0:
323,292,377102,1,8,0:2:0:0:
360,268,377185,1,8,0:2:0:0:
379,222,377267,6,0,P|406:167|472:123,1,121.500000463486,6|0,3:2|0:2,0:0:0:0:
232,23,377597,2,0,P|268:108|258:191,1,121.500000463486,14|0,0:2|0:2,0:0:0:0:
89,299,377927,2,0,P|125:214|115:131,1,121.500000463486,2|0,3:2|0:2,0:0:0:0:
67,46,378256,5,10,0:2:0:0:
4,204,378421,1,0,3:2:0:0:
224,253,378586,2,0,B|361:239|272:359|456:334,1,243.000000926971,2|10,0:2|0:2,0:0:0:0:
501,242,379080,1,0,0:2:0:0:
339,48,379245,6,0,P|372:107|377:194,1,121.500000463486,2|0,3:2|3:2,0:0:0:0:
435,336,379575,1,10,0:2:0:0:
281,272,379740,1,0,0:2:0:0:
484,36,379905,2,0,P|473:100|495:177,1,121.500000463486,0|0,3:2|0:2,0:0:0:0:
281,272,380234,6,0,P|213:271|150:314,1,121.500000463486,10|0,0:2|0:2,0:0:0:0:
17,123,380564,2,0,P|85:122|148:165,1,121.500000463486,2|0,3:2|3:2,0:0:0:0:
45,250,380894,1,10,0:2:0:0:
318,67,381058,6,0,P|255:75|181:41,1,121.500000463486,0|2,3:2|0:2,0:0:0:0:
427,24,381388,1,0,3:2:0:0:
427,24,381553,2,0,P|424:98|455:176,1,121.500000463486,10|0,0:2|0:2,0:0:0:0:
351,283,381883,2,0,P|340:214|265:161,1,121.500000463486,2|0,3:2|0:2,0:0:0:0:
22,235,382212,5,10,0:2:0:0:
22,235,382295,1,0,0:0:0:0:
22,235,382377,1,2,0:2:0:0:
22,235,382460,1,2,0:2:0:0:
22,235,382542,2,0,B|110:225|110:225|159:267|159:267|300:258,1,243.000000926971,4|10,3:2|0:2,0:0:0:0:
351,283,383036,1,0,0:2:0:0:
166,113,383201,2,0,P|83:119|-2:130,1,121.500000463486,2|0,3:2|0:2,0:0:0:0:
235,30,383531,6,0,P|270:70|258:166,1,121.500000463486,10|0,0:2|3:2,0:0:0:0:
385,168,383861,2,0,P|386:108|424:61,1,121.500000463486,2|0,0:2|3:2,0:0:0:0:
470,259,384190,2,0,L|320:288,1,121.500000463486,2|0,0:2|0:2,0:0:0:0:
240,312,384520,5,2,3:2:0:0:
352,384,384685,1,2,3:2:0:0:
222,211,384850,2,0,P|167:236|135:309,1,121.500000463486,10|0,0:2|0:2,0:0:0:0:
350,282,385179,6,0,L|315:137,1,121.500000463486,0|0,3:2|0:2,0:0:0:0:
455,30,385509,2,0,P|434:88|458:173,1,121.500000463486,8|0,0:2|0:2,0:0:0:0:
452,243,385839,1,0,3:2:0:0:
327,55,386003,1,0,3:2:0:0:
186,180,386168,6,0,L|219:352,1,121.500000463486,8|0,0:2|3:2,0:0:0:0:
48,362,386498,2,0,L|70:242,1,121.500000463486,0|0,0:2|3:2,0:0:0:0:
119,73,386828,6,0,P|161:56|269:91,1,121.500000463486,10|0,0:2|0:2,0:0:0:0:
385,146,387157,2,0,P|323:156|244:127,1,121.500000463486,2|0,3:2|3:2,0:0:0:0:
234,65,387405,1,0,0:0:0:0:
261,43,387487,1,10,0:2:0:0:
294,27,387569,1,0,0:0:0:0:
330,21,387652,1,2,0:2:0:0:
366,24,387734,1,2,0:2:0:0:
400,35,387817,6,0,P|466:66|491:160,1,121.500000463486,4|0,3:2|0:2,0:0:0:0:
465,214,388146,2,0,L|438:373,1,121.500000463486,10|0,0:2|0:2,0:0:0:0:
209,271,388476,2,0,P|279:273|352:343,1,121.500000463486,2|0,3:2|3:2,0:0:0:0:
93,348,388806,6,0,B|121:193|8:273|60:81,1,243.000000926971,10|2,0:2|0:2,0:0:0:0:
131,42,389300,1,0,3:2:0:0:
163,146,389465,2,0,L|300:182,1,121.500000463486,8|0,0:2|0:2,0:0:0:0:
402,7,389795,6,0,P|349:36|320:122,1,121.500000463486,2|0,0:2|3:2,0:0:0:0:
487,222,390124,1,10,0:2:0:0:
422,109,390289,1,2,0:2:0:0:
345,261,390454,2,0,L|178:283,1,121.500000463486,0|0,3:2|0:2,0:0:0:0:
47,321,390784,6,0,P|119:340|165:422,1,121.500000463486,10|0,0:2|0:2,0:0:0:0:
94,205,391113,2,0,P|67:146|108:57,1,121.500000463486,2|0,3:2|3:2,0:0:0:0:
196,53,391443,2,0,B|315:17|302:159|463:96,1,243.000000926971,10|2,0:2|0:2,0:0:0:0:
510,56,391938,1,0,3:2:0:0:
401,219,392102,2,0,P|385:286|418:356,1,121.500000463486,8|0,0:2|0:2,0:0:0:0:
267,283,392432,2,0,L|132:322,1,121.500000463486,2|0,3:2|3:2,0:0:0:0:
59,152,392762,5,10,0:2:0:0:
59,152,392844,1,0,0:0:0:0:
59,152,392927,1,2,0:2:0:0:
59,152,393009,1,2,0:2:0:0:
59,152,393091,2,0,B|113:247|0:277|76:395,1,243.000000926971,6|10,3:2|0:2,0:0:0:0:
150,316,393586,1,0,0:2:0:0:
146,92,393751,6,0,P|80:50|12:64,1,121.500000463486,2|0,3:2|3:2,0:0:0:0:
59,152,394080,1,8,0:2:0:0:
160,181,394245,1,0,3:2:0:0:
244,106,394410,2,0,P|285:74|389:70,1,121.500000463486,0|0,0:2|3:2,0:0:0:0:
419,269,394740,6,0,P|358:269|278:309,1,121.500000463486,8|0,0:2|0:2,0:0:0:0:
403,167,395069,2,0,P|462:179|512:212,1,121.500000463486,0|0,3:2|3:2,0:0:0:0:
386,369,395399,1,8,0:2:0:0:
244,106,395564,5,2,0:2:0:0:
244,106,395646,1,2,0:2:0:0:
244,106,395729,2,0,B|120:126|185:239|29:237,2,243.000000926971,6|12|4,3:2|0:2|3:2,0:0:0:0:
244,106,396553,1,8,0:2:0:0:
47,129,396718,1,0,3:2:0:0:
253,223,396883,1,0,3:2:0:0:
146,24,397047,5,12,0:2:0:0:
53,237,397212,1,0,3:2:0:0:
244,106,397377,1,12,0:2:0:0:
47,129,397542,1,0,3:2:0:0:
181,316,397707,2,0,P|235:340|319:315,1,121.500000463486,6|8,3:2|0:2,0:0:0:0:
363,38,398036,5,10,0:2:0:0:
347,83,398119,1,8,0:2:0:0:
356,131,398201,1,8,0:2:0:0:
373,176,398284,1,8,0:2:0:0:
374,224,398366,2,0,B|332:237|332:237|215:222,1,121.500000463486,6|0,3:2|0:2,0:0:0:0:
392,336,398696,2,0,B|427:321|427:321|550:337,1,121.500000463486,10|0,0:2|0:2,0:0:0:0:
476,216,399025,2,0,P|468:139|513:58,1,121.500000463486,2|0,3:2|0:2,0:0:0:0:
363,38,399355,5,10,0:2:0:0:
481,98,399520,1,0,3:2:0:0:
257,120,399685,2,0,L|124:139,1,121.500000463486,2|0,0:2|3:2,0:0:0:0:
48,254,400014,2,0,L|181:273,1,121.500000463486,10|0,0:2|0:2,0:0:0:0:
237,362,400344,6,0,P|290:299|234:192,1,182.250000695229,2|0,3:2|0:0,0:0:0:0:
257,120,400674,1,10,0:2:0:0:
277,83,400756,1,0,0:0:0:0:
309,55,400839,1,0,0:2:0:0:
349,39,400921,1,0,0:0:0:0:
391,38,401003,2,0,P|473:37|525:3,1,121.500000463486,0|0,3:2|0:2,0:0:0:0:
224,0,401333,2,0,P|176:39|150:122,1,121.500000463486,10|0,0:2|0:2,0:0:0:0:
381,251,401663,2,0,P|389:189|351:111,1,121.500000463486,2|0,3:2|3:2,0:0:0:0:
127,196,401993,5,10,0:2:0:0:
279,205,402157,1,0,3:2:0:0:
66,355,402322,2,0,P|59:297|21:226,1,121.500000463486,2|0,0:2|3:2,0:0:0:0:
198,270,402652,2,0,P|205:328|243:399,1,121.500000463486,10|0,0:2|0:2,0:0:0:0:
367,140,402982,6,0,P|318:102|225:113,1,121.500000463486,2|0,3:2|0:2,0:0:0:0:
454,310,403311,1,10,0:2:0:0:
454,310,403394,1,0,0:0:0:0:
454,310,403476,1,2,0:2:0:0:
454,310,403558,1,2,0:2:0:0:
454,310,403641,2,0,B|455:214|455:214|487:172|487:172|485:44,1,243.000000926971,4|10,3:2|0:2,0:0:0:0:
397,34,404135,1,0,0:2:0:0:
209,265,404300,5,2,3:2:0:0:
312,353,404465,1,0,0:2:0:0:
333,237,404630,2,0,P|330:175|380:101,1,121.500000463486,10|0,0:2|3:2,0:0:0:0:
102,86,404960,2,0,P|158:104|188:297,1,243.000000926971,2|10,0:2|0:2,0:0:0:0:
208,264,405454,1,0,0:2:0:0:
95,203,405619,1,2,3:2:0:0:
283,42,405784,2,0,L|432:27,2,121.500000463486,2|8|2,3:2|0:2|0:2,0:0:0:0:
208,264,406278,6,0,P|276:291|354:264,1,121.500000463486,0|0,3:2|0:2,0:0:0:0:
482,161,406608,2,0,P|417:150|366:184,1,121.500000463486,8|0,0:2|0:2,0:0:0:0:
421,367,406938,2,0,L|439:222,1,121.500000463486,0|0,3:2|3:2,0:0:0:0:
258,61,407267,2,0,L|276:206,1,121.500000463486,8|0,0:2|3:2,0:0:0:0:
443,125,407597,1,0,0:2:0:0:
143,110,407762,1,0,3:2:0:0:
443,125,407927,2,0,L|433:281,1,121.500000463486,10|0,0:2|0:2,0:0:0:0:
364,55,408256,2,0,P|400:28|511:57,1,121.500000463486,2|0,3:2|3:2,0:0:0:0:
435,246,408586,5,10,0:2:0:0:
392,252,408668,1,0,0:0:0:0:
350,257,408751,1,2,0:2:0:0:
308,262,408833,1,2,0:2:0:0:
265,267,408916,2,0,L|132:276,1,121.500000463486,4|0,3:2|0:2,0:0:0:0:
3,178,409245,2,0,L|136:169,1,121.500000463486,10|0,0:2|0:2,0:0:0:0:
255,128,409575,5,2,3:2:0:0:
143,275,409740,1,2,3:2:0:0:
86,55,409905,2,0,P|110:108|126:205,1,121.500000463486,10|0,0:2|3:2,0:0:0:0:
310,329,410234,2,0,B|287:169|406:260|350:54,1,243.000000926971,0|8,0:2|0:2,0:0:0:0:
277,22,410729,1,0,0:2:0:0:
462,85,410894,6,0,P|473:173|441:243,1,121.500000463486,2|0,0:2|3:2,0:0:0:0:
424,313,411223,1,10,0:2:0:0:
464,204,411388,1,0,0:2:0:0:
305,330,411553,6,0,P|291:262|234:206,1,121.500000463486,0|0,3:2|0:2,0:0:0:0:
82,384,411883,2,0,P|83:317|117:262,1,121.500000463486,10|0,0:2|0:2,0:0:0:0:
182,170,412212,1,2,3:2:0:0:
194,353,412377,1,2,3:2:0:0:
63,125,412542,2,0,P|87:79|166:49,1,121.500000463486,10|0,0:2|3:2,0:0:0:0:
383,52,412872,2,0,B|262:56|310:180|148:169,1,243.000000926971,2|8,0:2|0:2,0:0:0:0:
63,125,413366,1,0,0:2:0:0:
394,157,413531,6,0,P|423:215|401:299,1,121.500000463486,2|0,3:2|3:2,0:0:0:0:
377,363,413861,1,10,0:2:0:0:
346,366,413943,1,0,0:0:0:0:
317,360,414025,1,2,0:2:0:0:
289,347,414108,1,2,0:2:0:0:
258,332,414190,2,0,P|198:313|106:335,1,121.500000463486,6|0,3:2|0:2,0:0:0:0:
41,211,414520,2,0,P|100:192|192:214,1,121.500000463486,10|0,0:2|0:2,0:0:0:0:
269,34,414850,6,0,P|268:102|313:176,1,121.500000463486,2|0,3:2|3:2,0:0:0:0:
410,134,415179,2,0,P|411:202|366:276,1,121.500000463486,8|0,0:2|3:2,0:0:0:0:
258,332,415509,2,0,P|309:329|404:389,1,121.500000463486,0|0,0:2|3:2,0:0:0:0:
500,94,415839,2,0,P|457:49|364:57,1,121.500000463486,8|0,0:2|0:0,0:0:0:0:
188,158,416168,5,8,0:2:0:0:
410,134,416333,1,8,3:2:0:0:
267,229,416498,1,8,0:2:0:0:
399,42,416663,1,10,0:2:0:0:
399,42,416745,1,10,0:2:0:0:
399,42,416828,5,6,3:2:0:0:
410,134,416993,1,0,0:2:0:0:
299,4,417157,5,10,0:2:0:0:
294,128,417322,1,0,3:2:0:0:
189,20,417487,5,8,0:2:0:0:
188,158,417652,1,2,3:2:0:0:
82,73,417817,5,8,0:2:0:0:
136,253,417982,1,2,3:2:0:0:
19,230,418146,5,8,0:2:0:0:
166,359,418311,1,0,3:2:0:0:
265,229,418476,5,10,0:2:0:0:
272,373,418641,1,2,3:2:0:0:
360,160,418806,5,8,0:2:0:0:
365,339,418971,1,2,3:2:0:0:
260,126,419135,5,8,0:2:0:0:
433,247,419300,1,2,3:2:0:0:
348,58,419465,5,8,0:2:0:0:
360,160,419630,1,0,3:2:0:0:
447,97,419795,5,8,0:2:0:0:
348,58,419960,1,0,3:2:0:0:
260,126,420124,5,8,0:2:0:0:
161,87,420289,1,0,3:2:0:0:
114,185,420454,5,8,3:2:0:0:
45,122,420619,1,0,3:2:0:0:
77,285,420784,5,8,3:2:0:0:
8,222,420949,1,0,3:2:0:0:
19,369,421113,2,0,L|124:385,1,101.250003862381,14|0,0:2|0:0,0:0:0:0:
152,360,421443,1,10,0:2:0:0:
179,339,421525,1,8,0:2:0:0:
210,327,421608,1,8,0:2:0:0:
243,322,421690,1,8,0:2:0:0:
276,326,421773,1,14,3:2:0:0:
364,186,422102,6,0,P|356:233|375:310,1,90,6|0,3:2|0:2,0:0:0:0:
476,361,422432,2,0,L|457:252,1,90,10|0,0:2|0:2,0:0:0:0:
455,136,422762,1,2,3:2:0:0:
259,201,422927,6,0,P|210:220|139:228,1,90,2|8,3:2|0:2,0:0:0:0:
166,38,423256,2,0,P|178:101|167:160,1,90,2|0,0:2|3:2,0:0:0:0:
175,226,423586,1,2,0:2:0:0:
175,226,423751,1,10,0:2:0:0:
265,28,423916,6,0,P|283:92|252:211,1,180,2|2,0:2|3:2,0:0:0:0:
319,349,424410,2,0,P|317:301|336:257,1,90,10|2,0:2|0:2,0:0:0:0:
410,121,424740,6,0,L|418:219,1,90,2|0,3:2|0:2,0:0:0:0:
512,243,425069,2,0,L|504:341,1,90,10|0,0:2|0:2,0:0:0:0:
319,349,425399,2,0,L|211:358,2,90,2|2|8,3:2|3:2|0:2,0:0:0:0:
411,301,425894,1,2,0:2:0:0:
330,251,426058,6,0,L|322:153,1,90,0|2,3:2|0:2,0:0:0:0:
228,129,426388,2,0,L|236:31,1,90,10|2,0:2|0:2,0:0:0:0:
421,23,426718,2,0,L|529:14,2,90,0|2|10,3:2|3:2|0:2,0:0:0:0:
326,74,427212,1,2,0:2:0:0:
437,200,427377,6,0,P|441:143|464:82,1,90,6|0,3:2|0:2,0:0:0:0:
336,255,427707,2,0,P|332:198|309:137,1,90,10|0,0:2|0:2,0:0:0:0:
428,324,428036,2,0,L|332:364,2,90,2|2|8,3:2|3:2|0:2,0:0:0:0:
249,304,428531,2,0,P|163:299|101:371,1,180,2|2,0:2|0:2,0:0:0:0:
35,287,429025,1,8,0:2:0:0:
121,208,429190,1,2,0:2:0:0:
13,83,429355,6,0,L|26:201,1,90,0|2,3:2|3:2,0:0:0:0:
117,93,429685,1,10,0:2:0:0:
199,31,429850,1,2,0:2:0:0:
324,113,430014,5,2,3:2:0:0:
229,126,430179,1,2,0:2:0:0:
239,258,430344,5,10,0:2:0:0:
121,208,430509,1,2,0:2:0:0:
128,328,430674,2,0,L|19:355,2,90,2|2|8,3:2|3:2|0:2,0:0:0:0:
326,199,431168,6,0,P|351:265|285:364,1,180,2|2,0:2|0:2,0:0:0:0:
446,351,431663,2,0,P|458:291|447:222,1,90,10|0,0:2|0:2,0:0:0:0:
440,145,431993,2,0,P|460:113|510:74,2,90,6|0|10,3:2|3:2|0:2,0:0:0:0:
248,261,432652,6,0,B|145:257|201:342|66:332,1,180,6|8,3:2|0:2,0:0:0:0:
95,224,433146,2,0,B|133:128|34:152|90:28,1,180,2|0,0:2|3:2,0:0:0:0:
172,87,433641,1,10,0:2:0:0:
7,191,433806,1,0,0:2:0:0:
233,174,433971,6,0,P|262:141|276:93,1,90,0|0,3:2|0:2,0:0:0:0:
367,29,434300,2,0,P|368:72|390:117,1,90,10|0,0:2|0:2,0:0:0:0:
487,143,434630,2,0,L|465:232,1,90,0|0,3:2|3:2,0:0:0:0:
364,299,434960,2,0,P|360:236|370:199,1,90,10|0,0:2|0:2,0:0:0:0:
248,299,435289,6,0,P|209:308|162:350,1,90,2|0,3:2|0:2,0:0:0:0:
170,339,435619,1,8,0:2:0:0:
0,136,435784,2,0,P|66:175|104:284,1,180,2|0,0:2|3:2,0:0:0:0:
155,124,436278,6,0,P|156:79|140:37,1,90,10|0,0:2|0:2,0:0:0:0:
257,193,436608,2,0,P|256:148|283:91,1,90,0|0,3:2|0:2,0:0:0:0:
512,74,436938,6,0,P|462:86|411:81,1,90,10|0,0:2|0:2,0:0:0:0:
369,208,437267,2,0,P|452:214|486:235,1,90,0|0,3:2|3:2,0:0:0:0:
507,342,437597,1,10,0:2:0:0:
456,216,437762,1,0,0:2:0:0:
340,332,437927,6,0,B|269:335|269:335|233:370|233:370|151:375,1,180,6|10,3:2|0:2,0:0:0:0:
83,288,438421,1,0,0:2:0:0:
83,288,438586,2,0,L|199:269,2,90,2|2|8,3:2|3:2|0:2,0:0:0:0:
10,82,439080,2,0,P|55:152|175:141,1,180,2|2,0:2|0:2,0:0:0:0:
145,159,439575,1,10,0:2:0:0:
258,7,439740,2,0,B|217:97|293:94|257:189,1,180,2|2,0:2|3:2,0:0:0:0:
347,237,440234,2,0,P|395:219|462:233,1,90,10|2,0:2|0:2,0:0:0:0:
490,108,440564,6,0,P|409:117|344:32,2,180,6|10|2,3:2|0:2|3:2,0:0:0:0:
439,29,441388,1,0,3:2:0:0:
432,221,441553,2,0,L|455:333,1,90,10|2,0:2|0:2,0:0:0:0:
304,384,441883,2,0,L|322:295,1,90,0|2,3:2|0:2,0:0:0:0:
171,206,442212,2,0,L|194:318,1,90,10|0,0:2|0:2,0:0:0:0:
23,344,442542,5,8,0:2:0:0:
130,374,442707,1,8,3:2:0:0:
57,179,442872,5,0,3:2:0:0:
94,271,443036,1,0,3:2:0:0:
203,116,443201,1,6,3:2:0:0:
136,235,449403,6,0,L|120:107,1,90,0|0,0:0|0:0,0:0:0:0:
270,40,449715,6,0,P|269:93|235:157,1,90,2|0,3:2|0:0,0:0:0:0:
344,245,450028,2,0,P|389:198|442:183,1,90,2|0,3:2|0:0,0:0:0:0:
261,337,450340,2,0,L|144:358,1,90,14|0,0:2|0:0,0:0:0:0:
143,233,450653,5,14,0:2:0:0:
438,291,450809,1,0,3:2:0:0:
438,291,450965,1,2,3:2:0:0:
187,59,451121,5,14,0:2:0:0:
261,337,451278,1,0,3:2:0:0:
261,337,451434,1,2,3:2:0:0:
354,41,451590,5,10,0:2:0:0:
354,41,451668,1,0,0:0:0:0:
354,41,451746,1,8,0:2:0:0:
196,242,451903,6,0,P|118:265|42:229,1,135,6|0,3:2|0:0,0:0:0:0:
13,153,452215,6,0,L|-3:96,3,45,10|0|0|0,3:2|0:0|0:0|0:0,0:0:0:0:
95,75,452528,2,0,L|111:18,3,45,8|0|0|0,3:2|0:0|0:0|0:0,0:0:0:0:
182,124,452840,1,10,3:2:0:0:
223,139,452918,1,8,0:2:0:0:
268,134,452996,1,8,0:2:0:0:
306,112,453074,1,8,0:2:0:0:
331,74,453153,6,0,L|347:17,3,45,8|0|0|0,3:2|0:0|0:0|0:0,0:0:0:0:
447,75,453465,6,0,L|463:132,3,45,10|0|0|0,3:2|0:0|0:0|0:0,0:0:0:0:
376,181,453778,5,8,3:2:0:0:
362,223,453856,1,8,0:2:0:0:
370,267,453934,1,10,0:2:0:0:
399,301,454012,1,8,0:2:0:0:
440,316,454090,1,8,3:2:0:0:
123,293,454246,5,10,0:2:0:0:
123,293,454324,1,8,0:2:0:0:
123,293,454403,2,0,L|106:162,1,90,14|0,3:2|0:0,0:0:0:0:
257,88,454715,5,8,3:2:0:0:
254,132,454793,1,8,0:2:0:0:
252,177,454871,1,8,0:2:0:0:
250,222,454949,1,8,0:2:0:0:
248,267,455027,1,8,3:2:0:0:
390,121,455184,1,8,3:2:0:0:
390,121,455262,1,8,3:2:0:0:
390,121,455340,2,0,L|508:120,1,90,6|0,3:2|0:0,0:0:0:0:
142,94,455653,5,8,0:2:0:0:
142,318,455965,6,0,L|18:340,1,116.999994644165,2|0,0:2|0:0,0:0:0:0:
254,127,456278,2,0,B|245:204|245:204|266:255|266:255|245:367,1,233.999989288331,2|0,0:2|0:0,0:0:0:0:
347,232,456903,6,0,L|416:249,1,58.4999973220826,6|0,3:2|0:0,0:0:0:0:
420,329,457059,2,0,L|484:312,1,58.4999973220826,0|0,3:2|0:0,0:0:0:0:
496,229,457215,1,10,0:2:0:0:
431,44,457371,1,8,0:2:0:0:
431,44,457449,1,8,0:2:0:0:
431,44,457528,6,0,L|412:183,1,116.999994644165,2|0,3:2|0:0,0:0:0:0:
309,66,457840,2,0,B|221:55|221:55|177:81|177:81|69:64,1,233.999989288331,10|0,0:2|3:2,0:0:0:0:
73,155,458309,1,0,3:2:0:0:
213,277,458465,2,0,P|208:215|183:152,1,116.999994644165,10|0,0:2|0:0,0:0:0:0:
76,351,458778,6,0,P|128:351|197:377,1,116.999994644165,2|0,3:2|0:0,0:0:0:0:
350,135,459090,2,0,L|312:373,1,233.999989288331,10|0,0:2|3:2,0:0:0:0:
418,341,459559,1,0,3:2:0:0:
354,57,459715,6,0,P|297:70|262:122,1,116.999994644165,10|0,0:2|0:0,0:0:0:0:
459,133,459949,1,8,0:2:0:0:
459,133,460028,2,0,L|450:4,1,116.999994644165,2|0,3:2|0:0,0:0:0:0:
199,30,460340,2,0,P|141:50|67:25,1,116.999994644165,10|0,0:2|0:0,0:0:0:0:
22,108,460653,2,0,L|31:242,1,116.999994644165,0|0,3:2|0:0,0:0:0:0:
230,319,460965,6,0,L|249:181,1,116.999994644165,10|0,0:2|0:0,0:0:0:0:
263,115,461278,1,2,3:2:0:0:
109,270,461434,2,0,L|135:391,1,116.999994644165,0|0,3:2|0:0,0:0:0:0:
309,286,461746,1,8,0:2:0:0:
309,286,461824,1,8,0:2:0:0:
309,286,461903,6,0,B|418:222|417:330|546:259,1,233.999989288331,6|0,3:2|0:0,0:0:0:0:
483,105,462371,2,0,B|372:175|377:45|247:121,1,233.999989288331,10|2,0:2|3:2,0:0:0:0:
405,23,462840,5,10,0:2:0:0:
281,226,462996,1,10,0:2:0:0:
496,317,463153,1,2,3:2:0:0:
496,317,463231,1,0,0:0:0:0:
496,317,463309,2,0,P|492:267|448:199,1,116.999994644165,2|0,3:2|0:0,0:0:0:0:
261,112,463621,6,0,L|139:128,1,116.999994644165,10|0,0:2|3:2,0:0:0:0:
30,226,463934,2,0,L|152:242,1,116.999994644165,2|0,3:2|0:0,0:0:0:0:
233,300,464246,1,8,0:2:0:0:
47,126,464403,2,0,P|65:61|122:28,1,116.999994644165,2|0,3:2|0:0,0:0:0:0:
226,26,464715,5,10,0:2:0:0:
144,127,464871,1,10,0:2:0:0:
144,127,464949,1,8,0:2:0:0:
144,127,465028,1,2,3:2:0:0:
317,200,465184,1,0,3:2:0:0:
247,121,465340,1,10,0:2:0:0:
233,300,465496,5,10,0:2:0:0:
289,313,465574,1,8,0:2:0:0:
337,324,465653,1,10,3:2:0:0:
391,306,465731,1,8,3:2:0:0:
428,261,465809,2,0,P|435:193|421:154,1,58.4999973220826,10|0,3:2|0:0,0:0:0:0:
247,121,465965,6,0,L|174:172,1,58.4999973220826,10|0,3:2|0:0,0:0:0:0:
149,190,466121,1,10,3:2:0:0:
93,205,466199,1,8,3:2:0:0:
41,182,466278,1,8,0:2:0:0:
15,131,466356,1,8,0:2:0:0:
26,75,466434,1,10,0:2:0:0:
71,39,466512,1,8,0:2:0:0:
128,39,466590,1,8,0:2:0:0:
183,57,466668,1,8,0:2:0:0:
241,54,466746,1,8,0:2:0:0:
295,32,466824,1,8,0:2:0:0:
344,13,466903,6,0,L|358:163,1,116.999994644165,6|0,3:2|0:0,0:0:0:0:
385,295,467215,2,0,P|445:248|486:235,1,116.999994644165,10|0,0:2|0:0,0:0:0:0:
301,253,467528,6,0,L|193:263,1,58.4999973220826,2|0,3:2|0:0,0:0:0:0:
202,353,467684,2,0,L|138:314,1,58.4999973220826,0|0,3:2|0:0,0:0:0:0:
131,149,467840,2,0,B|211:126|211:126|262:149|262:149|389:121,1,233.999989288331,10|0,0:2|3:2,0:0:0:0:
442,98,468309,1,0,3:2:0:0:
80,56,468465,6,0,P|39:107|39:183,1,116.999994644165,10|0,0:2|0:0,0:0:0:0:
48,200,468699,1,8,0:2:0:0:
48,200,468778,1,2,3:2:0:0:
189,40,468934,1,2,3:2:0:0:
244,257,469090,2,0,B|108:267|189:381|18:368,1,233.999989288331,10|0,0:2|3:2,0:0:0:0:
52,368,469559,1,0,3:2:0:0:
226,165,469715,6,0,P|278:170|334:263,1,116.999994644165,10|0,0:2|0:0,0:0:0:0:
374,290,470028,2,0,P|426:285|482:192,1,116.999994644165,2|0,3:2|0:0,0:0:0:0:
389,31,470340,2,0,B|291:29|291:29|253:54|253:54|118:47,1,233.999989288331,10|0,0:2|3:2,0:0:0:0:
66,55,470809,1,0,3:2:0:0:
168,257,470965,6,0,P|186:203|268:149,1,116.999994644165,10|0,0:2|0:0,0:0:0:0:
248,356,471278,1,2,3:2:0:0:
96,143,471434,1,2,3:2:0:0:
276,251,471590,1,10,3:2:0:0:
332,265,471668,1,8,3:2:0:0:
371,308,471746,1,8,3:2:0:0:
410,350,471824,1,8,3:2:0:0:
467,362,471903,5,14,0:2:0:0:
468,222,472059,1,0,3:2:0:0:
371,308,472215,5,10,0:2:0:0:
420,114,472371,1,0,3:2:0:0:
276,251,472528,5,10,0:2:0:0:
318,58,472684,1,0,3:2:0:0:
235,135,472840,5,10,0:2:0:0:
417,10,472996,1,2,3:2:0:0:
379,213,473153,5,10,0:2:0:0:
210,34,473309,1,2,3:2:0:0:
276,251,473465,5,10,0:2:0:0:
120,120,473621,1,2,3:2:0:0:
151,299,473778,5,10,0:2:0:0:
10,106,473934,1,2,3:2:0:0:
49,359,474090,1,8,0:2:0:0:
120,120,474246,1,2,3:2:0:0:
237,363,474403,5,14,0:2:0:0:
49,235,474559,1,2,3:2:0:0:
198,210,474715,5,10,0:2:0:0:
154,26,474871,1,2,3:2:0:0:
345,106,475028,5,10,0:2:0:0:
336,307,475184,1,2,3:2:0:0:
474,256,475340,5,10,0:2:0:0:
447,19,475496,1,2,3:2:0:0:
369,205,475653,5,8,0:2:0:0:
311,206,475731,1,8,0:2:0:0:
261,176,475809,1,10,0:2:0:0:
235,125,475887,1,8,0:2:0:0:
241,68,475965,1,10,0:2:0:0:
209,20,476043,1,8,0:2:0:0:
156,0,476121,1,10,0:2:0:0:
99,4,476199,1,8,0:2:0:0:
55,42,476278,5,0,0:0:0:0:
54,59,476356,1,0,0:0:0:0:
53,77,476434,1,0,0:0:0:0:
52,94,476512,1,0,0:0:0:0:
52,112,476590,1,0,0:0:0:0:
51,129,476668,1,0,0:0:0:0:
50,147,476746,1,10,3:2:0:0:
50,164,476824,1,8,3:2:0:0:
49,182,476903,6,0,L|63:304,2,101.250003862381,6|2|2,3:2|3:2|3:2,0:0:0:0:
181,125,477528,2,0,B|150:175|150:175|172:341,1,202.500007724762,10|0,0:2|0:0,0:0:0:0:
372,85,478153,6,0,P|317:77|253:107,2,101.250003862381,2|2|2,3:2|3:2|3:2,0:0:0:0:
306,357,478778,2,0,B|296:282|296:282|331:227|331:227|326:136,1,202.500007724762,10|0,0:2|0:0,0:0:0:0:
330,25,479403,6,0,L|211:-5,2,101.250003862381,2|2|2,3:2|3:2|3:2,0:0:0:0:
334,168,480028,2,0,B|298:121|298:121|135:82,1,202.500007724762,10|0,0:2|0:0,0:0:0:0:
304,360,480653,2,0,P|331:311|326:241,2,101.250003862381,2|2|2,3:2|3:2|3:2,0:0:0:0:
69,207,481278,5,10,0:2:0:0:
99,214,481382,5,0,0:0:0:0:
130,221,481486,5,0,0:0:0:0:
153,239,481590,5,8,3:2:0:0:
172,264,481668,5,0,0:0:0:0:
199,282,481824,5,0,0:0:0:0:
227,291,481903,6,0,P|233:236|235:164,2,101.250003862381,6|2|2,3:2|3:2|3:2,0:0:0:0:
404,344,482528,6,0,B|331:347|331:347|296:380|296:380|207:385,1,202.500007724762,10|0,0:2|0:0,0:0:0:0:
308,249,483153,2,0,L|422:238,2,101.250003862381,2|0|0,3:2|0:0|0:0,0:0:0:0:
437,77,483778,6,0,B|427:165|530:155|502:285,1,202.500007724762,10|0,0:2|0:0,0:0:0:0:
302,150,484403,2,0,L|190:160,2,101.250003862381,2|0|0,3:2|0:0|0:0,0:0:0:0:
87,179,485028,6,0,L|102:259,1,67.5000025749208,10|0,0:2|0:0,0:0:0:0:
210,348,485340,2,0,P|208:279|232:227,1,101.250003862381,10|0,0:2|0:0,0:0:0:0:
234,156,485653,6,0,L|248:105,1,33.7500012874604,8|0,0:2|0:0,0:0:0:0:
155,102,485809,2,0,L|141:51,1,33.7500012874604,8|0,0:2|0:0,0:0:0:0:
279,11,485965,2,0,L|265:62,1,33.7500012874604,10|0,0:2|0:0,0:0:0:0:
358,65,486121,2,0,L|372:116,1,33.7500012874604,8|0,0:2|0:0,0:0:0:0:
317,244,486278,1,10,0:2:0:0:
317,244,486356,1,8,0:2:0:0:
317,244,486434,1,8,3:2:0:0:
476,195,486590,2,0,P|436:196|391:228,1,67.5000025749208,6|0,3:2|0:0,0:0:0:0:
138,343,486903,6,0,P|228:332|282:294,1,116.999994644165,6|0,3:2|0:0,0:0:0:0:
81,135,487215,1,10,0:2:0:0:
169,229,487371,1,10,0:2:0:0:
201,7,487528,6,0,P|214:75|207:145,1,116.999994644165,2|0,3:2|0:0,0:0:0:0:
343,247,487840,2,0,P|330:179|337:109,1,116.999994644165,10|0,0:2|0:0,0:0:0:0:
356,88,488074,1,8,0:2:0:0:
356,88,488153,1,0,3:2:0:0:
459,222,488309,1,0,3:2:0:0:
214,182,488465,5,10,0:2:0:0:
259,313,488621,1,8,0:2:0:0:
70,303,488778,2,0,P|91:228|78:147,1,116.999994644165,2|0,3:2|0:0,0:0:0:0:
147,79,489090,2,0,B|290:99|201:-21|374:2,1,233.999989288331,10|2,0:2|3:2,0:0:0:0:
351,0,489559,1,0,3:2:0:0:
37,75,489715,5,10,0:2:0:0:
214,182,489871,2,0,L|193:245,1,58.4999973220826,10|0,0:2|0:0,0:0:0:0:
65,302,490028,2,0,P|73:228|113:152,1,116.999994644165,2|0,3:2|0:0,0:0:0:0:
351,0,490340,2,0,B|293:107|408:109|348:257,1,233.999989288331,10|0,0:2|3:2,0:0:0:0:
328,349,490809,1,0,3:2:0:0:
484,172,490965,6,0,P|470:107|406:55,1,116.999994644165,10|0,0:2|0:0,0:0:0:0:
167,285,491278,2,0,P|181:220|245:168,1,116.999994644165,2|0,3:2|0:0,0:0:0:0:
508,369,491590,1,10,0:2:0:0:
497,311,491668,1,8,0:2:0:0:
464,263,491746,1,8,0:2:0:0:
415,233,491824,1,8,0:2:0:0:
358,224,491903,5,14,0:2:0:0:
208,368,492059,1,2,3:2:0:0:
273,99,492215,5,2,0:2:0:0:
361,352,492371,1,14,0:2:0:0:
404,122,492528,5,0,0:0:0:0:
175,226,492684,1,0,0:0:0:0:
359,20,492840,5,14,0:2:0:0:
358,224,492996,1,2,3:2:0:0:
121,64,493153,5,14,0:2:0:0:
271,314,493309,1,2,0:2:0:0:
55,273,493465,1,2,3:2:0:0:
254,121,493621,6,0,P|247:38|191:-15,1,116.999994644165,14|0,0:2|0:2,0:0:0:0:
358,224,493934,2,0,P|365:141|421:88,1,116.999994644165,2|0,3:2|0:0,0:0:0:0:
454,273,494246,1,10,0:2:0:0:
463,45,494403,5,14,3:2:0:0:
382,115,494559,1,10,0:2:0:0:
477,172,494715,1,10,0:2:0:0:
333,18,494871,1,10,0:2:0:0:
266,212,495028,2,0,L|310:342,1,116.999994644165,10|0,0:2|0:0,0:0:0:0:
454,273,495340,5,10,0:2:0:0:
120,290,495496,1,14,3:2:0:0:
111,200,505152,6,0,P|210:179|262:199,1,116.999994644165,6|0,1:2|0:2,0:0:0:0:
257,221,505394,1,0,0:0:0:0:
257,221,505475,1,8,0:2:0:0:
101,317,505636,1,8,0:2:0:0:
350,54,505798,2,0,B|278:171|409:152|325:312,1,233.999989288331,2|8,1:2|0:2,0:0:0:0:
272,351,506281,1,0,0:2:0:0:
103,206,506443,6,0,P|86:143|31:91,1,116.999994644165,2|0,1:2|0:2,0:0:0:0:
182,118,506765,2,0,P|199:55|254:3,1,116.999994644165,10|8,0:2|0:2,0:0:0:0:
332,26,507007,1,8,0:2:0:0:
332,26,507088,6,0,P|367:103|368:171,1,116.999994644165,2|0,1:2|0:2,0:0:0:0:
449,293,507411,2,0,P|457:210|489:154,1,116.999994644165,14|8,0:2|0:2,0:0:0:0:
372,135,507652,1,8,0:2:0:0:
372,135,507733,6,0,P|271:182|307:320,1,233.999989288331,6|8,1:2|0:2,0:0:0:0:
351,371,508217,1,0,0:2:0:0:
130,302,508378,2,0,B|87:151|207:218|148:45,1,233.999989288331,2|8,1:2|0:2,0:0:0:0:
22,253,508862,1,10,0:2:0:0:
261,50,509023,5,2,1:2:0:0:
69,138,509185,1,2,1:2:0:0:
270,229,509346,2,0,P|352:216|390:157,1,116.999994644165,14|0,0:2|0:2,0:0:0:0:
366,141,509588,5,0,0:0:0:0:
335,189,509669,1,8,0:2:0:0:
337,247,509749,1,8,0:2:0:0:
370,294,509830,1,8,0:2:0:0:
424,314,509911,1,8,0:2:0:0:
480,301,509991,2,0,P|480:242|483:137,1,116.999994644165,10|8,3:2|3:2,0:0:0:0:
413,37,510233,5,8,3:2:0:0:
413,37,510314,2,0,P|341:51|267:32,1,116.999994644165,6|0,1:2|0:2,0:0:0:0:
189,26,510636,1,10,0:2:0:0:
259,172,510798,1,10,0:2:0:0:
62,215,510959,6,0,P|63:145|28:75,1,116.999994644165,6|0,1:2|0:2,0:0:0:0:
142,347,511281,2,0,P|147:276|189:205,1,116.999994644165,10|0,0:2|1:2,0:0:0:0:
259,172,511523,1,0,0:2:0:0:
259,172,511604,6,0,P|299:203|390:207,1,116.999994644165,6|0,1:2|0:2,0:0:0:0:
454,290,511927,2,0,P|406:328|323:325,1,116.999994644165,10|8,0:2|0:2,0:0:0:0:
472,85,512249,2,0,P|462:140|481:228,1,116.999994644165,2|0,1:2|0:2,0:0:0:0:
344,0,512572,2,0,P|354:55|335:143,1,116.999994644165,10|8,0:2|0:2,0:0:0:0:
239,138,512814,1,8,0:2:0:0:
239,138,512894,6,0,B|78:138|181:29|0:40,1,233.999989288331,6|10,1:2|0:2,0:0:0:0:
40,39,513378,1,2,0:2:0:0:
236,44,513540,2,0,P|296:55|316:205,1,233.999989288331,2|8,1:2|0:2,0:0:0:0:
241,281,514023,1,2,0:2:0:0:
447,202,514185,5,10,3:2:0:0:
455,144,514265,1,8,3:0:0:0:
438,89,514346,1,8,3:0:0:0:
377,303,514507,1,8,0:0:0:0:
115,64,515475,5,14,0:2:0:0:
220,311,515636,1,0,1:2:0:0:
271,45,515798,5,8,0:2:0:0:
367,295,515959,1,0,1:2:0:0:
9,141,516120,5,10,0:2:0:0:
221,175,516281,1,0,1:2:0:0:
13,29,516443,5,8,0:2:0:0:
104,271,516604,1,2,1:2:0:0:
330,144,516765,6,0,P|317:98|270:44,1,116.999994644165,14|0,0:2|1:2,0:0:0:0:
389,11,517088,1,10,0:2:0:0:
221,175,517249,1,2,1:2:0:0:
440,230,517411,2,0,P|439:162|479:100,1,116.999994644165,10|0,0:2|1:2,0:0:0:0:
334,351,517733,2,0,P|335:283|295:221,1,116.999994644165,10|0,0:2|1:2,0:0:0:0:
221,175,517975,1,0,1:2:0:0:
221,175,518056,6,0,B|88:197|138:88|2:108,1,233.999989288331,14|8,0:2|0:2,0:0:0:0:
63,251,518540,1,0,1:2:0:0:
278,359,518701,2,0,B|242:229|355:267|321:134,1,233.999989288331,10|8,0:2|0:2,0:0:0:0:
371,315,519185,1,2,1:2:0:0:
406,65,519346,5,14,0:2:0:0:
323,141,519507,1,2,1:2:0:0:
161,51,519669,2,0,P|205:37|280:39,1,116.999994644165,10|0,0:2|1:2,0:0:0:0:
63,150,519991,2,0,P|107:164|182:162,1,116.999994644165,10|0,0:2|1:2,0:0:0:0:
252,299,520314,2,0,P|194:283|109:317,1,116.999994644165,10|0,0:2|1:2,0:0:0:0:
349,351,520636,6,0,P|358:273|260:196,1,175.499991966248,6|0,1:2|0:0,0:0:0:0:
272,120,520959,2,0,L|255:53,1,58.4999973220826,10|8,1:2|0:2,0:0:0:0:
365,13,521120,2,0,L|363:83,1,58.4999973220826,10|8,0:2|0:2,0:0:0:0:
252,299,521281,2,0,P|187:317|73:256,1,175.499991966248,6|0,1:2|0:0,0:0:0:0:
89,112,521604,2,0,L|72:179,1,58.4999973220826,10|8,1:2|0:2,0:0:0:0:
182,219,521765,2,0,L|180:149,1,58.4999973220826,8|8,0:2|0:2,0:0:0:0:
130,28,521927,2,0,P|47:22|-4:134,1,175.499991966248,14|0,1:2|0:0,0:0:0:0:
70,188,522249,6,0,L|4:203,1,58.4999973220826,10|8,1:2|0:2,0:0:0:0:
99,277,522411,2,0,L|161:291,1,58.4999973220826,8|8,0:2|0:2,0:0:0:0:
268,298,522572,2,0,P|241:349|191:379,1,116.999994644165,14|0,1:2|0:0,0:0:0:0:
88,102,522894,5,10,1:2:0:0:
88,102,522975,1,8,0:2:0:0:
88,102,523056,1,8,0:2:0:0:
237,189,523217,6,0,P|263:138|383:127,1,175.499991966248,6|0,1:2|0:0,0:0:0:0:
422,147,523540,1,8,1:2:0:0:
474,124,523620,1,8,0:2:0:0:
491,70,523701,1,10,0:2:0:0:
462,22,523781,1,8,0:2:0:0:
406,11,523862,1,10,1:2:0:0:
347,7,523943,1,8,0:2:0:0:
290,18,524023,1,8,0:2:0:0:
238,45,524104,1,8,0:2:0:0:
195,84,524185,1,8,1:2:0:0:
162,131,524265,1,8,0:2:0:0:
107,150,524346,1,10,0:2:0:0:
52,135,524427,1,8,0:2:0:0:
15,90,524507,6,0,P|68:60|115:57,1,58.4999973220826,10|8,1:2|0:2,0:0:0:0:
211,161,524669,2,0,P|158:130|111:127,1,58.4999973220826,10|8,0:2|0:2,0:0:0:0:
86,277,524830,2,0,P|138:246|185:243,1,58.4999973220826,10|8,1:2|0:2,0:0:0:0:
307,342,524991,2,0,P|254:311|207:308,1,58.4999973220826,10|8,0:2|0:2,0:0:0:0:
18,232,525152,5,10,3:2:0:0:
5,287,525233,1,8,3:2:0:0:
30,340,525314,1,8,3:2:0:0:
80,365,525394,1,8,3:2:0:0:
137,356,525475,2,0,P|165:335|186:295,1,58.4999973220826,10|8,3:0|3:0,0:0:0:0:
211,161,525636,1,8,3:0:0:0:
211,161,525717,1,8,3:0:0:0:
211,161,525798,2,0,P|259:214|338:225,1,116.999994644165,14|0,1:2|0:2,0:0:0:0:
407,46,526120,5,10,0:2:0:0:
312,113,526281,1,2,0:2:0:0:
403,245,526443,2,0,P|405:172|440:125,1,116.999994644165,2|0,1:2|1:2,0:0:0:0:
496,282,526765,2,0,P|454:338|390:350,1,116.999994644165,10|0,0:2|0:2,0:0:0:0:
69,246,527088,6,0,L|93:385,1,116.999994644165,6|0,1:2|0:0,0:0:0:0:
208,158,527411,2,0,L|184:297,1,116.999994644165,6|0,1:2|0:0,0:0:0:0:
92,131,527733,2,0,P|33:127|-24:182,1,116.999994644165,6|0,1:2|0:0,0:0:0:0:
191,48,528056,2,0,P|250:44|307:99,1,116.999994644165,6|0,1:2|0:0,0:0:0:0:
74,20,528378,1,6,1:2:0:0:
208,158,528701,5,8,0:2:0:0:
191,48,528862,1,10,0:2:0:0:
80,144,529023,5,10,0:2:0:0:
339,218,529185,1,8,0:2:0:0:
311,40,529346,5,8,0:2:0:0:
216,328,529507,1,8,0:2:0:0:
428,116,529669,5,8,0:2:0:0:
208,158,529830,1,8,0:2:0:0:
390,339,529991,1,8,0:2:0:0:
311,40,530152,5,8,0:2:0:0:
438,226,530314,1,8,0:2:0:0:
420,6,530475,5,8,0:2:0:0:
287,224,530636,1,8,0:2:0:0:
512,117,530798,5,10,0:2:0:0:
115,191,530959,5,14,0:2:0:0:
390,339,531120,1,0,1:2:0:0:
311,40,531281,1,2,1:2:0:0:
397,126,531443,5,14,0:2:0:0:
185,351,531604,1,0,1:2:0:0:
162,56,531765,1,2,1:2:0:0:
50,346,531927,6,0,P|41:277|13:211,1,116.999994644165,14|0,0:2|0:2,0:0:0:0:
229,229,532249,2,0,P|238:160|266:94,1,116.999994644165,2|12,1:2|0:2,0:0:0:0:
332,268,532572,1,2,1:2:0:0:
162,56,532733,1,2,1:2:0:0:
134,106,532814,1,0,0:0:0:0:
139,164,532894,1,8,3:0:0:0:
174,209,532975,1,8,3:0:0:0:
229,229,533056,1,10,3:0:0:0:
376,9,533217,2,0,P|308:33|260:33,1,116.999994644165,14|0,0:2|0:2,0:0:0:0:
332,268,533540,6,0,P|350:209|393:170,1,107.999996704102,14|2,0:2|1:2,0:0:0:0:
488,374,533862,2,0,P|470:315|427:276,1,107.999996704102,10|2,0:2|1:2,0:0:0:0:
213,352,534185,2,0,P|286:356|343:377,1,107.999996704102,8|0,0:2|1:2,0:0:0:0:
229,229,534507,1,14,0:2:0:0:
94,321,534669,2,0,P|94:251|33:178,1,161.999995056153,10|0,0:2|0:0,0:0:0:0:
19,131,534991,1,14,0:2:0:0:
19,131,535072,1,0,0:0:0:0:
19,131,535152,2,0,L|146:80,1,107.999996704102,10|2,0:2|1:2,0:0:0:0:
235,49,535394,5,0,1:2:0:0:
235,49,535475,2,0,L|219:195,1,107.999996704102,14|2,0:2|1:2,0:0:0:0:
361,284,535798,1,14,0:2:0:0:
341,125,535959,1,2,0:2:0:0:
177,245,536120,6,0,P|159:186|116:147,1,107.999996704102,14|2,0:2|1:2,0:0:0:0:
21,351,536443,2,0,P|39:292|82:253,1,107.999996704102,10|2,0:2|1:2,0:0:0:0:
296,329,536765,2,0,P|223:333|166:354,1,107.999996704102,8|2,0:2|1:2,0:0:0:0:
415,298,537088,1,14,0:2:0:0:
415,298,537249,2,0,P|415:228|476:155,1,161.999995056153,10|0,0:2|0:0,0:0:0:0:
490,108,537572,1,14,0:2:0:0:
490,108,537652,1,0,0:0:0:0:
490,108,537733,2,0,L|363:57,1,107.999996704102,10|2,0:2|1:2,0:0:0:0:
274,26,537975,5,0,1:2:0:0:
274,26,538056,2,0,L|290:172,1,107.999996704102,14|2,0:2|1:2,0:0:0:0:
148,261,538378,1,14,0:2:0:0:
168,102,538540,1,2,1:2:0:0:
221,323,538701,6,0,P|167:359|86:343,1,107.999996704102,14|2,0:2|1:2,0:0:0:0:
259,221,539023,2,0,P|311:259|323:341,1,107.999996704102,10|2,0:2|1:2,0:0:0:0:
437,328,539346,2,0,P|430:259|458:196,1,107.999996704102,8|2,0:2|1:2,0:0:0:0:
423,44,539669,5,14,0:2:0:0:
423,44,539830,2,0,P|366:92|294:103,1,107.999996704102,10|0,0:2|1:2,0:0:0:0:
215,94,540072,1,0,0:0:0:0:
215,94,540152,2,0,L|191:203,1,107.999996704102,14|10,0:2|0:2,0:0:0:0:
75,251,540475,1,2,1:2:0:0:
75,251,540556,1,0,1:2:0:0:
75,251,540636,6,0,L|37:135,1,107.999996704102,14|2,0:2|1:2,0:0:0:0:
0,318,540959,1,14,0:2:0:0:
139,327,541120,2,0,P|194:306|316:353,1,161.999995056153,14|0,0:2|0:0,0:0:0:0:
393,332,541443,2,0,L|381:252,1,53.9999983520508,10|0,0:2|0:0,0:0:0:0:
489,136,541604,2,0,P|479:193|509:286,1,107.999996704102,10|0,0:2|1:2,0:0:0:0:
381,171,541846,6,0,P|321:190|283:245,1,107.999996704102,0|0,1:2|0:0,0:0:0:0:
185,215,542088,2,0,P|166:154|111:113,1,107.999996704102,10|0,0:2|1:2,0:0:0:0:
103,38,542330,1,0,1:2:0:0:
103,38,542411,2,0,L|183:26,1,53.9999983520508,10|0,0:2|0:0,0:0:0:0:
341,59,542572,2,0,P|274:70|220:98,1,107.999996704102,10|0,0:2|1:2,0:0:0:0:
50,205,542814,5,0,1:0:0:0:
50,205,542894,2,0,L|70:275,1,53.9999983520508,14|0,0:2|0:0,0:0:0:0:
185,215,543056,2,0,L|163:329,1,107.999996704102,14|0,0:2|1:2,0:0:0:0:
61,348,543378,1,14,0:2:0:0:
298,304,543540,1,14,0:2:0:0:
135,124,543701,1,14,0:2:0:0:
428,171,549091,5,2,0:0:0:0:
428,171,549303,2,0,B|413:77|413:77|459:29|459:29,2,135,2|0|2,0:0|0:0|0:0,0:0:0:0:
443,302,550148,6,0,L|317:326,1,90,4|0,3:2|0:0,0:0:0:0:
265,272,550359,2,0,L|151:270,1,90,8|0,0:0|0:0,0:0:0:0:
93,175,550570,1,0,3:0:0:0:
93,175,550676,1,0,3:0:0:0:
93,175,550781,2,0,L|109:73,1,90,10|0,0:0|0:0,0:0:0:0:
241,0,550993,6,0,L|213:191,1,180,2|8,3:2|0:0,0:0:0:0:
97,317,551310,1,0,0:0:0:0:
97,317,551415,1,2,3:2:0:0:
97,317,551521,2,0,P|132:346|261:316,1,180,0|0,3:2|0:0,0:0:0:0:
342,184,551838,6,0,L|317:296,1,90,2|0,3:2|0:0,0:0:0:0:
436,358,552049,1,10,0:0:0:0:
436,358,552155,1,0,0:0:0:0:
436,358,552260,2,0,L|422:249,1,90,2|0,3:0|3:0,0:0:0:0:
241,104,552472,2,0,L|266:216,1,90,10|0,0:0|0:0,0:0:0:0:
333,57,552683,2,0,P|206:6|127:72,1,180,2|8,3:0|0:0,0:0:0:0:
99,121,553000,1,0,0:0:0:0:
99,121,553105,2,0,L|-8:140,1,90,2|0,3:0|3:0,0:0:0:0:
91,225,553317,2,0,L|221:251,1,90,10|0,0:0|0:0,0:0:0:0:
113,338,553528,2,0,L|-17:364,1,90,4|0,3:2|0:0,0:0:0:0:
261,318,553739,6,0,P|282:272|251:167,1,90,10|0,0:0|0:0,0:0:0:0:
255,55,553950,2,0,L|239:171,1,90,2|0,3:0|3:0,0:0:0:0:
360,37,554162,2,0,L|344:153,1,90,10|0,0:0|0:0,0:0:0:0:
389,330,554373,6,0,P|416:243|460:206,1,90,6|0,3:2|0:0,0:0:0:0:
512,111,554584,1,8,0:0:0:0:
512,111,554690,1,0,0:0:0:0:
512,111,554796,2,0,P|419:149|347:126,1,180,2|0,3:0|0:0,0:0:0:0:
255,55,555112,1,0,0:0:0:0:
255,55,555218,6,0,L|359:33,1,90,6|0,3:2|0:0,0:0:0:0:
228,151,555429,2,0,L|117:138,1,90,10|0,0:0|0:0,0:0:0:0:
67,89,555641,1,0,3:0:0:0:
37,173,555746,1,0,3:0:0:0:
93,243,555852,6,0,L|235:268,1,90,10|0,0:0|0:0,0:0:0:0:
374,229,556063,2,0,P|309:249|282:362,2,180,2|8|10,3:0|0:0|0:0,0:0:0:0:
462,250,556591,1,8,0:0:0:0:
446,338,556697,1,10,0:0:0:0:
358,316,556803,1,8,0:0:0:0:
374,228,556908,2,0,L|396:110,1,90,4|0,3:2|0:0,0:0:0:0:
470,74,557119,6,0,B|486:128|486:128|457:272,1,180,10|0,0:0|3:0,0:0:0:0:
373,228,557436,1,0,3:0:0:0:
284,240,557542,2,0,P|171:282|151:312,1,90,10|0,0:0|0:0,0:0:0:0:
154,338,557753,2,0,P|41:296|17:213,1,180,2|8,3:0|0:0,0:0:0:0:
51,163,558070,1,0,0:0:0:0:
51,163,558176,2,0,L|166:135,1,90,2|0,3:0|3:0,0:0:0:0:
194,70,558387,2,0,L|64:34,1,90,10|0,0:0|0:0,0:0:0:0:
266,142,558598,6,0,P|287:45|252:9,1,90,2|0,3:0|0:0,0:0:0:0:
391,141,558810,2,0,P|422:234|471:247,1,90,10|0,0:0|0:0,0:0:0:0:
266,142,559021,2,0,P|287:45|252:9,1,90,2|0,3:0|3:0,0:0:0:0:
391,141,559232,2,0,P|422:234|471:247,1,90,10|0,0:0|0:0,0:0:0:0:
442,309,559443,2,0,L|291:353,1,90,2|0,3:0|0:0,0:0:0:0:
277,288,559655,6,0,P|225:286|160:312,1,90,10|0,0:0|0:0,0:0:0:0:
109,339,559866,2,0,P|37:342|1:314,1,90,2|0,3:0|3:0,0:0:0:0:
30,244,560077,5,10,0:0:0:0:
92,179,560183,1,0,0:0:0:0:
178,204,560288,2,0,P|218:195|271:161,1,90,4|0,3:2|0:0,0:0:0:0:
290,61,560500,2,0,B|223:63|223:63|183:37|183:37|50:49,1,180,10|0,0:0|0:0,0:0:0:0:
44,96,560817,5,0,3:0:0:0:
92,179,560922,2,0,L|194:207,1,90,10|0,0:0|0:0,0:0:0:0:
303,264,561134,2,0,L|186:299,1,90,4|0,3:2|0:0,0:0:0:0:
375,380,561345,2,0,P|430:297|388:166,1,180,10|0,0:0|3:0,0:0:0:0:
355,161,561662,1,0,3:0:0:0:
410,62,561767,5,10,0:0:0:0:
304,54,561873,2,0,L|231:130,1,90,0|6,0:0|3:2,0:0:0:0:
125,190,562084,2,0,L|149:70,1,90,0|8,0:0|0:0,0:0:0:0:
9,231,562296,2,0,L|215:341,1,180,0|0,0:0|0:0,0:0:0:0:
257,305,562612,6,0,P|361:221|398:220,1,90,10|0,0:0|0:0,0:0:0:0:
400,266,562824,2,0,P|474:166|435:45,1,180,2|0,3:0|0:0,0:0:0:0:
404,71,563141,1,8,0:0:0:0:
323,72,563246,1,10,0:0:0:0:
241,72,563352,1,0,0:0:0:0:
159,72,563458,1,10,0:0:0:0:
78,67,563563,1,8,0:0:0:0:
31,148,563669,6,0,L|45:206,1,45,4|0,3:2|0:0,0:0:0:0:
140,195,563880,2,0,L|126:253,1,45,2|0,3:0|0:0,0:0:0:0:
50,282,564091,2,0,L|64:340,1,45,0|0,3:0|0:0,0:0:0:0:
152,329,564303,5,2,3:0:0:0:
252,354,564514,2,0,L|289:246,1,90,10|2,0:0|0:0,0:0:0:0:
386,273,564936,2,0,L|349:165,1,90,2|8,0:0|0:0,0:0:0:0:
267,55,565359,6,0,L|261:138,1,67.5000025749208,2|0,3:0|0:0,0:0:0:0:
154,101,565570,2,0,L|167:194,1,67.5000025749208,2|0,3:0|0:0,0:0:0:0:
79,294,565781,2,0,L|52:190,1,67.5000025749208,2|0,3:0|0:0,0:0:0:0:
160,353,565993,2,0,L|187:248,1,67.5000025749208,2|0,3:0|0:0,0:0:0:0:
284,228,566204,6,0,P|307:294|412:297,1,135.000005149842,10|0,0:0|0:0,0:0:0:0:
480,229,566627,2,0,L|515:141,1,67.5000025749208,2|0,3:0|0:0,0:0:0:0:
356,77,566838,2,0,L|381:246,1,135.000005149842,2|0,3:0|3:0,0:0:0:0:
263,228,567155,1,0,0:0:0:0:
263,228,567260,2,0,L|158:224,1,67.5000025749208,2|0,0:0|3:0,0:0:0:0:
93,150,567472,2,0,L|189:129,2,67.5000025749208,2|0|10,0:0|0:0|0:0,0:0:0:0:
11,306,567894,6,0,L|180:336,1,135.000005149842,2|0,3:0|0:0,0:0:0:0:
195,225,568317,1,2,0:0:0:0:
195,225,568422,2,0,L|103:237,2,67.5000025749208,0|2|0,0:0|3:0|0:0,0:0:0:0:
316,182,568739,6,0,L|291:82,1,67.5000025749208,2|0,3:0|0:0,0:0:0:0:
442,90,568950,2,0,L|411:278,1,135.000005149842,2|0,0:0|0:0,0:0:0:0:
348,334,569373,6,0,L|452:310,1,67.5000025749208,2|0,3:0|0:0,0:0:0:0:
420,223,569584,2,0,L|244:259,2,135.000005149842,10|0|2,0:0|0:0|3:0,0:0:0:0:
299,116,570218,1,2,3:0:0:0:
232,129,570324,1,0,0:0:0:0:
166,143,570429,2,0,L|34:137,1,67.5000025749208,0|0,3:0|0:0,0:0:0:0:
105,233,570641,2,0,L|-27:239,1,67.5000025749208,0|0,3:0|0:0,0:0:0:0:
159,344,570852,2,0,L|27:338,1,67.5000025749208,0|0,3:0|0:0,0:0:0:0:
251,276,571063,6,0,L|295:388,1,67.5000025749208,2|0,3:0|0:0,0:0:0:0:
359,269,571274,2,0,L|403:157,1,67.5000025749208,10|0,0:0|0:0,0:0:0:0:
464,285,571486,2,0,L|508:397,1,67.5000025749208,2|0,0:0|0:0,0:0:0:0:
482,182,571697,6,0,P|455:137|383:118,1,67.5000025749208,2|0,0:0|0:0,0:0:0:0:
338,101,571908,2,0,P|365:56|437:37,1,67.5000025749208,10|0,0:0|0:0,0:0:0:0:
229,88,572119,2,0,P|173:132|60:120,1,135.000005149842,2|2,3:0|3:0,0:0:0:0:
18,237,572542,1,2,3:0:0:0:
18,237,572753,2,0,P|79:243|118:260,1,67.5000025749208,2|0,3:0|0:0,0:0:0:0:
129,329,572965,2,0,L|-33:376,1,135.000005149842,10|2,0:0|0:0,0:0:0:0:
188,215,573387,5,10,0:0:0:0:
232,264,573493,1,8,0:0:0:0:
239,330,573598,1,10,0:0:0:0:
301,354,573704,1,8,0:0:0:0:
364,335,573810,2,0,P|402:298|539:329,2,202.500007724762,14|10|14,0:0|0:0|0:0,0:0:0:0:
403,109,574760,5,10,0:0:0:0:
403,109,575077,5,8,0:0:0:0:
335,111,575183,1,8,0:0:0:0:
268,113,575288,1,8,0:0:0:0:
200,116,575394,1,8,0:0:0:0:
133,118,575500,2,0,L|123:312,1,135.000005149842,6|0,3:2|0:0,0:0:0:0:
303,304,576134,5,2,0:0:0:0:
303,304,576345,2,0,B|265:252|265:252|268:96,2,202.500007724762,2|0|2,0:0|0:0|0:0,0:0:0:0:
357,63,577190,2,0,P|321:33|223:33,1,90,4|0,3:2|0:0,0:0:0:0:
396,156,577401,2,0,P|429:131|444:76,1,90,10|0,0:0|0:0,0:0:0:0:
267,113,577612,1,0,3:0:0:0:
267,113,577718,1,0,3:0:0:0:
267,113,577824,6,0,B|114:113,1,90,10|0,0:0|0:0,0:0:0:0:
56,123,578035,1,2,3:2:0:0:
56,123,578141,2,0,L|89:214,1,90,0|10,0:0|0:0,0:0:0:0:
188,287,578352,1,0,0:0:0:0:
188,287,578458,2,0,L|167:392,1,90,2|0,3:2|3:2,0:0:0:0:
172,192,578669,2,0,P|233:196|282:278,1,90,8|0,0:0|0:0,0:0:0:0:
352,364,578880,6,0,P|346:318|299:248,1,90,2|0,3:2|0:0,0:0:0:0:
393,126,579091,2,0,L|407:248,1,90,10|0,0:0|0:0,0:0:0:0:
427,303,579303,2,0,P|476:305|515:286,1,90,2|0,3:0|3:0,0:0:0:0:
418,45,579514,2,0,P|368:42|329:61,1,90,10|0,0:0|0:0,0:0:0:0:
263,153,579725,2,0,P|180:171|120:80,1,180,2|8,3:0|0:0,0:0:0:0:
128,19,580042,1,0,0:0:0:0:
239,0,580148,2,0,L|212:95,1,90,2|0,3:0|3:0,0:0:0:0:
138,251,580359,2,0,P|221:286|252:340,1,90,10|0,0:0|0:0,0:0:0:0:
297,353,580570,5,4,3:2:0:0:
382,357,580676,1,0,0:0:0:0:
411,262,580781,2,0,P|440:158|477:138,1,90,10|0,0:0|0:0,0:0:0:0:
434,77,580993,2,0,P|392:81|306:66,1,90,2|0,3:0|3:0,0:0:0:0:
239,0,581204,2,0,L|267:140,1,90,10|0,0:0|0:0,0:0:0:0:
268,201,581415,6,0,P|107:219|65:144,1,180,6|8,3:2|0:0,0:0:0:0:
127,119,581732,1,0,0:0:0:0:
256,88,581838,2,0,L|363:73,1,90,2|0,3:0|3:0,0:0:0:0:
448,195,582049,2,0,L|341:180,1,90,8|0,0:0|0:0,0:0:0:0:
268,201,582260,2,0,P|290:304|319:332,1,90,6|0,3:2|0:0,0:0:0:0:
495,277,582472,2,0,P|541:189|456:89,1,180,10|0,0:0|3:0,0:0:0:0:
443,28,582788,1,0,3:0:0:0:
345,75,582894,6,0,L|203:97,1,90,10|0,0:0|0:0,0:0:0:0:
163,256,583105,2,0,P|225:386|344:372,1,270,2|0,3:0|0:0,0:0:0:0:
280,288,583528,1,10,0:0:0:0:
268,201,583634,1,8,0:0:0:0:
196,151,583739,1,10,0:0:0:0:
110,166,583845,1,8,0:0:0:0:
54,238,583950,2,0,L|70:341,1,90,4|0,3:2|0:0,0:0:0:0:
110,166,584162,2,0,P|75:135|-9:282,1,270,10|0,0:0|3:0,0:0:0:0:
67,326,584584,6,0,L|169:322,1,90,10|0,0:0|0:0,0:0:0:0:
369,290,584796,2,0,P|249:331|247:418,1,180,2|8,3:0|0:0,0:0:0:0:
337,373,585112,1,0,0:0:0:0:
423,367,585218,1,2,3:0:0:0:
473,295,585324,1,0,3:0:0:0:
452,208,585429,2,0,P|406:172|315:195,1,90,10|0,0:0|0:0,0:0:0:0:
272,156,585641,2,0,P|228:145|196:115,1,90,2|0,3:0|0:0,0:0:0:0:
108,24,585852,2,0,L|88:180,1,90,10|0,0:0|0:0,0:0:0:0:
43,295,586063,6,0,L|159:269,1,90,2|0,3:0|3:0,0:0:0:0:
287,371,586274,2,0,L|171:345,1,90,10|0,0:0|0:0,0:0:0:0:
227,250,586486,2,0,P|302:184|390:316,1,270,2|0,3:0|0:0,0:0:0:0:
411,384,586908,1,10,0:0:0:0:
483,332,587014,1,8,0:0:0:0:
511,248,587119,1,10,0:0:0:0:
484,164,587225,1,8,0:0:0:0:
412,112,587331,1,6,3:2:0:0:
377,100,589866,6,0,L|210:88,1,90,10|0,0:0|0:0,0:0:0:0:
196,89,590077,5,4,3:2:0:0:
133,258,590288,1,0,3:0:0:0:
306,303,590500,1,0,3:0:0:0:
377,101,590711,1,14,0:0:0:0:
