osu file format v14

[General]
AudioFilename: audio.mp3
AudioLeadIn: 0
PreviewTime: 49354
Countdown: 0
SampleSet: Normal
StackLeniency: 0.7
Mode: 3
LetterboxInBreaks: 0
SpecialStyle: 0
WidescreenStoryboard: 1

[Editor]
DistanceSpacing: 1
BeatDivisor: 4
GridSize: 32
TimelineZoom: 1.8

[Metadata]
Title:Shine Holder (Cut Ver.)
TitleUnicode:Shine Holder (Cut Ver.)
Artist:THE ORAL CIGARETTES
ArtistUnicode:THE ORAL CIGARETTES
Creator:Klee_fs
Version:Pairo's Easy
Source:
Tags:japanese rock jrock suck my world みふる Takuya Yamanaka A-Sketch short version toc yuiazu- pairoxd lita- stelar
BeatmapID:2941191
BeatmapSetID:1428278

[Difficulty]
HPDrainRate:7
CircleSize:4
OverallDifficulty:7
ApproachRate:5
SliderMultiplier:1.4
SliderTickRate:1

[Events]
//Background and Video events
0,0,"blobtzifyyy.jpg",0,0
//Break Periods
//Storyboard Layer 0 (Background)
//Storyboard Layer 1 (Fail)
//Storyboard Layer 2 (Pass)
//Storyboard Layer 3 (Foreground)
//Storyboard Layer 4 (Overlay)
//Storyboard Sound Samples

[TimingPoints]
466,444.444444444444,4,1,1,70,1,0
50132,-100,4,1,1,70,0,1
75021,-100,4,1,1,70,0,0

[HitObjects]
448,192,466,5,4,0:0:0:0:
320,192,466,1,2,0:0:0:0:
64,192,910,1,8,0:0:0:0:
320,192,1243,1,8,0:0:0:0:
192,192,1577,1,2,0:0:0:0:
448,192,1799,1,8,0:0:0:0:
192,192,2243,1,2,0:0:0:0:
320,192,2688,1,8,0:0:0:0:
64,192,3021,1,8,0:0:0:0:
448,192,3354,1,2,0:0:0:0:
192,192,3577,1,8,0:0:0:0:
448,192,4021,1,2,0:0:0:0:
64,192,4465,1,8,0:0:0:0:
320,192,4799,1,8,0:0:0:0:
192,192,5132,1,2,0:0:0:0:
448,192,5354,1,8,0:0:0:0:
192,192,5799,1,2,0:0:0:0:
320,192,6243,1,8,0:0:0:0:
64,192,6688,1,2,0:0:0:0:
448,192,6910,1,2,0:0:0:0:
192,192,7132,128,8,7465:0:0:0:0:
64,192,7465,1,2,0:0:0:0:
448,192,7465,1,4,0:0:0:0:
448,192,8021,1,0,0:0:0:0:
320,192,8021,1,8,0:0:0:0:
64,192,8465,1,2,0:0:0:0:
192,192,8910,1,8,0:0:0:0:
320,192,8910,1,0,0:0:0:0:
448,192,9243,128,2,9577:0:0:0:0:
64,192,9799,1,8,0:0:0:0:
192,192,9799,1,0,0:0:0:0:
320,192,10243,1,2,0:0:0:0:
192,192,10688,128,8,11021:0:0:0:0:
64,192,11021,1,2,0:0:0:0:
448,192,11021,1,4,0:0:0:0:
320,192,11577,1,8,0:0:0:0:
448,192,11577,1,0,0:0:0:0:
192,192,12021,1,2,0:0:0:0:
448,192,12465,1,0,0:0:0:0:
64,192,12465,1,8,0:0:0:0:
320,192,12799,128,2,13132:0:0:0:0:
192,192,13354,1,0,0:0:0:0:
64,192,13354,1,8,0:0:0:0:
448,192,13799,1,2,0:0:0:0:
320,192,14243,1,0,0:0:0:0:
192,192,14243,1,8,0:0:0:0:
64,192,14577,128,2,14910:0:0:0:0:
448,192,14577,1,4,0:0:0:0:
320,192,15132,1,8,0:0:0:0:
448,192,15132,1,0,0:0:0:0:
192,192,15465,128,8,15799:0:0:0:0:
448,192,16021,1,8,0:0:0:0:
64,192,16021,1,0,0:0:0:0:
320,192,16354,128,2,16688:0:0:0:0:
64,192,16910,1,8,0:0:0:0:
192,192,16910,1,0,0:0:0:0:
448,192,17354,1,2,0:0:0:0:
192,192,17799,128,8,18132:0:0:0:70:tom01.wav
64,192,18132,1,2,0:0:0:0:
448,192,18132,1,4,0:0:0:0:
64,192,18688,1,8,0:0:0:0:
320,192,18688,1,0,0:0:0:0:
192,192,19132,1,2,0:0:0:0:
448,192,19577,1,0,0:0:0:0:
64,192,19577,1,8,0:0:0:0:
320,192,19910,128,2,20243:0:0:0:0:
448,192,20465,1,0,0:0:0:0:
192,192,20465,1,8,0:0:0:0:
64,192,20910,128,2,21354:0:0:0:70:tom01.wav
192,192,21354,128,8,21688:0:0:0:70:tom03.wav
320,192,21688,1,2,0:0:0:0:
448,192,21688,1,4,0:0:0:0:
320,192,22243,1,0,0:0:0:0:
192,192,22243,1,8,0:0:0:0:
448,192,22688,1,2,0:0:0:0:
192,192,23132,1,0,0:0:0:0:
64,192,23132,1,8,0:0:0:0:
320,192,23465,128,2,23799:0:0:0:0:
64,192,24021,1,8,0:0:0:0:
448,192,24021,1,0,0:0:0:0:
192,192,24465,1,2,0:0:0:0:
320,192,24910,128,8,25243:0:0:0:0:
192,192,25243,1,2,0:0:0:0:
64,192,25243,1,4,0:0:0:0:
192,192,25799,1,8,0:0:0:0:
320,192,25799,1,0,0:0:0:0:
64,192,26243,1,2,0:0:0:0:
320,192,26688,1,8,0:0:0:0:
448,192,26688,1,0,0:0:0:0:
192,192,27021,128,2,27354:0:0:0:0:
448,192,27577,1,0,0:0:0:0:
64,192,27577,1,8,0:0:0:0:
320,192,28021,1,2,0:0:0:0:
192,192,28465,1,8,0:0:0:0:
320,192,28799,1,2,0:0:0:0:
448,192,28799,128,4,29132:0:0:0:0:
192,192,29354,1,8,0:0:0:0:
64,192,29354,1,0,0:0:0:0:
320,192,29688,128,8,30021:0:0:0:0:
64,192,30243,1,8,0:0:0:0:
448,192,30243,1,0,0:0:0:0:
192,192,30577,128,2,30910:0:0:0:0:
448,192,31132,1,8,0:0:0:0:
320,192,31132,1,0,0:0:0:0:
64,192,31577,1,2,0:0:0:0:
320,192,32021,128,8,32354:0:0:0:70:tom01.wav
448,192,32354,1,4,0:0:0:0:
64,192,32354,1,2,0:0:0:0:
192,192,32910,1,8,0:0:0:0:
448,192,32910,1,0,0:0:0:0:
320,192,33354,1,2,0:0:0:0:
448,192,33799,1,0,0:0:0:0:
64,192,33799,1,8,0:0:0:0:
192,192,34132,128,2,34465:0:0:0:0:
64,192,34688,1,8,0:0:0:0:
320,192,34688,1,0,0:0:0:0:
448,192,35021,128,8,35577:0:0:0:0:
320,192,35577,128,2,35910:0:0:0:70:tom01.wav
192,192,35910,1,4,0:0:0:0:
64,192,35910,128,2,36465:0:0:0:0:
448,192,36465,128,8,36910:0:0:0:0:
320,192,36910,128,2,37354:0:0:0:0:
192,192,37354,1,8,0:0:0:0:
448,192,37688,128,2,38243:0:0:0:0:
64,192,38243,128,8,38688:0:0:0:0:
192,192,38688,128,2,39132:0:0:0:0:
320,192,39132,1,8,0:0:0:0:
448,192,39465,128,2,40021:0:0:0:0:
192,192,40021,1,8,0:0:0:0:
320,192,40465,128,2,40910:0:0:0:0:
64,192,40910,1,8,0:0:0:0:
192,192,41243,128,2,41799:0:0:0:0:
448,192,41799,128,8,42243:0:0:0:0:
320,192,42243,128,2,42688:0:0:0:0:
192,192,42688,1,8,0:0:0:0:
448,192,43021,1,4,0:0:0:0:
64,192,43021,128,2,43577:0:0:0:0:
320,192,43577,1,8,0:0:0:0:
448,192,44021,128,2,44465:0:0:0:0:
192,192,44465,1,8,0:0:0:0:
320,192,44799,128,2,45354:0:0:0:0:
64,192,45354,1,8,0:0:0:0:
448,192,45799,128,2,46243:0:0:0:70:tom01.wav
64,192,46243,128,2,46688:0:0:0:70:tom03.wav
320,192,46688,128,2,47132:0:0:0:0:
448,192,46688,1,4,0:0:0:0:
192,192,47132,128,8,47577:0:0:0:0:
320,192,47577,128,8,48021:0:0:0:0:
192,192,48021,128,8,48465:0:0:0:0:
448,192,48465,128,0,49354:0:0:0:0:
192,192,49354,128,0,49799:0:0:0:0:
320,192,49799,128,0,50132:0:0:0:0:
64,192,50132,1,2,0:0:0:0:
448,192,50132,1,4,0:0:0:0:
320,192,50688,1,0,0:0:0:0:
192,192,50688,1,8,0:0:0:0:
192,192,51354,1,2,0:0:0:0:
320,192,51577,1,8,0:0:0:0:
448,192,51577,1,0,0:0:0:0:
320,192,52243,1,2,0:0:0:0:
64,192,52465,1,8,0:0:0:0:
192,192,52465,1,0,0:0:0:0:
64,192,53132,1,2,0:0:0:0:
192,192,53354,1,8,0:0:0:0:
448,192,53354,1,0,0:0:0:0:
448,192,54021,1,2,0:0:0:0:
320,192,54243,1,0,0:0:0:0:
64,192,54243,1,8,0:0:0:0:
64,192,54910,1,2,0:0:0:0:
320,192,55132,1,8,0:0:0:0:
448,192,55132,1,0,0:0:0:0:
448,192,55799,1,2,0:0:0:0:
192,192,56021,1,0,0:0:0:0:
64,192,56021,1,8,0:0:0:0:
192,192,56688,1,2,0:0:0:0:
64,192,56910,1,8,0:0:0:0:
448,192,56910,1,0,0:0:0:0:
192,192,57243,1,2,0:0:0:0:
320,192,57243,1,4,0:0:0:0:
64,192,57799,1,8,0:0:0:0:
448,192,57799,1,0,0:0:0:0:
320,192,58243,1,2,0:0:0:0:
192,192,58688,1,8,0:0:0:0:
448,192,58688,1,0,0:0:0:0:
64,192,59132,1,2,0:0:0:0:
320,192,59577,1,8,0:0:0:0:
448,192,59577,1,0,0:0:0:0:
192,192,60021,1,2,0:0:0:0:
320,192,60465,128,8,60910:0:0:0:0:
448,192,60910,1,4,0:0:0:0:
64,192,60910,128,2,61354:0:0:0:0:
192,192,61354,1,8,0:0:0:0:
320,192,61799,1,2,0:0:0:0:
448,192,62243,1,0,0:0:0:0:
64,192,62243,1,8,0:0:0:0:
192,192,62577,1,2,0:0:0:0:
320,192,62577,1,4,0:0:0:0:
448,192,62910,128,0,63577:0:0:0:70:tom01.wav
64,192,63577,1,2,0:0:0:0:
192,192,63577,128,4,64021:0:0:0:0:
320,192,64021,128,8,64354:0:0:0:0:
448,192,64354,1,4,0:0:0:0:
64,192,64354,1,2,0:0:0:0:
64,192,64688,1,2,0:0:0:0:
448,192,64910,1,0,0:0:0:0:
192,192,64910,1,8,0:0:0:0:
448,192,65577,1,2,0:0:0:0:
64,192,65799,1,8,0:0:0:0:
320,192,65799,1,0,0:0:0:0:
64,192,66465,1,2,0:0:0:0:
320,192,66688,1,8,0:0:0:0:
448,192,66688,1,0,0:0:0:0:
448,192,67354,1,2,0:0:0:0:
192,192,67577,1,0,0:0:0:0:
64,192,67577,1,8,0:0:0:0:
192,192,68243,1,2,0:0:0:0:
320,192,68465,1,8,0:0:0:0:
448,192,68465,1,0,0:0:0:0:
320,192,69132,1,2,0:0:0:0:
192,192,69354,1,0,0:0:0:0:
64,192,69354,1,8,0:0:0:0:
192,192,70021,1,2,0:0:0:0:
320,192,70243,1,0,0:0:0:0:
64,192,70243,1,8,0:0:0:0:
320,192,70910,1,2,0:0:0:0:
64,192,71132,1,8,0:0:0:0:
448,192,71132,1,0,0:0:0:0:
320,192,71465,1,4,0:0:0:0:
192,192,71465,1,2,0:0:0:0:
64,192,72021,1,8,0:0:0:0:
448,192,72465,128,8,72910:0:0:0:70:tom01.wav
192,192,72910,128,0,73354:0:0:0:70:tom03.wav
320,192,73354,1,2,0:0:0:0:
448,192,73354,1,4,0:0:0:0:
192,192,73799,1,0,0:0:0:0:
64,192,73799,1,8,0:0:0:0:
320,192,74243,128,8,74688:0:0:0:0:
192,192,74688,128,8,75021:0:0:0:0:
64,192,75021,1,2,0:0:0:0:
448,192,75021,1,4,0:0:0:0:
320,192,75577,1,0,0:0:0:0:
64,192,75577,1,8,0:0:0:0:
192,192,76021,1,2,0:0:0:0:
64,192,76465,1,8,0:0:0:0:
448,192,76465,1,0,0:0:0:0:
320,192,76799,128,2,77132:0:0:0:0:
448,192,77354,1,0,0:0:0:0:
192,192,77354,1,8,0:0:0:0:
64,192,77799,1,2,0:0:0:0:
320,192,78243,128,8,78577:0:0:0:0:
448,192,78577,1,4,0:0:0:0:
64,192,78577,1,2,0:0:0:0:
192,192,79132,1,8,0:0:0:0:
448,192,79132,1,0,0:0:0:0:
320,192,79577,1,2,0:0:0:0:
448,192,80021,1,0,0:0:0:0:
64,192,80021,1,8,0:0:0:0:
192,192,80354,128,2,80688:0:0:0:0:
320,192,80910,1,0,0:0:0:0:
64,192,80910,1,8,0:0:0:0:
448,192,81243,128,8,81799:0:0:0:0:
64,192,81799,128,0,82132:0:0:0:70:tom02.wav
192,192,82132,1,2,0:0:0:0:
320,192,82132,1,0,0:0:0:70:tom03.wav
448,192,82688,1,8,0:0:0:0:
192,192,83132,1,0,0:0:0:0:
320,192,83577,1,8,0:0:0:0:
64,192,83910,128,0,84243:0:0:0:0:
192,192,84465,1,8,0:0:0:0:
320,192,84910,1,0,0:0:0:0:
64,192,85354,1,8,0:0:0:0:
448,192,85688,128,0,86021:0:0:0:0:
192,192,86243,1,8,0:0:0:0:
448,192,86688,1,0,0:0:0:0:
320,192,87132,1,8,0:0:0:0:
64,192,87465,128,0,87799:0:0:0:0:
448,192,88021,1,8,0:0:0:0:
192,192,88465,1,0,0:0:0:0:
320,192,88688,128,8,89243:0:0:0:0:
64,192,89243,1,8,0:0:0:0:
