osu file format v14

[General]
AudioFilename: audio.mp3
AudioLeadIn: 0
PreviewTime: 64312
Countdown: 0
SampleSet: Soft
StackLeniency: 0.3
Mode: 0
LetterboxInBreaks: 0
WidescreenStoryboard: 1

[Editor]
Bookmarks: 25146,35146,45146,55146,65146,85146,95146,105146,107646
DistanceSpacing: 1
BeatDivisor: 3
GridSize: 32
TimelineZoom: 2.5

[Metadata]
Title:Shala La (Cut Ver.)
TitleUnicode:Shala La (Cut Ver.)
Artist:THE ORAL CIGARETTES
ArtistUnicode:THE ORAL CIGARETTES
Creator:muya-
Version:Seolv's Normal
Source:
Tags:Tanzeem [Arc] Seolv [_L_u_k_a_s_] Lukas Shigenobu Suzuki edit version short rock cigs japanese jrock j-rock Before It’s Too Late toc あきらかにあきら Akira Akirakani 中西雅哉 Masaya Nakanishi 山中拓也 Takuya Yamanaka 鈴木重伸 UNOFFICIAL shalala
BeatmapID:2912126
BeatmapSetID:1341604

[Difficulty]
HPDrainRate:4
CircleSize:3
OverallDifficulty:4
ApproachRate:5
SliderMultiplier:1
SliderTickRate:1

[Events]
//Background and Video events
0,0,"blobhi.jpg",0,0
//Break Periods
2,45346,46446
2,50346,51446
//Storyboard Layer 0 (Background)
//Storyboard Layer 1 (Fail)
//Storyboard Layer 2 (Pass)
//Storyboard Layer 3 (Foreground)
//Storyboard Layer 4 (Overlay)
//Storyboard Sound Samples

[TimingPoints]
146,312.5,4,2,2,80,1,0
7646,-100,4,2,1,80,0,0
9521,-100,4,2,1,80,0,0
9833,-100,4,2,1,80,0,0
10146,-100,4,2,1,65,0,0
12646,-100,4,2,1,75,0,0
15146,-100,4,2,4,75,0,1
15250,-100,4,2,3,75,0,1
15354,-100,4,2,3,75,0,1
15458,-100,4,2,3,75,0,1
19416,-100,4,2,3,75,0,1
19521,-100,4,2,1,75,0,1
20041,-100,4,2,1,75,0,0
20146,-100,4,2,4,75,0,1
20250,-100,4,2,3,75,0,1
20354,-100,4,2,3,75,0,1
20458,-100,4,2,3,75,0,1
23687,-100,4,2,3,75,0,1
23791,-100,4,2,3,75,0,1
23896,-100,4,2,1,75,0,1
24521,-100,4,2,5,75,0,1
24833,-100,4,2,6,75,0,1
25146,-100,4,2,4,70,0,0
25250,-100,4,2,3,70,0,0
25354,-100,4,2,3,70,0,0
25458,-100,4,2,3,70,0,0
29416,-100,4,2,3,70,0,0
29521,-100,4,2,5,70,0,0
29833,-100,4,2,6,70,0,0
30146,-100,4,2,3,70,0,0
30354,-100,4,2,3,70,0,0
30458,-100,4,2,3,70,0,0
34416,-100,4,2,3,70,0,0
34521,-100,4,2,1,70,0,0
35146,-100,4,2,4,70,0,0
35250,-100,4,2,3,70,0,0
35354,-100,4,2,3,70,0,0
35458,-100,4,2,3,70,0,0
36916,-100,4,2,3,70,0,0
37021,-100,4,2,3,70,0,0
39416,-100,4,2,3,70,0,0
39521,-100,4,2,5,70,0,0
39833,-100,4,2,6,70,0,0
40146,-100,4,2,3,70,0,0
40354,-100,4,2,3,70,0,0
40458,-100,4,2,3,70,0,0
43896,-100,4,2,1,70,0,0
45146,-100,4,2,4,65,0,0
45250,-100,4,2,3,65,0,0
54521,-100,4,2,1,65,0,0
55146,-100,4,2,4,65,0,0
55250,-100,4,2,3,65,0,0
56291,-100,4,2,3,65,0,0
56396,-100,4,2,3,65,0,0
57854,-100,4,2,3,65,0,0
57958,-100,4,2,3,65,0,0
59416,-100,4,2,3,65,0,0
59521,-100,4,2,5,65,0,0
59833,-100,4,2,6,65,0,0
60146,-100,4,2,4,65,0,0
60250,-100,4,2,3,65,0,0
62646,-100,4,2,3,85,0,1
62750,-100,4,2,3,85,0,0
63271,-100,4,2,3,85,0,1
63375,-100,4,2,3,85,0,0
63896,-100,4,2,3,85,0,1
64208,-100,4,2,3,85,0,0
65146,-100,4,2,4,90,0,1
65250,-100,4,2,3,90,0,1
65354,-100,4,2,3,90,0,1
65458,-100,4,2,3,90,0,1
69416,-100,4,2,3,90,0,1
69521,-100,4,2,1,90,0,1
70041,-100,4,2,1,90,0,0
70146,-100,4,2,3,90,0,1
70354,-100,4,2,3,90,0,1
70458,-100,4,2,3,90,0,1
72541,-100,4,2,3,90,0,1
72646,-100,4,2,3,90,0,1
74521,-100,4,2,5,90,0,1
74833,-100,4,2,6,90,0,1
75041,-100,4,2,6,90,0,0
75146,-100,4,2,4,90,0,1
75250,-100,4,2,3,90,0,1
75354,-100,4,2,3,90,0,1
75458,-100,4,2,3,90,0,1
79416,-100,4,2,3,90,0,1
79521,-100,4,2,1,90,0,1
80041,-100,4,2,1,90,0,0
80146,-100,4,2,3,90,0,1
82541,-100,4,2,3,90,0,1
82646,-100,4,2,1,90,0,1
84416,-100,4,2,1,90,0,1
84833,-100,4,2,1,90,0,1
85041,-100,4,2,1,90,0,0
85146,-100,4,2,4,75,0,1
85224,-100,4,2,3,75,0,1
85354,-100,4,2,3,75,0,1
85458,-100,4,2,3,75,0,1
90041,-100,4,2,3,75,0,0
90146,-100,4,2,4,75,0,1
90250,-100,4,2,3,75,0,1
90354,-100,4,2,3,75,0,1
90458,-100,4,2,3,75,0,1
94416,-100,4,2,3,75,0,1
94521,-100,4,2,3,75,0,1
95041,-100,4,2,3,75,0,0
95146,-100,4,2,4,80,0,1
95224,-100,4,2,1,80,0,1
95380,-100,4,2,1,80,0,1
95458,-100,4,2,1,80,0,1
97880,-100,4,2,1,80,0,1
97958,-100,4,2,1,80,0,1
100380,-100,4,2,1,80,0,1
100458,-100,4,2,1,80,0,1
102880,-100,4,2,1,80,0,1
102958,-100,4,2,1,80,0,1
105041,-100,4,2,1,80,0,0
105146,-100,4,2,1,80,0,1
107021,-100,4,2,1,80,0,1
107333,-100,4,2,1,80,0,1
107646,-100,4,2,1,80,0,0
108739,-100,4,2,1,5,0,0

[Colours]
Combo1 : 141,149,243
Combo2 : 225,132,249
Combo3 : 244,204,244
Combo4 : 250,216,152
Combo5 : 151,95,245
Combo6 : 238,167,87

[HitObjects]
375,170,7646,6,0,L|386:233,2,50,10|0|0,0:2|1:2|1:2,0:0:0:0:
347,128,8114,2,0,P|303:102|254:129,1,100,10|0,0:2|1:2,0:0:0:0:
245,167,8583,1,10,0:2:0:0:
236,270,8896,1,0,1:2:0:0:
236,270,9052,2,0,B|183:269|166:302|174:302|162:351|95:338,1,150,10|10,0:2|0:2,0:0:0:0:
42,269,9833,1,10,0:2:0:0:
57,170,10146,1,2,0:2:0:0:
449,40,12646,5,8,1:2:0:0:
450,40,14833,1,8,0:2:0:0:
369,99,15146,6,0,P|397:146|392:203,1,100,6|10,1:2|0:2,0:0:0:0:
370,253,15666,1,2,1:2:0:0:
370,253,15771,2,0,P|320:252|278:225,1,100,2|10,1:2|0:2,0:0:0:0:
266,126,16396,2,0,B|205:129|198:169|203:169|191:217|125:208,1,166.666666666667,2|2,1:2|1:2,0:0:0:0:
116,180,17021,1,2,1:2:0:0:
16,189,17333,1,10,0:2:0:0:
41,285,17646,6,0,B|77:324|77:324|121:308,1,100,6|10,1:2|0:2,0:0:0:0:
216,277,18271,2,0,B|252:238|252:238|296:253,1,100,2|10,1:2|0:2,0:0:0:0:
387,296,18896,1,2,1:2:0:0:
480,261,19208,1,10,0:2:0:0:
487,161,19521,2,0,P|465:127|467:91,1,66.6666666666667,10|8,0:2|0:2,0:0:0:0:
477,71,19833,1,8,0:2:0:0:
385,29,20146,6,0,B|336:35|336:35|335:38|335:38|287:45,1,100,6|10,1:2|0:2,0:0:0:0:
249,99,20666,1,2,1:2:0:0:
249,99,20771,2,0,B|200:92|200:92|199:90|199:90|151:82,1,100,2|10,1:2|0:2,0:0:0:0:
72,143,21396,2,0,P|136:191|124:269,1,166.666666666667,2|2,1:2|1:2,0:0:0:0:
102,294,22021,1,2,1:2:0:0:
166,370,22333,1,10,0:2:0:0:
254,322,22646,6,0,B|277:295|313:299|313:299|322:320|348:331,1,100,6|10,1:2|0:2,0:0:0:0:
430,348,23271,2,0,P|460:310|444:265,1,100,2|10,1:2|0:2,0:0:0:0:
357,214,23896,6,0,L|379:133,1,66.6666666666667,10|8,0:2|0:2,0:0:0:0:
383,117,24208,1,10,0:2:0:0:
314,43,24521,2,0,L|204:52,1,100,0|0,1:2|1:2,0:0:0:0:
120,85,25146,6,0,B|180:105|180:105|184:149,1,100,6|10,1:2|0:2,0:0:0:0:
184,241,25771,1,2,1:2:0:0:
274,284,26083,1,10,0:2:0:0:
374,285,26396,2,0,B|297:305|297:305|281:343|281:343|206:367,1,200,2|0,1:2|1:2,0:0:0:0:
105,371,27333,1,10,0:2:0:0:
36,297,27646,6,0,P|67:250|47:200,1,100,2|10,1:2|0:2,0:0:0:0:
26,115,28271,1,2,1:2:0:0:
77,29,28583,1,10,0:2:0:0:
166,73,28896,2,0,B|212:102|220:153|220:153|253:113|315:116,1,200,0|0,1:2|1:2,0:0:0:0:
397,163,29833,1,2,1:2:0:0:
479,105,30146,6,0,P|489:57|462:16,1,100,6|10,1:2|0:2,0:0:0:0:
364,35,30771,2,0,P|353:82|380:123,1,100,2|8,1:2|0:2,0:0:0:0:
429,210,31396,2,0,P|350:170|285:165,2,150,0|0|10,1:2|0:0|0:2,0:0:0:0:
444,308,32646,6,0,P|368:332|347:352,1,100,2|10,1:2|0:2,0:0:0:0:
253,362,33271,2,0,P|218:321|102:324,1,166.666666666667,2|2,1:2|1:2,0:0:0:0:
97,343,33896,5,0,1:2:0:0:
28,270,34208,1,8,0:2:0:0:
105,206,34521,2,0,L|124:101,1,100,8|8,0:2|0:2,0:0:0:0:
196,39,35146,5,6,1:2:0:0:
274,100,35458,1,10,0:2:0:0:
359,47,35771,2,0,P|415:43|457:75,1,100,2|10,1:2|0:2,0:0:0:0:
496,154,36396,6,0,P|471:202|468:262,1,100,2|10,1:2|0:2,0:0:0:0:
474,346,37021,1,2,1:2:0:0:
377,369,37333,1,10,0:2:0:0:
289,320,37646,2,0,L|187:337,1,100,2|10,1:2|0:2,0:0:0:0:
164,239,38271,2,0,L|262:222,1,100,2|10,1:2|0:2,0:0:0:0:
341,160,38896,2,0,P|373:118|286:27,1,200,0|0,1:2|1:2,0:0:0:0:
198,61,39833,1,2,1:2:0:0:
144,150,40146,6,0,L|128:262,1,100,6|10,1:2|0:2,0:0:0:0:
119,348,40771,2,0,L|217:362,1,100,2|10,1:2|0:2,0:0:0:0:
318,358,41396,2,0,B|365:322|365:322|345:229,2,150,2|0|10,1:2|0:0|0:2,0:0:0:0:
217,362,42646,6,0,P|187:329|123:328,1,100,2|10,1:2|0:2,0:0:0:0:
36,345,43271,2,0,P|77:310|74:194,1,166.666666666667,0|2,1:2|0:2,0:0:0:0:
55,181,43896,5,8,1:2:0:0:
87,86,44208,1,10,1:2:0:0:
171,32,44521,1,10,1:2:0:0:
270,33,44833,1,10,1:2:0:0:
348,95,45146,5,6,1:2:0:0:
360,189,47646,6,0,P|344:195|322:266,2,66.6666666666667,6|2|2,1:2|0:2|0:2,0:0:0:0:
426,198,48271,1,2,1:2:0:0:
491,122,48583,1,8,0:2:0:0:
408,64,48896,6,0,L|394:-3,2,66.6666666666667,6|2|2,1:2|0:2|0:2,0:0:0:0:
368,118,49521,1,2,1:2:0:0:
281,167,49833,2,0,L|203:157,1,66.6666666666667,10|0,0:2|1:2,0:0:0:0:
181,153,50146,5,6,1:2:0:0:
74,131,52646,6,0,L|147:117,2,66.6666666666667,6|2|2,1:2|0:2|0:2,0:0:0:0:
9,148,53271,1,2,1:2:0:0:
43,241,53583,1,8,0:2:0:0:
140,265,53896,6,0,P|130:304|133:338,2,66.6666666666667,6|2|2,1:2|0:2|0:2,0:0:0:0:
183,220,54521,2,0,L|296:197,1,100,10|10,0:2|0:2,0:0:0:0:
291,303,55146,6,0,B|360:304|370:250|369:251|379:202|458:202,1,200,6|2,1:2|1:2,0:0:0:0:
510,122,56083,1,10,0:2:0:0:
422,72,56396,2,0,P|375:134|295:126,2,150,2|0|10,1:2|0:0|0:2,0:0:0:0:
337,18,57646,6,0,P|255:15|161:-1,1,166.666666666667,6|2,1:2|1:2,0:0:0:0:
141,17,58271,1,0,1:2:0:0:
55,66,58583,1,10,1:2:0:0:
142,114,58896,2,0,P|183:170|187:206,1,100,0|8,1:2|0:2,0:0:0:0:
114,268,59521,2,0,P|84:289|64:329,1,66.6666666666667,0|0,1:2|1:2,0:0:0:0:
72,347,59833,1,2,1:2:0:0:
165,381,60146,6,0,P|261:359|364:347,2,200,6|0|2,1:2|1:2|1:2,0:0:0:0:
63,208,62021,2,0,L|83:97,1,100,2|10,1:2|0:2,0:0:0:0:
157,39,62646,5,14,0:2:0:0:
254,17,62958,1,8,0:2:0:0:
346,54,63271,1,10,0:2:0:0:
443,32,63583,1,8,0:2:0:0:
496,116,63896,6,0,L|487:193,1,66.6666666666667,10|8,1:2|0:2,0:0:0:0:
462,203,64208,2,0,L|471:280,1,66.6666666666667,8|10,1:2|0:2,0:0:0:0:
475,302,64521,1,2,1:2:0:0:
281,363,65146,6,0,B|204:345|204:345|180:309|180:309|95:291,1,200,4|2,1:2|1:2,0:0:0:0:
41,214,66083,1,10,0:2:0:0:
94,129,66396,2,0,B|97:108|112:97|112:97|173:107,1,100,0|8,1:2|0:2,0:0:0:0:
221,161,66916,1,2,1:2:0:0:
221,161,67021,1,0,1:2:0:0:
308,112,67333,1,10,0:2:0:0:
386,174,67646,6,0,L|409:279,1,100,2|10,1:2|0:2,0:0:0:0:
381,378,68271,2,0,L|304:353,1,66.6666666666667,2|2,1:2|1:2,0:0:0:0:
287,342,68583,1,8,0:2:0:0:
192,314,68896,2,0,L|81:343,1,100,0|8,1:2|0:2,0:0:0:0:
8,289,69521,2,0,L|15:207,1,66.6666666666667,10|10,1:2|0:2,0:0:0:0:
18,189,69833,1,10,1:2:0:0:
68,86,70146,6,0,B|193:108|193:108|197:155|238:173,1,200,4|0,1:2|1:2,0:0:0:0:
326,192,71083,1,10,0:2:0:0:
288,284,71396,2,0,P|276:316|266:394,2,100,0|10|2,1:2|0:2|1:2,0:0:0:0:
326,192,72333,1,10,0:2:0:0:
256,119,72646,6,0,L|181:105,1,66.6666666666667,6|0,1:2|1:2,0:0:0:0:
144,98,72958,1,10,1:2:0:0:
107,191,73271,2,0,L|30:201,2,66.6666666666667,2|2|0,1:2|1:2|0:0,0:0:0:0:
153,239,73896,1,0,1:2:0:0:
299,158,74416,1,2,1:2:0:0:
299,158,74521,2,0,L|285:92,1,66.6666666666667,2|2,1:2|1:2,0:0:0:0:
298,62,74833,1,2,1:2:0:0:
385,13,75146,6,0,B|451:41|451:41|488:115|427:162,1,200,4|2,1:2|1:2,0:0:0:0:
359,224,76083,1,10,0:2:0:0:
277,176,76396,2,0,P|227:177|185:224,1,100,0|8,1:2|0:2,0:0:0:0:
160,269,76916,1,2,1:2:0:0:
160,269,77021,1,2,1:2:0:0:
57,277,77333,1,10,0:2:0:0:
16,185,77646,6,0,L|37:87,1,100,0|10,1:2|0:2,0:0:0:0:
108,14,78271,2,0,L|205:38,2,100,2|8|0,1:2|0:2|1:2,0:0:0:0:
43,90,79208,1,8,0:2:0:0:
19,187,79521,2,0,L|28:274,1,66.6666666666667,10|8,1:2|0:2,0:0:0:0:
31,286,79833,1,10,1:2:0:0:
127,319,80146,6,0,B|174:336|211:294|208:293|228:263|284:275,1,166.666666666667,6|2,1:2|1:2,0:0:0:0:
310,287,80771,1,2,1:2:0:0:
400,244,81083,1,8,0:2:0:0:
490,287,81396,2,0,P|478:319|468:397,2,100,2|8|2,1:2|0:2|1:2,0:0:0:0:
481,187,82333,1,10,0:2:0:0:
406,120,82646,6,0,L|331:106,1,66.6666666666667,2|8,1:2|0:2,0:0:0:0:
307,102,82958,1,8,1:2:0:0:
230,171,83271,2,0,P|222:224|246:269,1,100,10|10,1:2|1:2,0:0:0:0:
243,364,83896,2,0,P|186:304|98:321,1,166.666666666667,10|10,1:2|0:2,0:0:0:0:
89,344,84521,1,10,1:2:0:0:
17,274,84833,1,10,1:2:0:0:
83,200,85146,6,0,P|111:153|106:96,1,100,6|8,1:2|0:2,0:0:0:0:
143,53,85666,1,2,1:2:0:0:
143,53,85771,2,0,P|197:53|244:21,1,100,2|10,1:2|0:2,0:0:0:0:
335,23,86396,2,0,B|338:84|378:91|378:86|426:98|417:164,1,166.666666666667,2|2,1:2|1:2,0:0:0:0:
414,188,87021,1,0,1:2:0:0:
364,269,87333,1,10,0:2:0:0:
287,204,87646,6,0,B|169:185,1,100,2|10,1:2|0:2,0:0:0:0:
167,286,88271,2,0,B|265:301,1,100,2|10,1:2|0:2,0:0:0:0:
360,269,88896,1,2,1:2:0:0:
380,171,89208,1,10,0:2:0:0:
299,111,89521,2,0,L|277:5,1,100,2|10,1:2|0:2,0:0:0:0:
178,19,90146,6,0,P|101:29|66:69,1,100,6|10,1:2|0:2,0:0:0:0:
54,100,90666,1,2,1:2:0:0:
54,100,90771,2,0,P|24:171|41:221,1,100,2|10,1:2|0:2,0:0:0:0:
80,275,91396,2,0,B|141:278|148:318|143:318|155:366|221:357,1,166.666666666667,2|2,1:2|1:2,0:0:0:0:
247,352,92021,1,0,1:2:0:0:
310,275,92333,1,10,0:2:0:0:
379,346,92646,6,0,P|435:317|485:314,1,100,2|10,1:2|0:2,0:0:0:0:
500,217,93271,2,0,P|446:183|419:141,1,100,2|10,1:2|0:2,0:0:0:0:
376,66,93896,1,2,1:2:0:0:
327,153,94208,1,10,0:2:0:0:
230,180,94521,2,0,P|167:155|148:156,1,66.6666666666667,10|8,0:2|0:2,0:0:0:0:
139,169,94833,1,10,0:2:0:0:
84,253,95146,6,0,L|96:323,1,50,6|8,1:2|0:2,0:0:0:0:
108,349,95458,2,0,L|168:355,1,50,2|8,1:2|0:2,0:0:0:0:
207,353,95771,1,2,1:2:0:0:
306,345,96083,6,0,L|367:330,1,50,2|8,1:2|0:2,0:0:0:0:
406,322,96396,1,2,1:2:0:0:
406,322,96552,2,0,P|373:261|379:216,1,100,8|10,0:2|0:2,0:0:0:0:
412,142,97177,1,8,0:2:0:0:
412,142,97333,2,0,L|470:128,1,50,2|8,1:2|0:2,0:0:0:0:
510,128,97646,6,0,P|516:67|493:27,1,100,2|2,1:2|1:2,0:0:0:0:
403,4,98271,2,0,P|342:-2|302:21,1,100,2|2,1:2|1:2,0:0:0:0:
276,53,98739,1,8,0:2:0:0:
276,53,98896,2,0,L|164:28,2,100,2|2|2,1:2|1:2|1:2,0:0:0:0:
324,140,99833,6,0,L|316:189,1,50,2|8,1:2|0:2,0:0:0:0:
311,239,100146,2,0,P|247:238|212:280,1,100,6|2,1:2|1:2,0:0:0:0:
195,303,100614,1,10,0:2:0:0:
195,303,100771,1,2,1:2:0:0:
95,309,101083,1,2,1:2:0:0:
49,219,101396,6,0,L|0:229,2,50,2|8|2,1:2|0:2|1:2,0:0:0:0:
82,182,101864,2,0,P|103:146|90:88,1,100,10|8,0:2|0:2,0:0:0:0:
62,50,102333,1,2,1:2:0:0:
158,22,102646,2,0,L|259:2,1,100,2|2,1:2|1:2,0:0:0:0:
310,7,103114,1,10,0:2:0:0:
310,7,103271,2,0,L|299:76,1,50,2|10,1:2|0:2,0:0:0:0:
290,105,103583,1,2,1:2:0:0:
367,168,103896,6,0,L|384:266,1,100,2|2,1:2|1:2,0:0:0:0:
330,350,104521,2,0,L|281:360,1,50,10|8,1:2|0:2,0:0:0:0:
232,348,104833,1,2,1:2:0:0:
132,335,105146,6,0,L|121:398,2,50,10|0|0,0:2|1:2|1:2,0:0:0:0:
129,285,105614,2,0,P|85:311|36:284,1,100,10|0,0:2|1:2,0:0:0:0:
13,252,106083,1,10,0:2:0:0:
59,165,106396,1,0,1:2:0:0:
59,165,106552,2,0,B|45:122|98:103|98:103|177:116,1,150,10|10,0:2|0:2,0:0:0:0:
261,136,107333,1,2,1:2:0:0:
321,215,107646,6,0,B|280:147|304:79|367:28|432:22|502:125|412:171,1,350,6|0,1:2|0:0,0:0:0:0:
