osu file format v14

[General]
AudioFilename: audio.mp3
AudioLeadIn: 0
PreviewTime: 64312
Countdown: 0
SampleSet: Soft
StackLeniency: 0.3
Mode: 3
LetterboxInBreaks: 0
SpecialStyle: 0
WidescreenStoryboard: 1

[Editor]
DistanceSpacing: 1
BeatDivisor: 3
GridSize: 32
TimelineZoom: 2.899999

[Metadata]
Title:Shala La (Cut Ver.)
TitleUnicode:Shala La (Cut Ver.)
Artist:THE ORAL CIGARETTES
ArtistUnicode:THE ORAL CIGARETTES
Creator:Pairoxd
Version:Klee's Eternity
Source:
Tags:Kuree Klee_fs japanese rock jrock j-rock あきらかにあきら Akira Akirakani 中西雅哉 Masaya Nakanishi 山中拓也 Takuya Yamanaka 鈴木重伸 Shigenobu Suzuki toc UNOFFICIAL short version みふる
BeatmapID:2949621
BeatmapSetID:1350901

[Difficulty]
HPDrainRate:8.5
CircleSize:4
OverallDifficulty:8.5
ApproachRate:3
SliderMultiplier:1
SliderTickRate:1

[Events]
//Background and Video events
0,0,"oooooooooo.jpeg",0,0
//Break Periods
//Storyboard Layer 0 (Background)
//Storyboard Layer 1 (Fail)
//Storyboard Layer 2 (Pass)
//Storyboard Layer 3 (Foreground)
//Storyboard Layer 4 (Overlay)
//Storyboard Sound Samples

[TimingPoints]
146,312.5,4,2,1,80,1,0
65146,-100,4,2,1,90,0,1
85146,-100,4,2,1,90,0,0
95146,-100,4,2,1,90,0,1
105146,-100,4,2,1,80,0,0

[HitObjects]
320,192,146,5,8,0:0:0:0:
448,192,146,1,2,0:0:0:0:
64,192,224,1,8,0:0:0:0:
192,192,224,1,0,0:0:0:0:
320,192,302,1,8,0:0:0:0:
448,192,302,1,0,0:0:0:0:
64,192,380,1,8,0:0:0:0:
192,192,380,1,0,0:0:0:0:
320,192,458,1,8,0:0:0:0:
448,192,458,1,2,0:0:0:0:
64,192,536,1,8,0:0:0:0:
192,192,536,1,0,0:0:0:0:
320,192,614,1,8,0:0:0:0:
448,192,614,1,0,0:0:0:0:
64,192,692,1,8,0:0:0:0:
192,192,692,1,0,0:0:0:0:
320,192,771,1,8,0:0:0:0:
448,192,771,1,2,0:0:0:0:
192,192,927,128,0,1083:0:0:0:70:tin.wav
320,192,1083,1,2,0:0:0:0:
448,192,1083,1,0,0:0:0:0:
448,192,1239,128,0,1396:0:0:0:70:tin.wav
64,192,1396,1,2,0:0:0:0:
192,192,1396,1,0,0:0:0:0:
64,192,1552,128,0,1708:0:0:0:70:tin.wav
320,192,1708,1,2,0:0:0:0:
448,192,1708,1,0,0:0:0:0:
320,192,1864,128,0,2021:0:0:0:70:tin.wav
64,192,2021,1,2,0:0:0:0:
192,192,2021,1,0,0:0:0:0:
192,192,2177,128,0,2333:0:0:0:70:tin.wav
320,192,2333,1,2,0:0:0:0:
448,192,2333,1,0,0:0:0:0:
448,192,2489,128,0,2646:0:0:0:70:tin.wav
64,192,2646,1,8,0:0:0:0:
192,192,2646,1,2,0:0:0:0:
320,192,2724,1,8,0:0:0:0:
448,192,2724,1,0,0:0:0:0:
64,192,2802,1,8,0:0:0:0:
192,192,2802,1,0,0:0:0:0:
320,192,2880,1,8,0:0:0:0:
448,192,2880,1,0,0:0:0:0:
64,192,2958,1,8,0:0:0:0:
192,192,2958,1,2,0:0:0:0:
320,192,3036,1,8,0:0:0:0:
448,192,3036,1,0,0:0:0:0:
64,192,3114,1,8,0:0:0:0:
192,192,3114,1,0,0:0:0:0:
320,192,3192,1,8,0:0:0:0:
448,192,3192,1,0,0:0:0:0:
64,192,3271,1,8,0:0:0:0:
192,192,3271,1,2,0:0:0:0:
320,192,3427,1,0,0:0:0:70:tin.wav
64,192,3583,1,2,0:0:0:0:
320,192,3583,1,0,0:0:0:0:
192,192,3739,1,0,0:0:0:70:tin.wav
192,192,3896,1,2,0:0:0:0:
448,192,3896,1,0,0:0:0:0:
320,192,4052,1,0,0:0:0:70:tin.wav
64,192,4208,1,2,0:0:0:0:
320,192,4208,1,0,0:0:0:0:
192,192,4364,1,0,0:0:0:70:tin.wav
192,192,4521,1,2,0:0:0:0:
448,192,4521,1,0,0:0:0:0:
320,192,4677,1,0,0:0:0:70:tin.wav
64,192,4833,1,2,0:0:0:0:
320,192,4833,1,0,0:0:0:0:
192,192,4989,1,0,0:0:0:70:tin.wav
320,192,5146,1,8,0:0:0:0:
448,192,5146,1,2,0:0:0:0:
64,192,5224,1,8,0:0:0:0:
192,192,5224,1,0,0:0:0:0:
320,192,5302,1,8,0:0:0:0:
448,192,5302,1,0,0:0:0:0:
64,192,5380,1,8,0:0:0:0:
192,192,5380,1,0,0:0:0:0:
320,192,5458,1,8,0:0:0:0:
448,192,5458,1,2,0:0:0:0:
64,192,5536,1,8,0:0:0:0:
192,192,5536,1,0,0:0:0:0:
320,192,5614,1,8,0:0:0:0:
448,192,5614,1,0,0:0:0:0:
64,192,5692,1,8,0:0:0:0:
192,192,5692,1,0,0:0:0:0:
320,192,5771,1,8,0:0:0:0:
448,192,5771,1,2,0:0:0:0:
192,192,5927,1,0,0:0:0:70:tin.wav
320,192,6083,1,2,0:0:0:0:
448,192,6083,1,0,0:0:0:0:
64,192,6239,1,0,0:0:0:70:tin.wav
192,192,6396,1,2,0:0:0:0:
448,192,6396,1,0,0:0:0:0:
320,192,6552,1,0,0:0:0:70:tin.wav
64,192,6708,1,2,0:0:0:0:
192,192,6708,1,0,0:0:0:0:
448,192,6864,1,0,0:0:0:70:tin.wav
64,192,7021,1,2,0:0:0:0:
320,192,7021,1,0,0:0:0:0:
192,192,7177,1,0,0:0:0:70:tin.wav
64,192,7333,1,8,0:0:0:0:
320,192,7333,1,2,0:0:0:0:
448,192,7333,1,0,0:0:0:0:
64,192,7646,1,8,0:0:0:0:
192,192,7646,1,4,0:0:0:0:
320,192,7646,1,0,0:0:0:0:
320,192,7802,1,2,0:0:0:0:
448,192,7802,1,0,0:0:0:0:
64,192,7958,1,2,0:0:0:0:
192,192,7958,1,0,0:0:0:0:
64,192,8114,1,8,0:0:0:0:
320,192,8114,1,0,0:0:0:70:tin.wav
448,192,8114,1,0,0:0:0:0:
192,192,8271,1,2,0:0:0:0:
448,192,8271,1,0,0:0:0:0:
64,192,8427,1,2,0:0:0:0:
320,192,8427,1,0,0:0:0:0:
64,192,8583,1,8,0:0:0:0:
192,192,8583,1,0,0:0:0:70:tin.wav
448,192,8583,1,0,0:0:0:0:
192,192,8739,1,2,0:0:0:0:
320,192,8739,1,0,0:0:0:0:
64,192,8896,1,2,0:0:0:0:
448,192,8896,1,0,0:0:0:0:
192,192,9052,1,8,0:0:0:0:
320,192,9052,1,0,0:0:0:70:tin.wav
448,192,9052,1,0,0:0:0:0:
64,192,9208,1,2,0:0:0:0:
192,192,9208,1,0,0:0:0:0:
320,192,9364,1,2,0:0:0:0:
448,192,9364,1,0,0:0:0:0:
64,192,9521,1,8,0:0:0:0:
192,192,9521,1,0,0:0:0:0:
448,192,9521,1,0,0:0:0:0:
64,192,9677,1,2,0:0:0:0:
320,192,9677,1,0,0:0:0:0:
192,192,9833,1,8,0:0:0:0:
320,192,9833,1,0,0:0:0:70:tin.wav
448,192,9833,1,0,0:0:0:0:
64,192,10146,128,0,10614:0:0:0:70:tin.wav
448,192,10614,128,0,11083:0:0:0:0:
192,192,11083,128,0,11552:0:0:0:0:
320,192,11552,128,0,12021:0:0:0:0:
64,192,12021,128,0,12333:0:0:0:0:
448,192,12333,128,0,12541:0:0:0:0:
192,192,12541,1,0,0:0:0:0:
64,192,12646,1,8,0:0:0:0:
320,192,12646,1,0,0:0:0:70:tin.wav
448,192,12646,1,0,0:0:0:0:
192,192,12958,128,0,13166:0:0:0:0:
320,192,13166,1,0,0:0:0:0:
64,192,13271,1,0,0:0:0:0:
320,192,13583,128,0,13791:0:0:0:0:
64,192,13791,1,0,0:0:0:0:
448,192,13896,128,0,14104:0:0:0:0:
192,192,14104,128,0,14312:0:0:0:0:
320,192,14416,128,0,14833:0:0:0:0:
64,192,14833,1,8,0:0:0:0:
192,192,14833,1,2,0:0:0:0:
448,192,14833,1,0,0:0:0:0:
64,192,15146,1,2,0:0:0:0:
320,192,15146,1,4,0:0:0:0:
448,192,15146,1,0,0:0:0:0:
64,192,15458,1,8,0:0:0:0:
192,192,15458,1,0,0:0:0:70:tin.wav
320,192,15458,1,0,0:0:0:0:
320,192,15666,1,8,0:0:0:0:
448,192,15666,1,0,0:0:0:0:
64,192,15771,1,2,0:0:0:0:
192,192,15771,1,0,0:0:0:0:
192,192,15979,1,2,0:0:0:0:
448,192,15979,1,0,0:0:0:0:
64,192,16083,1,8,0:0:0:0:
320,192,16083,1,0,0:0:0:0:
448,192,16083,1,0,0:0:0:0:
64,192,16291,1,8,0:0:0:0:
192,192,16291,1,0,0:0:0:0:
320,192,16396,1,2,0:0:0:0:
448,192,16396,1,0,0:0:0:0:
64,192,16604,1,2,0:0:0:0:
448,192,16604,1,0,0:0:0:0:
64,192,16708,1,8,0:0:0:0:
192,192,16708,1,0,0:0:0:0:
320,192,16708,1,0,0:0:0:0:
320,192,16916,1,8,0:0:0:0:
448,192,16916,1,0,0:0:0:0:
64,192,17021,1,2,0:0:0:0:
192,192,17021,1,0,0:0:0:0:
192,192,17229,1,2,0:0:0:0:
448,192,17229,1,0,0:0:0:0:
64,192,17333,1,8,0:0:0:0:
192,192,17333,1,0,0:0:0:0:
320,192,17333,1,0,0:0:0:0:
64,192,17541,1,8,0:0:0:0:
448,192,17541,1,0,0:0:0:0:
192,192,17646,1,2,0:0:0:0:
320,192,17646,1,0,0:0:0:0:
320,192,17854,1,2,0:0:0:0:
448,192,17854,1,0,0:0:0:0:
64,192,17958,1,8,0:0:0:0:
192,192,17958,1,0,0:0:0:0:
448,192,17958,1,0,0:0:0:0:
64,192,18166,1,8,0:0:0:0:
320,192,18166,1,0,0:0:0:0:
192,192,18271,1,2,0:0:0:0:
448,192,18271,1,0,0:0:0:0:
64,192,18479,1,2,0:0:0:0:
192,192,18479,1,0,0:0:0:0:
64,192,18583,1,8,0:0:0:0:
320,192,18583,1,0,0:0:0:0:
448,192,18583,1,0,0:0:0:0:
192,192,18791,1,8,0:0:0:0:
320,192,18791,1,0,0:0:0:0:
64,192,18896,1,2,0:0:0:0:
448,192,18896,1,0,0:0:0:0:
64,192,19104,1,2,0:0:0:0:
320,192,19104,1,0,0:0:0:0:
192,192,19208,1,8,0:0:0:0:
320,192,19208,1,0,0:0:0:70:tin.wav
448,192,19208,1,0,0:0:0:0:
64,192,19521,1,8,0:0:0:0:
192,192,19521,1,2,0:0:0:0:
320,192,19625,1,8,0:0:0:0:
448,192,19625,1,0,0:0:0:0:
192,192,19729,1,8,0:0:0:0:
64,192,19833,1,8,0:0:0:0:
320,192,19833,1,2,0:0:0:0:
448,192,19833,1,0,0:0:0:0:
64,192,20041,1,8,0:0:0:0:
192,192,20041,1,0,0:0:0:0:
192,192,20146,1,2,0:0:0:0:
320,192,20146,1,4,0:0:0:0:
448,192,20146,1,0,0:0:0:0:
64,192,20458,1,8,0:0:0:0:
192,192,20458,1,0,0:0:0:70:tin.wav
448,192,20458,1,0,0:0:0:0:
320,192,20666,1,8,0:0:0:0:
448,192,20666,1,0,0:0:0:0:
64,192,20771,1,2,0:0:0:0:
192,192,20771,1,0,0:0:0:0:
64,192,20979,1,2,0:0:0:0:
448,192,20979,1,0,0:0:0:0:
192,192,21083,1,8,0:0:0:0:
320,192,21083,1,0,0:0:0:0:
448,192,21083,1,0,0:0:0:0:
64,192,21291,1,8,0:0:0:0:
192,192,21291,1,0,0:0:0:0:
320,192,21396,1,2,0:0:0:0:
448,192,21396,1,0,0:0:0:0:
64,192,21604,1,2,0:0:0:0:
320,192,21604,1,0,0:0:0:0:
64,192,21708,1,8,0:0:0:0:
192,192,21708,1,0,0:0:0:0:
448,192,21708,1,0,0:0:0:0:
192,192,21916,1,8,0:0:0:0:
320,192,21916,1,0,0:0:0:0:
64,192,22021,1,2,0:0:0:0:
448,192,22021,1,0,0:0:0:0:
192,192,22229,1,2,0:0:0:0:
448,192,22229,1,0,0:0:0:0:
64,192,22333,1,8,0:0:0:0:
192,192,22333,1,0,0:0:0:0:
320,192,22333,1,0,0:0:0:0:
320,192,22541,1,8,0:0:0:0:
448,192,22541,1,0,0:0:0:0:
64,192,22646,1,2,0:0:0:0:
192,192,22646,1,0,0:0:0:0:
64,192,22854,1,2,0:0:0:0:
320,192,22854,1,0,0:0:0:0:
192,192,22958,1,8,0:0:0:0:
320,192,22958,1,0,0:0:0:0:
448,192,22958,1,0,0:0:0:0:
64,192,23166,1,8,0:0:0:0:
448,192,23166,1,0,0:0:0:0:
192,192,23271,1,2,0:0:0:0:
320,192,23271,1,0,0:0:0:0:
64,192,23479,1,2,0:0:0:0:
192,192,23479,1,0,0:0:0:0:
64,192,23583,1,8,0:0:0:0:
320,192,23583,1,0,0:0:0:70:tin.wav
448,192,23583,1,0,0:0:0:0:
320,192,23896,1,8,0:0:0:0:
448,192,23896,1,2,0:0:0:0:
64,192,24000,1,8,0:0:0:0:
192,192,24000,1,0,0:0:0:0:
320,192,24104,1,8,0:0:0:0:
64,192,24208,1,8,0:0:0:0:
192,192,24208,1,2,0:0:0:0:
448,192,24208,1,0,0:0:0:0:
64,192,24416,1,8,0:0:0:0:
192,192,24416,1,0,0:0:0:0:
320,192,24521,1,2,0:0:0:0:
448,192,24521,1,0,0:0:0:0:
192,192,24625,1,2,0:0:0:0:
448,192,24729,1,2,0:0:0:0:
64,192,24833,1,2,0:0:0:0:
192,192,24833,1,0,0:0:0:0:
320,192,24937,1,2,0:0:0:0:
64,192,25041,1,2,0:0:0:0:
192,192,25146,1,2,0:0:0:0:
320,192,25146,128,4,25354:0:0:0:0:
448,192,25146,1,0,0:0:0:0:
64,192,25458,1,8,0:0:0:0:
192,192,25458,1,0,0:0:0:0:
448,192,25458,1,0,0:0:0:0:
64,192,25666,1,8,0:0:0:0:
320,192,25666,1,0,0:0:0:0:
192,192,25771,128,2,25979:0:0:0:0:
448,192,25771,1,0,0:0:0:0:
320,192,25979,1,2,0:0:0:0:
448,192,25979,1,0,0:0:0:0:
64,192,26083,1,8,0:0:0:0:
192,192,26083,1,0,0:0:0:0:
448,192,26083,1,0,0:0:0:0:
320,192,26291,1,0,0:0:0:0:
192,192,26396,1,2,0:0:0:0:
448,192,26396,128,0,26604:0:0:0:0:
64,192,26604,1,2,0:0:0:0:
192,192,26604,1,0,0:0:0:0:
64,192,26708,1,8,0:0:0:0:
320,192,26708,1,0,0:0:0:0:
448,192,26708,1,0,0:0:0:0:
192,192,26916,1,0,0:0:0:0:
64,192,27021,1,2,0:0:0:0:
448,192,27021,1,0,0:0:0:0:
64,192,27229,1,2,0:0:0:0:
192,192,27229,1,0,0:0:0:0:
192,192,27333,1,8,0:0:0:0:
320,192,27333,1,0,0:0:0:70:tin.wav
448,192,27333,1,0,0:0:0:0:
64,192,27541,1,0,0:0:0:0:
192,192,27646,128,2,27854:0:0:0:0:
320,192,27646,1,0,0:0:0:0:
320,192,27854,1,2,0:0:0:0:
448,192,27854,1,0,0:0:0:0:
64,192,27958,1,8,0:0:0:0:
192,192,27958,1,0,0:0:0:0:
448,192,27958,1,0,0:0:0:0:
320,192,28166,1,0,0:0:0:0:
192,192,28271,1,2,0:0:0:0:
448,192,28271,128,0,28479:0:0:0:0:
64,192,28479,1,2,0:0:0:0:
192,192,28479,1,0,0:0:0:0:
64,192,28583,1,8,0:0:0:0:
320,192,28583,1,0,0:0:0:0:
448,192,28583,1,0,0:0:0:0:
192,192,28791,1,0,0:0:0:0:
64,192,28896,1,2,0:0:0:0:
448,192,28896,1,0,0:0:0:0:
64,192,29104,1,2,0:0:0:0:
320,192,29104,1,0,0:0:0:0:
192,192,29208,1,8,0:0:0:0:
320,192,29208,1,0,0:0:0:70:tin.wav
448,192,29208,1,0,0:0:0:0:
64,192,29416,1,0,0:0:0:0:
320,192,29521,1,2,0:0:0:0:
448,192,29521,1,0,0:0:0:0:
192,192,29625,1,2,0:0:0:0:
64,192,29729,1,2,0:0:0:0:
448,192,29833,128,2,30041:0:0:0:0:
320,192,29937,1,2,0:0:0:0:
192,192,30041,1,2,0:0:0:0:
64,192,30146,1,2,0:0:0:0:
320,192,30146,1,4,0:0:0:0:
448,192,30146,1,0,0:0:0:0:
64,192,30458,128,8,30666:0:0:0:0:
192,192,30458,1,0,0:0:0:70:tin.wav
448,192,30458,1,0,0:0:0:0:
320,192,30666,1,8,0:0:0:0:
448,192,30666,1,0,0:0:0:0:
64,192,30771,1,2,0:0:0:0:
192,192,30771,1,0,0:0:0:70:tin.wav
320,192,30979,1,2,0:0:0:0:
448,192,30979,1,0,0:0:0:0:
64,192,31083,1,8,0:0:0:0:
192,192,31083,128,0,31291:0:0:0:70:tin.wav
448,192,31083,1,0,0:0:0:0:
320,192,31291,1,8,0:0:0:0:
448,192,31291,1,0,0:0:0:0:
64,192,31396,1,2,0:0:0:0:
192,192,31396,1,0,0:0:0:70:tin.wav
64,192,31604,1,2,0:0:0:0:
448,192,31604,1,0,0:0:0:0:
192,192,31708,1,8,0:0:0:0:
320,192,31708,1,0,0:0:0:70:tin.wav
448,192,31708,1,0,0:0:0:0:
64,192,31916,1,8,0:0:0:0:
320,192,31916,1,0,0:0:0:0:
192,192,32021,1,2,0:0:0:0:
448,192,32021,1,0,0:0:0:70:tin.wav
320,192,32229,1,2,0:0:0:0:
448,192,32229,1,0,0:0:0:0:
64,192,32333,128,8,32541:0:0:0:0:
192,192,32333,1,0,0:0:0:70:tin.wav
320,192,32333,1,0,0:0:0:0:
320,192,32541,1,8,0:0:0:0:
448,192,32541,1,0,0:0:0:0:
64,192,32646,1,2,0:0:0:0:
192,192,32646,1,0,0:0:0:70:tin.wav
64,192,32854,1,2,0:0:0:0:
448,192,32854,1,0,0:0:0:0:
192,192,32958,1,8,0:0:0:0:
320,192,32958,128,0,33166:0:0:0:70:tin.wav
448,192,32958,1,0,0:0:0:0:
64,192,33166,1,8,0:0:0:0:
192,192,33166,1,0,0:0:0:0:
320,192,33271,1,2,0:0:0:0:
448,192,33271,1,0,0:0:0:70:tin.wav
64,192,33479,1,2,0:0:0:0:
448,192,33479,1,0,0:0:0:0:
64,192,33583,1,8,0:0:0:0:
192,192,33583,128,0,33791:0:0:0:70:tin.wav
320,192,33583,1,0,0:0:0:0:
320,192,33791,1,8,0:0:0:0:
448,192,33791,1,0,0:0:0:0:
64,192,33896,1,2,0:0:0:0:
192,192,33896,1,0,0:0:0:70:tin.wav
64,192,34104,1,2,0:0:0:0:
448,192,34104,1,0,0:0:0:0:
192,192,34208,1,8,0:0:0:0:
320,192,34208,1,0,0:0:0:70:tin.wav
448,192,34208,1,0,0:0:0:0:
64,192,34521,1,8,0:0:0:0:
192,192,34521,1,2,0:0:0:0:
320,192,34625,1,8,0:0:0:0:
448,192,34625,1,0,0:0:0:0:
192,192,34729,1,8,0:0:0:0:
64,192,34833,1,8,0:0:0:0:
320,192,34833,1,2,0:0:0:0:
448,192,34833,1,0,0:0:0:0:
64,192,35041,1,8,0:0:0:0:
192,192,35041,1,0,0:0:0:0:
192,192,35146,1,2,0:0:0:0:
320,192,35146,1,4,0:0:0:0:
448,192,35146,128,0,35458:0:0:0:0:
64,192,35458,1,8,0:0:0:0:
192,192,35458,1,0,0:0:0:0:
320,192,35458,1,0,0:0:0:0:
320,192,35666,1,8,0:0:0:0:
448,192,35666,1,0,0:0:0:0:
64,192,35771,128,2,35979:0:0:0:0:
192,192,35771,1,0,0:0:0:0:
320,192,35979,1,2,0:0:0:0:
448,192,35979,1,0,0:0:0:0:
64,192,36083,1,8,0:0:0:0:
192,192,36083,1,0,0:0:0:0:
448,192,36083,1,0,0:0:0:0:
192,192,36396,128,2,36604:0:0:0:0:
320,192,36396,1,0,0:0:0:0:
64,192,36604,1,2,0:0:0:0:
448,192,36604,1,0,0:0:0:0:
192,192,36708,1,8,0:0:0:0:
320,192,36708,1,0,0:0:0:0:
448,192,36708,1,0,0:0:0:0:
64,192,37021,1,2,0:0:0:0:
320,192,37021,128,0,37229:0:0:0:0:
192,192,37229,1,2,0:0:0:0:
448,192,37229,1,0,0:0:0:0:
64,192,37333,1,8,0:0:0:0:
192,192,37333,1,0,0:0:0:70:tin.wav
320,192,37333,1,0,0:0:0:0:
448,192,37541,1,0,0:0:0:0:
64,192,37646,128,2,37854:0:0:0:0:
192,192,37646,1,0,0:0:0:0:
320,192,37854,1,2,0:0:0:0:
448,192,37854,1,0,0:0:0:0:
64,192,37958,1,8,0:0:0:0:
192,192,37958,1,0,0:0:0:0:
448,192,37958,128,0,38166:0:0:0:0:
320,192,38166,1,0,0:0:0:0:
64,192,38271,1,2,0:0:0:0:
192,192,38271,128,0,38479:0:0:0:0:
320,192,38479,1,2,0:0:0:0:
448,192,38479,1,0,0:0:0:0:
64,192,38583,1,8,0:0:0:0:
192,192,38583,1,0,0:0:0:0:
320,192,38583,128,0,38791:0:0:0:0:
448,192,38791,1,0,0:0:0:0:
64,192,38896,1,2,0:0:0:0:
192,192,38896,1,0,0:0:0:0:
64,192,39104,1,2,0:0:0:0:
448,192,39104,1,0,0:0:0:0:
192,192,39208,1,8,0:0:0:0:
320,192,39208,1,0,0:0:0:70:tin.wav
448,192,39208,1,0,0:0:0:0:
64,192,39521,1,2,0:0:0:0:
448,192,39521,1,0,0:0:0:0:
320,192,39625,1,2,0:0:0:0:
192,192,39729,1,2,0:0:0:0:
64,192,39833,128,2,40041:0:0:0:0:
448,192,39833,1,0,0:0:0:0:
320,192,39937,1,2,0:0:0:0:
192,192,40041,1,2,0:0:0:0:
64,192,40146,1,8,0:0:0:0:
320,192,40146,1,4,0:0:0:0:
448,192,40146,1,0,0:0:0:0:
64,192,40458,1,8,0:0:0:0:
192,192,40458,128,0,40666:0:0:0:70:tin.wav
448,192,40458,1,0,0:0:0:0:
320,192,40666,1,8,0:0:0:0:
448,192,40666,1,0,0:0:0:0:
64,192,40771,1,2,0:0:0:0:
192,192,40771,1,0,0:0:0:70:tin.wav
64,192,40979,1,2,0:0:0:0:
448,192,40979,1,0,0:0:0:0:
192,192,41083,1,8,0:0:0:0:
320,192,41083,128,0,41291:0:0:0:70:tin.wav
448,192,41083,1,0,0:0:0:0:
64,192,41291,1,8,0:0:0:0:
192,192,41291,1,0,0:0:0:0:
320,192,41396,1,2,0:0:0:0:
448,192,41396,1,0,0:0:0:70:tin.wav
64,192,41604,1,2,0:0:0:0:
448,192,41604,1,0,0:0:0:0:
64,192,41708,1,8,0:0:0:0:
192,192,41708,1,0,0:0:0:70:tin.wav
320,192,41708,1,0,0:0:0:0:
192,192,41916,1,8,0:0:0:0:
448,192,41916,1,0,0:0:0:0:
64,192,42021,1,2,0:0:0:0:
320,192,42021,1,0,0:0:0:70:tin.wav
320,192,42229,1,2,0:0:0:0:
448,192,42229,1,0,0:0:0:0:
64,192,42333,128,8,42541:0:0:0:0:
192,192,42333,1,0,0:0:0:70:tin.wav
448,192,42333,1,0,0:0:0:0:
320,192,42541,1,8,0:0:0:0:
448,192,42541,1,0,0:0:0:0:
64,192,42646,1,2,0:0:0:0:
192,192,42646,1,0,0:0:0:70:tin.wav
192,192,42854,1,2,0:0:0:0:
448,192,42854,1,0,0:0:0:0:
64,192,42958,1,8,0:0:0:0:
320,192,42958,1,0,0:0:0:70:tin.wav
448,192,42958,128,0,43166:0:0:0:0:
192,192,43166,1,8,0:0:0:0:
320,192,43166,1,0,0:0:0:0:
64,192,43271,1,2,0:0:0:0:
448,192,43271,1,0,0:0:0:70:tin.wav
64,192,43479,1,2,0:0:0:0:
192,192,43479,1,0,0:0:0:0:
192,192,43583,1,8,0:0:0:0:
320,192,43583,128,0,43791:0:0:0:70:tin.wav
448,192,43583,1,0,0:0:0:0:
64,192,43896,1,8,0:0:0:0:
192,192,43896,1,0,0:0:0:0:
320,192,44000,1,8,0:0:0:0:
448,192,44000,1,0,0:0:0:0:
192,192,44104,1,8,0:0:0:0:
64,192,44208,1,8,0:0:0:0:
320,192,44208,1,2,0:0:0:0:
448,192,44208,1,0,0:0:0:0:
64,192,44416,1,8,0:0:0:0:
192,192,44416,1,0,0:0:0:0:
320,192,44521,1,8,0:0:0:0:
448,192,44521,1,2,0:0:0:0:
64,192,44625,1,8,0:0:0:0:
192,192,44625,1,0,0:0:0:0:
320,192,44729,1,8,0:0:0:0:
64,192,44833,1,8,0:0:0:0:
192,192,44833,1,2,0:0:0:0:
448,192,44833,1,0,0:0:0:0:
320,192,45041,1,8,0:0:0:0:
448,192,45041,1,0,0:0:0:0:
64,192,45146,128,2,45458:0:0:0:0:
192,192,45146,1,4,0:0:0:0:
320,192,45146,1,0,0:0:0:0:
192,192,45458,1,8,0:0:0:0:
320,192,45458,1,0,0:0:0:0:
448,192,45458,1,0,0:0:0:0:
64,192,45666,1,0,0:0:0:0:
320,192,45771,1,2,0:0:0:0:
448,192,45771,128,0,45979:0:0:0:0:
64,192,45979,1,2,0:0:0:0:
192,192,45979,1,0,0:0:0:0:
64,192,46083,1,8,0:0:0:0:
320,192,46083,1,0,0:0:0:0:
448,192,46083,1,0,0:0:0:0:
192,192,46291,1,0,0:0:0:0:
320,192,46396,128,2,46604:0:0:0:0:
448,192,46396,1,0,0:0:0:0:
64,192,46604,1,2,0:0:0:0:
192,192,46604,1,0,0:0:0:0:
64,192,46708,128,8,47021:0:0:0:0:
320,192,46708,1,0,0:0:0:0:
448,192,46708,1,0,0:0:0:0:
192,192,47021,1,2,0:0:0:0:
448,192,47021,1,0,0:0:0:0:
320,192,47229,1,2,0:0:0:0:
64,192,47333,1,8,0:0:0:0:
192,192,47333,1,0,0:0:0:0:
448,192,47333,1,0,0:0:0:0:
320,192,47541,1,0,0:0:0:0:
64,192,47646,128,2,47854:0:0:0:0:
192,192,47646,1,4,0:0:0:0:
448,192,47646,1,0,0:0:0:0:
320,192,47854,1,0,0:0:0:0:
64,192,47958,1,8,0:0:0:0:
192,192,47958,1,0,0:0:0:0:
448,192,47958,1,0,0:0:0:0:
64,192,48166,1,8,0:0:0:0:
192,192,48166,1,0,0:0:0:0:
320,192,48271,1,2,0:0:0:0:
448,192,48271,128,0,48479:0:0:0:0:
64,192,48479,1,2,0:0:0:0:
192,192,48479,1,0,0:0:0:0:
64,192,48583,1,8,0:0:0:0:
320,192,48583,1,0,0:0:0:0:
448,192,48583,1,0,0:0:0:0:
320,192,48791,1,8,0:0:0:0:
448,192,48791,1,0,0:0:0:0:
64,192,48896,128,2,49104:0:0:0:0:
192,192,48896,1,4,0:0:0:0:
448,192,48896,1,0,0:0:0:0:
320,192,49104,1,0,0:0:0:0:
64,192,49208,1,8,0:0:0:0:
192,192,49208,1,0,0:0:0:0:
448,192,49208,1,0,0:0:0:0:
64,192,49416,1,8,0:0:0:0:
192,192,49416,1,0,0:0:0:0:
320,192,49521,1,2,0:0:0:0:
448,192,49521,128,0,49729:0:0:0:0:
64,192,49729,1,2,0:0:0:0:
192,192,49729,1,0,0:0:0:0:
64,192,49833,1,8,0:0:0:0:
320,192,49833,1,0,0:0:0:0:
448,192,49833,1,0,0:0:0:0:
192,192,50041,1,8,0:0:0:0:
320,192,50041,1,0,0:0:0:0:
64,192,50146,128,2,50458:0:0:0:0:
192,192,50146,1,4,0:0:0:0:
448,192,50146,1,0,0:0:0:0:
192,192,50458,1,8,0:0:0:0:
320,192,50458,1,0,0:0:0:0:
448,192,50458,1,0,0:0:0:0:
64,192,50666,1,8,0:0:0:0:
320,192,50771,1,2,0:0:0:0:
448,192,50771,128,0,50979:0:0:0:0:
64,192,50979,1,2,0:0:0:0:
192,192,50979,1,0,0:0:0:0:
64,192,51083,1,8,0:0:0:0:
320,192,51083,1,0,0:0:0:0:
448,192,51083,1,0,0:0:0:0:
192,192,51291,1,0,0:0:0:0:
64,192,51396,1,2,0:0:0:0:
320,192,51396,128,0,51604:0:0:0:0:
192,192,51604,1,2,0:0:0:0:
448,192,51604,1,0,0:0:0:0:
64,192,51708,128,8,51916:0:0:0:0:
320,192,51708,1,0,0:0:0:0:
448,192,51708,1,0,0:0:0:0:
192,192,51916,1,8,0:0:0:0:
320,192,52021,1,2,0:0:0:0:
448,192,52021,1,0,0:0:0:0:
64,192,52229,1,2,0:0:0:0:
192,192,52333,1,8,0:0:0:0:
320,192,52333,1,0,0:0:0:0:
448,192,52333,1,0,0:0:0:0:
64,192,52541,1,8,0:0:0:0:
192,192,52541,1,0,0:0:0:0:
320,192,52646,1,2,0:0:0:0:
448,192,52646,128,0,52854:0:0:0:0:
64,192,52854,1,2,0:0:0:0:
192,192,52854,1,0,0:0:0:0:
192,192,52958,1,8,0:0:0:0:
320,192,52958,1,4,0:0:0:0:
448,192,52958,1,0,0:0:0:0:
448,192,53166,1,0,0:0:0:0:
64,192,53271,128,2,53479:0:0:0:0:
192,192,53271,1,0,0:0:0:0:
320,192,53479,1,2,0:0:0:0:
448,192,53479,1,0,0:0:0:0:
64,192,53583,1,8,0:0:0:0:
192,192,53583,1,4,0:0:0:0:
320,192,53583,1,0,0:0:0:0:
64,192,53791,1,0,0:0:0:0:
320,192,53896,1,2,0:0:0:0:
448,192,53896,128,0,54104:0:0:0:0:
64,192,54104,1,2,0:0:0:0:
192,192,54104,1,0,0:0:0:0:
192,192,54208,1,8,0:0:0:0:
320,192,54208,1,4,0:0:0:0:
448,192,54208,1,0,0:0:0:0:
448,192,54416,1,0,0:0:0:0:
64,192,54521,1,8,0:0:0:0:
192,192,54521,1,2,0:0:0:0:
320,192,54625,1,8,0:0:0:0:
448,192,54625,1,0,0:0:0:0:
192,192,54729,1,8,0:0:0:0:
64,192,54833,1,8,0:0:0:0:
320,192,54833,1,2,0:0:0:0:
448,192,54833,1,0,0:0:0:0:
64,192,55041,1,8,0:0:0:0:
192,192,55041,1,0,0:0:0:0:
192,192,55146,1,2,0:0:0:0:
320,192,55146,1,4,0:0:0:0:
448,192,55146,128,0,55458:0:0:0:0:
64,192,55458,1,8,0:0:0:0:
192,192,55458,1,0,0:0:0:0:
320,192,55458,1,0,0:0:0:0:
320,192,55666,1,8,0:0:0:0:
448,192,55666,1,0,0:0:0:0:
64,192,55771,1,2,0:0:0:0:
192,192,55771,128,0,55979:0:0:0:0:
320,192,55979,1,2,0:0:0:0:
448,192,55979,1,0,0:0:0:0:
64,192,56083,1,8,0:0:0:0:
192,192,56083,1,0,0:0:0:0:
448,192,56083,1,0,0:0:0:0:
64,192,56396,1,2,0:0:0:0:
320,192,56396,128,0,56604:0:0:0:0:
64,192,56604,1,2,0:0:0:0:
192,192,56604,1,0,0:0:0:0:
192,192,56708,1,8,0:0:0:0:
320,192,56708,1,0,0:0:0:0:
448,192,56708,1,0,0:0:0:0:
64,192,56916,1,0,0:0:0:0:
320,192,57021,1,2,0:0:0:0:
448,192,57021,1,0,0:0:0:0:
64,192,57229,1,2,0:0:0:0:
448,192,57229,1,0,0:0:0:0:
64,192,57333,1,8,0:0:0:0:
192,192,57333,1,0,0:0:0:0:
320,192,57333,1,0,0:0:0:0:
192,192,57646,1,2,0:0:0:0:
320,192,57646,1,4,0:0:0:0:
448,192,57646,128,0,57958:0:0:0:0:
64,192,57958,128,8,58166:0:0:0:0:
192,192,57958,1,0,0:0:0:0:
320,192,57958,1,0,0:0:0:0:
320,192,58166,1,8,0:0:0:0:
448,192,58166,1,0,0:0:0:0:
64,192,58271,1,2,0:0:0:0:
192,192,58271,1,0,0:0:0:0:
192,192,58479,1,2,0:0:0:0:
448,192,58479,1,0,0:0:0:0:
64,192,58583,1,8,0:0:0:0:
320,192,58583,128,0,58791:0:0:0:0:
448,192,58583,1,0,0:0:0:0:
64,192,58791,1,8,0:0:0:0:
192,192,58791,1,0,0:0:0:0:
320,192,58896,1,2,0:0:0:0:
448,192,58896,1,0,0:0:0:0:
64,192,59104,1,2,0:0:0:0:
448,192,59104,1,0,0:0:0:0:
64,192,59208,1,8,0:0:0:0:
192,192,59208,1,0,0:0:0:0:
320,192,59208,1,0,0:0:0:0:
320,192,59521,1,2,0:0:0:0:
448,192,59521,1,0,0:0:0:0:
64,192,59625,1,2,0:0:0:0:
320,192,59729,1,2,0:0:0:0:
64,192,59833,1,2,0:0:0:0:
192,192,59833,1,0,0:0:0:0:
448,192,59937,1,2,0:0:0:0:
192,192,60041,1,2,0:0:0:0:
64,192,60146,1,2,0:0:0:0:
320,192,60146,128,4,60458:0:0:0:0:
448,192,60146,1,0,0:0:0:0:
64,192,60458,1,8,0:0:0:0:
192,192,60458,1,0,0:0:0:0:
448,192,60458,1,0,0:0:0:0:
64,192,60666,1,8,0:0:0:0:
320,192,60666,1,0,0:0:0:0:
192,192,60771,1,2,0:0:0:0:
448,192,60771,1,0,0:0:0:0:
64,192,60979,1,2,0:0:0:0:
192,192,60979,1,0,0:0:0:0:
64,192,61083,1,8,0:0:0:0:
320,192,61083,1,0,0:0:0:0:
448,192,61083,1,0,0:0:0:0:
192,192,61291,1,8,0:0:0:0:
448,192,61291,1,0,0:0:0:0:
64,192,61396,128,2,61604:0:0:0:0:
320,192,61396,1,0,0:0:0:0:
320,192,61604,1,2,0:0:0:0:
448,192,61604,1,0,0:0:0:0:
64,192,61708,1,8,0:0:0:0:
192,192,61708,1,0,0:0:0:0:
448,192,61708,1,0,0:0:0:0:
192,192,61916,1,8,0:0:0:0:
320,192,61916,1,0,0:0:0:0:
64,192,62021,1,2,0:0:0:0:
448,192,62021,128,0,62229:0:0:0:0:
64,192,62229,1,2,0:0:0:0:
192,192,62229,1,0,0:0:0:0:
192,192,62333,128,8,62541:0:0:0:0:
320,192,62333,1,4,0:0:0:0:
448,192,62333,1,0,0:0:0:0:
64,192,62646,1,8,0:0:0:0:
320,192,62646,1,0,0:0:0:70:tin.wav
448,192,62646,1,0,0:0:0:0:
64,192,62854,1,2,0:0:0:0:
192,192,62854,1,0,0:0:0:0:
192,192,62958,1,8,0:0:0:0:
320,192,62958,1,0,0:0:0:70:tin.wav
448,192,62958,1,0,0:0:0:0:
64,192,63166,1,2,0:0:0:0:
448,192,63166,1,0,0:0:0:0:
64,192,63271,1,8,0:0:0:0:
192,192,63271,1,0,0:0:0:70:tin.wav
320,192,63271,1,0,0:0:0:0:
320,192,63479,1,2,0:0:0:0:
448,192,63479,1,0,0:0:0:0:
64,192,63583,1,8,0:0:0:0:
192,192,63583,1,0,0:0:0:70:tin.wav
448,192,63583,1,0,0:0:0:0:
320,192,63791,1,0,0:0:0:0:
64,192,63896,1,8,0:0:0:0:
192,192,63896,1,2,0:0:0:0:
320,192,64000,1,8,0:0:0:0:
448,192,64000,1,0,0:0:0:0:
192,192,64104,1,8,0:0:0:0:
64,192,64208,1,8,0:0:0:0:
320,192,64208,1,2,0:0:0:0:
448,192,64208,1,0,0:0:0:0:
64,192,64416,1,8,0:0:0:0:
192,192,64416,1,0,0:0:0:0:
192,192,64521,1,2,0:0:0:0:
320,192,64521,1,0,0:0:0:70:tin.wav
448,192,64521,128,0,64729:0:0:0:0:
64,192,64729,1,0,0:0:0:0:
192,192,64833,128,0,65041:0:0:0:0:
320,192,65041,1,0,0:0:0:0:
64,192,65146,1,2,0:0:0:0:
192,192,65146,1,4,0:0:0:0:
448,192,65146,128,0,65354:0:0:0:0:
64,192,65458,1,8,0:0:0:0:
192,192,65458,1,0,0:0:0:70:tin.wav
320,192,65458,1,0,0:0:0:0:
320,192,65666,1,8,0:0:0:0:
448,192,65666,1,0,0:0:0:0:
64,192,65771,1,2,0:0:0:0:
192,192,65771,1,0,0:0:0:70:tin.wav
64,192,65979,1,2,0:0:0:0:
448,192,65979,1,0,0:0:0:0:
192,192,66083,128,8,66291:0:0:0:0:
320,192,66083,1,0,0:0:0:70:tin.wav
448,192,66083,1,0,0:0:0:0:
64,192,66291,1,8,0:0:0:0:
320,192,66291,1,0,0:0:0:0:
192,192,66396,1,2,0:0:0:0:
448,192,66396,128,0,66604:0:0:0:70:tin.wav
64,192,66604,1,2,0:0:0:0:
320,192,66604,1,0,0:0:0:0:
64,192,66708,1,8,0:0:0:0:
192,192,66708,1,0,0:0:0:70:tin.wav
448,192,66708,1,0,0:0:0:0:
192,192,66916,1,8,0:0:0:0:
320,192,66916,1,0,0:0:0:0:
64,192,67021,1,2,0:0:0:0:
448,192,67021,1,0,0:0:0:70:tin.wav
64,192,67229,1,2,0:0:0:0:
192,192,67229,1,0,0:0:0:0:
192,192,67333,1,8,0:0:0:0:
320,192,67333,1,0,0:0:0:70:tin.wav
448,192,67333,128,0,67541:0:0:0:0:
64,192,67541,1,8,0:0:0:0:
192,192,67541,1,0,0:0:0:0:
320,192,67646,128,2,67854:0:0:0:0:
448,192,67646,1,0,0:0:0:70:tin.wav
64,192,67854,1,2,0:0:0:0:
192,192,67854,1,0,0:0:0:0:
64,192,67958,128,8,68166:0:0:0:0:
320,192,67958,1,0,0:0:0:70:tin.wav
448,192,67958,1,0,0:0:0:0:
192,192,68166,1,8,0:0:0:0:
448,192,68166,1,0,0:0:0:0:
64,192,68271,1,2,0:0:0:0:
192,192,68271,1,0,0:0:0:70:tin.wav
320,192,68271,128,0,68479:0:0:0:0:
64,192,68479,1,2,0:0:0:0:
448,192,68479,1,0,0:0:0:0:
192,192,68583,128,8,68791:0:0:0:0:
320,192,68583,1,0,0:0:0:70:tin.wav
448,192,68583,1,0,0:0:0:0:
64,192,68791,1,8,0:0:0:0:
320,192,68791,1,0,0:0:0:0:
192,192,68896,1,2,0:0:0:0:
448,192,68896,128,0,69104:0:0:0:70:tin.wav
64,192,69104,1,2,0:0:0:0:
192,192,69104,1,0,0:0:0:0:
64,192,69208,1,8,0:0:0:0:
320,192,69208,1,0,0:0:0:70:tin.wav
448,192,69208,1,0,0:0:0:0:
192,192,69416,1,0,0:0:0:0:
320,192,69521,1,8,0:0:0:0:
448,192,69521,1,2,0:0:0:0:
64,192,69625,1,8,0:0:0:0:
192,192,69625,1,0,0:0:0:0:
320,192,69729,1,8,0:0:0:0:
448,192,69729,1,0,0:0:0:0:
64,192,69833,1,8,0:0:0:0:
192,192,69833,1,2,0:0:0:0:
320,192,69937,1,8,0:0:0:0:
448,192,69937,1,0,0:0:0:0:
192,192,70041,1,8,0:0:0:0:
64,192,70146,1,2,0:0:0:0:
320,192,70146,128,4,70458:0:0:0:0:
448,192,70146,1,0,0:0:0:0:
64,192,70458,1,8,0:0:0:0:
192,192,70458,1,0,0:0:0:70:tin.wav
448,192,70458,1,0,0:0:0:0:
64,192,70666,1,8,0:0:0:0:
320,192,70666,1,0,0:0:0:0:
192,192,70771,1,2,0:0:0:0:
448,192,70771,1,0,0:0:0:70:tin.wav
64,192,70979,1,2,0:0:0:0:
192,192,70979,1,0,0:0:0:0:
64,192,71083,1,8,0:0:0:0:
320,192,71083,128,0,71291:0:0:0:70:tin.wav
448,192,71083,1,0,0:0:0:0:
64,192,71291,1,8,0:0:0:0:
192,192,71291,1,0,0:0:0:0:
320,192,71396,1,2,0:0:0:0:
448,192,71396,128,0,71604:0:0:0:70:tin.wav
64,192,71604,1,2,0:0:0:0:
192,192,71604,1,0,0:0:0:0:
64,192,71708,128,8,71916:0:0:0:0:
320,192,71708,1,0,0:0:0:70:tin.wav
448,192,71708,1,0,0:0:0:0:
192,192,71916,1,8,0:0:0:0:
448,192,71916,1,0,0:0:0:0:
64,192,72021,1,2,0:0:0:0:
320,192,72021,128,0,72229:0:0:0:70:tin.wav
192,192,72229,1,2,0:0:0:0:
448,192,72229,1,0,0:0:0:0:
64,192,72333,1,8,0:0:0:0:
192,192,72333,128,0,72541:0:0:0:70:tin.wav
320,192,72333,1,0,0:0:0:0:
64,192,72646,1,2,0:0:0:0:
320,192,72646,1,4,0:0:0:0:
448,192,72646,1,0,0:0:0:0:
320,192,72854,1,8,0:0:0:0:
448,192,72854,1,0,0:0:0:0:
64,192,72958,1,8,0:0:0:0:
192,192,72958,1,0,0:0:0:0:
320,192,72958,1,0,0:0:0:0:
64,192,73166,1,8,0:0:0:0:
192,192,73166,1,0,0:0:0:0:
320,192,73271,1,2,0:0:0:0:
448,192,73271,1,4,0:0:0:0:
320,192,73479,1,8,0:0:0:0:
448,192,73479,1,0,0:0:0:0:
64,192,73583,1,8,0:0:0:0:
192,192,73583,1,2,0:0:0:0:
320,192,73583,1,0,0:0:0:0:
64,192,73791,1,8,0:0:0:0:
192,192,73791,1,0,0:0:0:0:
320,192,73896,1,2,0:0:0:0:
448,192,73896,1,4,0:0:0:0:
320,192,74104,1,8,0:0:0:0:
448,192,74104,1,0,0:0:0:0:
64,192,74208,1,8,0:0:0:0:
192,192,74208,1,0,0:0:0:0:
320,192,74208,1,0,0:0:0:0:
64,192,74416,1,8,0:0:0:0:
192,192,74416,1,0,0:0:0:0:
320,192,74521,1,2,0:0:0:0:
448,192,74521,1,0,0:0:0:0:
320,192,74729,1,2,0:0:0:0:
448,192,74729,1,0,0:0:0:0:
64,192,74833,1,2,0:0:0:0:
192,192,74833,1,0,0:0:0:0:
320,192,74937,1,2,0:0:0:0:
448,192,75041,1,2,0:0:0:0:
64,192,75146,128,2,75354:0:0:0:0:
192,192,75146,1,4,0:0:0:0:
320,192,75146,1,0,0:0:0:0:
192,192,75458,1,8,0:0:0:0:
320,192,75458,1,0,0:0:0:0:
448,192,75458,1,0,0:0:0:0:
64,192,75666,1,8,0:0:0:0:
192,192,75666,1,0,0:0:0:0:
320,192,75771,1,2,0:0:0:0:
448,192,75771,1,0,0:0:0:0:
64,192,75979,1,2,0:0:0:0:
448,192,75979,1,0,0:0:0:0:
64,192,76083,1,8,0:0:0:0:
192,192,76083,1,0,0:0:0:0:
320,192,76083,128,0,76291:0:0:0:0:
192,192,76291,1,8,0:0:0:0:
448,192,76291,1,0,0:0:0:0:
64,192,76396,128,2,76604:0:0:0:0:
320,192,76396,1,0,0:0:0:0:
320,192,76604,1,2,0:0:0:0:
448,192,76604,1,0,0:0:0:0:
64,192,76708,1,8,0:0:0:0:
192,192,76708,1,0,0:0:0:0:
448,192,76708,1,0,0:0:0:0:
192,192,76916,1,8,0:0:0:0:
320,192,76916,1,0,0:0:0:0:
64,192,77021,1,2,0:0:0:0:
448,192,77021,1,0,0:0:0:0:
320,192,77229,1,2,0:0:0:0:
448,192,77229,1,0,0:0:0:0:
64,192,77333,128,8,77541:0:0:0:0:
192,192,77333,1,0,0:0:0:0:
320,192,77333,1,0,0:0:0:0:
320,192,77541,1,8,0:0:0:0:
448,192,77541,1,0,0:0:0:0:
64,192,77646,1,2,0:0:0:0:
192,192,77646,128,0,77854:0:0:0:0:
320,192,77854,1,2,0:0:0:0:
448,192,77854,1,0,0:0:0:0:
64,192,77958,1,8,0:0:0:0:
192,192,77958,1,0,0:0:0:0:
448,192,77958,128,0,78166:0:0:0:0:
64,192,78166,1,8,0:0:0:0:
320,192,78166,1,0,0:0:0:0:
192,192,78271,128,2,78479:0:0:0:0:
448,192,78271,1,0,0:0:0:0:
320,192,78479,1,2,0:0:0:0:
448,192,78479,1,0,0:0:0:0:
64,192,78583,1,8,0:0:0:0:
192,192,78583,1,0,0:0:0:0:
320,192,78583,128,0,78791:0:0:0:0:
64,192,78791,1,8,0:0:0:0:
192,192,78791,1,0,0:0:0:0:
320,192,78896,1,2,0:0:0:0:
448,192,78896,128,4,79104:0:0:0:0:
64,192,79104,1,2,0:0:0:0:
192,192,79104,1,0,0:0:0:0:
192,192,79208,1,8,0:0:0:0:
320,192,79208,1,4,0:0:0:0:
448,192,79208,1,0,0:0:0:0:
64,192,79521,1,8,0:0:0:0:
192,192,79521,1,0,0:0:0:0:
320,192,79625,1,8,0:0:0:0:
448,192,79625,1,0,0:0:0:0:
64,192,79729,1,8,0:0:0:0:
192,192,79729,1,0,0:0:0:0:
320,192,79833,1,8,0:0:0:0:
448,192,79833,1,2,0:0:0:0:
64,192,79937,1,8,0:0:0:0:
192,192,79937,1,0,0:0:0:0:
320,192,80041,1,8,0:0:0:0:
64,192,80146,1,2,0:0:0:0:
192,192,80146,1,4,0:0:0:0:
448,192,80146,128,0,80458:0:0:0:0:
64,192,80458,1,8,0:0:0:0:
192,192,80458,1,0,0:0:0:0:
320,192,80458,1,0,0:0:0:0:
320,192,80666,1,8,0:0:0:0:
448,192,80666,1,0,0:0:0:0:
64,192,80771,128,2,80979:0:0:0:0:
192,192,80771,1,0,0:0:0:0:
320,192,80979,1,2,0:0:0:0:
448,192,80979,1,0,0:0:0:0:
64,192,81083,1,8,0:0:0:0:
192,192,81083,1,0,0:0:0:0:
448,192,81083,1,0,0:0:0:0:
192,192,81291,1,8,0:0:0:0:
320,192,81291,1,0,0:0:0:0:
64,192,81396,1,2,0:0:0:0:
448,192,81396,128,0,81604:0:0:0:0:
192,192,81604,1,2,0:0:0:0:
320,192,81604,1,0,0:0:0:0:
64,192,81708,1,8,0:0:0:0:
192,192,81708,1,0,0:0:0:0:
448,192,81708,1,0,0:0:0:0:
320,192,81916,1,8,0:0:0:0:
448,192,81916,1,0,0:0:0:0:
64,192,82021,1,2,0:0:0:0:
192,192,82021,128,0,82229:0:0:0:0:
320,192,82229,1,2,0:0:0:0:
448,192,82229,1,0,0:0:0:0:
64,192,82333,128,8,82646:0:0:0:0:
192,192,82333,1,0,0:0:0:70:tin.wav
320,192,82333,1,0,0:0:0:0:
320,192,82646,1,2,0:0:0:0:
448,192,82646,1,0,0:0:0:0:
64,192,82750,1,8,0:0:0:0:
192,192,82750,1,0,0:0:0:0:
320,192,82854,1,8,0:0:0:0:
64,192,82958,1,8,0:0:0:0:
192,192,82958,1,2,0:0:0:0:
448,192,82958,1,0,0:0:0:0:
320,192,83166,1,8,0:0:0:0:
64,192,83271,1,2,0:0:0:0:
192,192,83271,1,0,0:0:0:0:
320,192,83375,1,8,0:0:0:0:
448,192,83375,1,0,0:0:0:0:
192,192,83479,1,10,0:0:0:0:
64,192,83583,1,8,0:0:0:0:
320,192,83583,1,2,0:0:0:0:
448,192,83583,1,0,0:0:0:0:
192,192,83791,1,8,0:0:0:0:
64,192,83896,1,2,0:0:0:0:
448,192,83896,1,0,0:0:0:0:
192,192,84000,1,8,0:0:0:0:
320,192,84000,1,0,0:0:0:0:
448,192,84104,1,8,0:0:0:0:
64,192,84208,1,8,0:0:0:0:
192,192,84208,1,2,0:0:0:0:
320,192,84208,1,0,0:0:0:0:
448,192,84416,1,8,0:0:0:0:
64,192,84521,1,8,0:0:0:0:
192,192,84521,1,2,0:0:0:0:
320,192,84625,1,8,0:0:0:0:
448,192,84625,1,0,0:0:0:0:
192,192,84729,1,8,0:0:0:0:
64,192,84833,1,8,0:0:0:0:
320,192,84833,1,2,0:0:0:0:
448,192,84833,128,0,85041:0:0:0:0:
64,192,85041,1,8,0:0:0:0:
192,192,85041,1,0,0:0:0:0:
64,192,85146,1,2,0:0:0:0:
320,192,85146,1,4,0:0:0:0:
448,192,85146,1,0,0:0:0:0:
64,192,85458,128,8,85666:0:0:0:0:
192,192,85458,1,0,0:0:0:70:tin.wav
448,192,85458,1,0,0:0:0:0:
320,192,85666,1,8,0:0:0:0:
448,192,85666,1,0,0:0:0:0:
64,192,85771,1,2,0:0:0:0:
192,192,85771,1,0,0:0:0:70:tin.wav
320,192,85979,1,2,0:0:0:0:
448,192,85979,1,0,0:0:0:0:
64,192,86083,1,8,0:0:0:0:
192,192,86083,1,0,0:0:0:70:tin.wav
448,192,86083,128,0,86291:0:0:0:0:
64,192,86291,1,8,0:0:0:0:
192,192,86291,1,0,0:0:0:0:
320,192,86396,1,2,0:0:0:0:
448,192,86396,1,0,0:0:0:70:tin.wav
64,192,86604,1,2,0:0:0:0:
320,192,86604,1,0,0:0:0:0:
64,192,86708,1,8,0:0:0:0:
192,192,86708,1,0,0:0:0:70:tin.wav
448,192,86708,1,0,0:0:0:0:
320,192,86916,1,8,0:0:0:0:
448,192,86916,1,0,0:0:0:0:
64,192,87021,1,2,0:0:0:0:
192,192,87021,1,0,0:0:0:70:tin.wav
64,192,87229,1,2,0:0:0:0:
448,192,87229,1,0,0:0:0:0:
192,192,87333,1,8,0:0:0:0:
320,192,87333,128,0,87541:0:0:0:70:tin.wav
448,192,87333,1,0,0:0:0:0:
64,192,87541,1,8,0:0:0:0:
192,192,87541,1,0,0:0:0:0:
320,192,87646,1,2,0:0:0:0:
448,192,87646,1,0,0:0:0:70:tin.wav
64,192,87854,1,2,0:0:0:0:
448,192,87854,1,0,0:0:0:0:
64,192,87958,1,8,0:0:0:0:
192,192,87958,128,0,88166:0:0:0:70:tin.wav
320,192,87958,1,0,0:0:0:0:
320,192,88166,1,8,0:0:0:0:
448,192,88166,1,0,0:0:0:0:
64,192,88271,1,2,0:0:0:0:
192,192,88271,1,0,0:0:0:70:tin.wav
320,192,88479,1,2,0:0:0:0:
448,192,88479,1,0,0:0:0:0:
64,192,88583,1,8,0:0:0:0:
192,192,88583,1,0,0:0:0:70:tin.wav
448,192,88583,128,0,88791:0:0:0:0:
64,192,88791,1,8,0:0:0:0:
320,192,88791,1,0,0:0:0:0:
192,192,88896,1,2,0:0:0:0:
448,192,88896,1,0,0:0:0:70:tin.wav
64,192,89104,1,2,0:0:0:0:
192,192,89104,1,0,0:0:0:0:
64,192,89208,1,8,0:0:0:0:
320,192,89208,1,0,0:0:0:70:tin.wav
448,192,89208,1,0,0:0:0:0:
192,192,89416,1,8,0:0:0:0:
448,192,89416,1,0,0:0:0:0:
64,192,89521,1,2,0:0:0:0:
320,192,89521,1,0,0:0:0:70:tin.wav
320,192,89729,1,2,0:0:0:0:
448,192,89729,1,0,0:0:0:0:
64,192,89833,128,8,90041:0:0:0:0:
192,192,89833,1,0,0:0:0:70:tin.wav
448,192,89833,1,0,0:0:0:0:
320,192,90041,1,8,0:0:0:0:
448,192,90041,1,0,0:0:0:0:
64,192,90146,1,2,0:0:0:0:
192,192,90146,1,4,0:0:0:0:
320,192,90146,1,0,0:0:0:0:
64,192,90458,1,8,0:0:0:0:
192,192,90458,1,0,0:0:0:0:
448,192,90458,128,0,90666:0:0:0:0:
64,192,90666,1,8,0:0:0:0:
192,192,90666,1,0,0:0:0:0:
320,192,90771,1,2,0:0:0:0:
448,192,90771,1,0,0:0:0:0:
64,192,90979,1,2,0:0:0:0:
320,192,90979,1,0,0:0:0:0:
64,192,91083,1,8,0:0:0:0:
192,192,91083,128,0,91291:0:0:0:0:
448,192,91083,1,0,0:0:0:0:
320,192,91291,1,8,0:0:0:0:
448,192,91291,1,0,0:0:0:0:
64,192,91396,1,2,0:0:0:0:
192,192,91396,1,0,0:0:0:0:
64,192,91604,1,2,0:0:0:0:
448,192,91604,1,0,0:0:0:0:
192,192,91708,1,8,0:0:0:0:
320,192,91708,1,0,0:0:0:0:
448,192,91708,1,0,0:0:0:0:
64,192,91916,1,8,0:0:0:0:
320,192,91916,1,0,0:0:0:0:
192,192,92021,1,2,0:0:0:0:
448,192,92021,1,0,0:0:0:0:
64,192,92229,1,2,0:0:0:0:
192,192,92229,1,0,0:0:0:0:
64,192,92333,1,8,0:0:0:0:
320,192,92333,128,0,92541:0:0:0:0:
448,192,92333,1,0,0:0:0:0:
64,192,92541,1,8,0:0:0:0:
192,192,92541,1,0,0:0:0:0:
320,192,92646,1,2,0:0:0:0:
448,192,92646,1,0,0:0:0:0:
64,192,92854,1,2,0:0:0:0:
448,192,92854,1,0,0:0:0:0:
64,192,92958,1,8,0:0:0:0:
192,192,92958,128,0,93166:0:0:0:0:
320,192,92958,1,0,0:0:0:0:
320,192,93166,1,8,0:0:0:0:
448,192,93166,1,0,0:0:0:0:
64,192,93271,1,2,0:0:0:0:
192,192,93271,1,0,0:0:0:0:
64,192,93479,1,2,0:0:0:0:
448,192,93479,1,0,0:0:0:0:
192,192,93583,1,8,0:0:0:0:
320,192,93583,128,0,93791:0:0:0:0:
448,192,93583,1,0,0:0:0:0:
64,192,93791,1,8,0:0:0:0:
192,192,93791,1,0,0:0:0:0:
320,192,93896,1,2,0:0:0:0:
448,192,93896,1,0,0:0:0:0:
64,192,94104,1,2,0:0:0:0:
192,192,94104,1,0,0:0:0:0:
192,192,94208,1,8,0:0:0:0:
320,192,94208,1,4,0:0:0:0:
448,192,94208,1,0,0:0:0:0:
64,192,94521,1,8,0:0:0:0:
192,192,94521,1,0,0:0:0:0:
320,192,94625,1,8,0:0:0:0:
448,192,94625,1,0,0:0:0:0:
192,192,94729,1,8,0:0:0:0:
64,192,94833,1,8,0:0:0:0:
320,192,94833,1,0,0:0:0:0:
448,192,94833,128,0,95041:0:0:0:0:
64,192,95041,1,0,0:0:0:0:
192,192,95146,1,2,0:0:0:0:
320,192,95146,1,4,0:0:0:0:
448,192,95146,1,0,0:0:0:0:
64,192,95302,1,8,0:0:0:0:
192,192,95302,1,0,0:0:0:0:
448,192,95302,1,0,0:0:0:0:
64,192,95458,1,2,0:0:0:0:
320,192,95458,1,0,0:0:0:0:
192,192,95536,1,2,0:0:0:0:
64,192,95614,1,8,0:0:0:0:
320,192,95614,1,0,0:0:0:0:
448,192,95614,1,0,0:0:0:0:
192,192,95771,1,2,0:0:0:0:
448,192,95771,1,0,0:0:0:0:
64,192,95927,1,8,0:0:0:0:
192,192,95927,1,0,0:0:0:0:
320,192,95927,1,0,0:0:0:0:
320,192,96083,1,2,0:0:0:0:
448,192,96083,1,0,0:0:0:0:
192,192,96161,1,2,0:0:0:0:
64,192,96239,1,8,0:0:0:0:
320,192,96239,1,0,0:0:0:0:
448,192,96239,1,0,0:0:0:0:
64,192,96396,1,2,0:0:0:0:
192,192,96396,1,0,0:0:0:0:
192,192,96552,1,8,0:0:0:0:
320,192,96552,1,0,0:0:0:0:
448,192,96552,1,0,0:0:0:0:
64,192,96708,1,2,0:0:0:0:
448,192,96708,1,0,0:0:0:0:
192,192,96786,1,2,0:0:0:0:
64,192,96864,1,8,0:0:0:0:
320,192,96864,1,0,0:0:0:0:
448,192,96864,1,0,0:0:0:0:
192,192,97021,1,2,0:0:0:0:
320,192,97021,1,0,0:0:0:0:
64,192,97177,1,8,0:0:0:0:
192,192,97177,1,0,0:0:0:0:
448,192,97177,1,0,0:0:0:0:
320,192,97333,1,2,0:0:0:0:
448,192,97333,1,0,0:0:0:0:
192,192,97411,1,2,0:0:0:0:
64,192,97489,1,8,0:0:0:0:
320,192,97489,1,0,0:0:0:0:
448,192,97489,1,0,0:0:0:0:
64,192,97646,1,2,0:0:0:0:
192,192,97646,1,0,0:0:0:0:
192,192,97802,1,8,0:0:0:0:
320,192,97802,1,0,0:0:0:0:
448,192,97802,1,0,0:0:0:0:
64,192,97958,1,2,0:0:0:0:
320,192,97958,1,0,0:0:0:0:
192,192,98036,1,2,0:0:0:0:
64,192,98114,1,8,0:0:0:0:
320,192,98114,1,0,0:0:0:0:
448,192,98114,1,0,0:0:0:0:
192,192,98271,1,2,0:0:0:0:
448,192,98271,1,0,0:0:0:0:
64,192,98427,1,8,0:0:0:0:
192,192,98427,1,0,0:0:0:0:
320,192,98427,1,0,0:0:0:0:
64,192,98583,1,2,0:0:0:0:
448,192,98583,1,0,0:0:0:0:
320,192,98661,1,2,0:0:0:0:
64,192,98739,1,8,0:0:0:0:
192,192,98739,1,0,0:0:0:0:
448,192,98739,1,0,0:0:0:0:
192,192,98896,1,2,0:0:0:0:
320,192,98896,1,0,0:0:0:0:
64,192,99052,1,8,0:0:0:0:
320,192,99052,1,0,0:0:0:0:
448,192,99052,1,0,0:0:0:0:
64,192,99208,1,2,0:0:0:0:
192,192,99208,1,0,0:0:0:0:
320,192,99286,1,2,0:0:0:0:
64,192,99364,1,8,0:0:0:0:
192,192,99364,1,0,0:0:0:0:
448,192,99364,1,0,0:0:0:0:
320,192,99521,1,2,0:0:0:0:
448,192,99521,1,0,0:0:0:0:
64,192,99677,1,8,0:0:0:0:
192,192,99677,1,0,0:0:0:0:
320,192,99677,1,0,0:0:0:0:
64,192,99833,1,2,0:0:0:0:
448,192,99833,1,0,0:0:0:0:
192,192,99911,1,2,0:0:0:0:
64,192,99989,1,8,0:0:0:0:
320,192,99989,1,0,0:0:0:0:
448,192,99989,1,0,0:0:0:0:
192,192,100146,1,2,0:0:0:0:
320,192,100146,1,4,0:0:0:0:
448,192,100146,1,0,0:0:0:0:
64,192,100302,1,8,0:0:0:0:
192,192,100302,1,0,0:0:0:0:
320,192,100302,1,0,0:0:0:0:
64,192,100458,1,2,0:0:0:0:
448,192,100458,1,0,0:0:0:0:
320,192,100536,1,2,0:0:0:0:
64,192,100614,1,8,0:0:0:0:
192,192,100614,1,0,0:0:0:0:
448,192,100614,1,0,0:0:0:0:
192,192,100771,1,2,0:0:0:0:
320,192,100771,1,0,0:0:0:0:
64,192,100927,1,8,0:0:0:0:
320,192,100927,1,0,0:0:0:0:
448,192,100927,1,0,0:0:0:0:
64,192,101083,1,2,0:0:0:0:
192,192,101083,1,0,0:0:0:0:
320,192,101161,1,2,0:0:0:0:
64,192,101239,1,8,0:0:0:0:
192,192,101239,1,0,0:0:0:0:
448,192,101239,1,0,0:0:0:0:
320,192,101396,1,2,0:0:0:0:
448,192,101396,1,0,0:0:0:0:
64,192,101552,1,8,0:0:0:0:
192,192,101552,1,0,0:0:0:0:
320,192,101552,1,0,0:0:0:0:
64,192,101708,1,2,0:0:0:0:
448,192,101708,1,0,0:0:0:0:
320,192,101786,1,2,0:0:0:0:
64,192,101864,1,8,0:0:0:0:
192,192,101864,1,0,0:0:0:0:
448,192,101864,1,0,0:0:0:0:
192,192,102021,1,2,0:0:0:0:
320,192,102021,1,0,0:0:0:0:
64,192,102177,1,8,0:0:0:0:
320,192,102177,1,0,0:0:0:0:
448,192,102177,1,0,0:0:0:0:
192,192,102333,1,2,0:0:0:0:
448,192,102333,1,0,0:0:0:0:
320,192,102411,1,2,0:0:0:0:
64,192,102489,1,8,0:0:0:0:
192,192,102489,1,0,0:0:0:0:
448,192,102489,1,0,0:0:0:0:
64,192,102646,1,2,0:0:0:0:
320,192,102646,1,0,0:0:0:0:
192,192,102802,1,8,0:0:0:0:
320,192,102802,1,0,0:0:0:0:
448,192,102802,1,0,0:0:0:0:
64,192,102958,1,2,0:0:0:0:
192,192,102958,1,0,0:0:0:0:
320,192,103036,1,2,0:0:0:0:
64,192,103114,1,8,0:0:0:0:
192,192,103114,1,0,0:0:0:0:
448,192,103114,1,0,0:0:0:0:
320,192,103271,1,2,0:0:0:0:
448,192,103271,1,0,0:0:0:0:
64,192,103427,1,8,0:0:0:0:
192,192,103427,1,0,0:0:0:0:
320,192,103427,1,0,0:0:0:0:
64,192,103583,1,2,0:0:0:0:
448,192,103583,1,0,0:0:0:0:
192,192,103661,1,2,0:0:0:0:
64,192,103739,1,8,0:0:0:0:
320,192,103739,1,0,0:0:0:0:
448,192,103739,1,0,0:0:0:0:
192,192,103896,1,2,0:0:0:0:
320,192,103896,1,0,0:0:0:0:
64,192,104052,1,8,0:0:0:0:
192,192,104052,1,0,0:0:0:0:
448,192,104052,1,0,0:0:0:0:
320,192,104208,1,2,0:0:0:0:
448,192,104208,1,0,0:0:0:0:
192,192,104286,1,2,0:0:0:0:
64,192,104364,1,8,0:0:0:0:
320,192,104364,1,0,0:0:0:0:
448,192,104364,1,0,0:0:0:0:
64,192,104521,1,8,0:0:0:0:
192,192,104521,1,2,0:0:0:0:
320,192,104599,1,8,0:0:0:0:
448,192,104599,1,0,0:0:0:0:
64,192,104677,1,8,0:0:0:0:
192,192,104677,1,0,0:0:0:0:
320,192,104755,1,8,0:0:0:0:
64,192,104833,1,2,0:0:0:0:
192,192,104833,128,0,105146:0:0:0:70:tin.wav
448,192,104833,1,0,0:0:0:0:
64,192,105146,1,8,0:0:0:0:
320,192,105146,1,0,0:0:0:70:tin.wav
448,192,105146,128,0,105302:0:0:0:0:
192,192,105302,1,2,0:0:0:0:
320,192,105302,1,0,0:0:0:0:
64,192,105458,1,2,0:0:0:0:
448,192,105458,1,0,0:0:0:0:
64,192,105614,128,8,105771:0:0:0:0:
192,192,105614,1,0,0:0:0:70:tin.wav
320,192,105614,1,0,0:0:0:0:
320,192,105771,1,2,0:0:0:0:
448,192,105771,1,0,0:0:0:0:
64,192,105927,1,2,0:0:0:0:
192,192,105927,1,0,0:0:0:0:
192,192,106083,1,8,0:0:0:0:
320,192,106083,128,0,106239:0:0:0:70:tin.wav
448,192,106083,1,0,0:0:0:0:
64,192,106239,1,2,0:0:0:0:
448,192,106239,1,0,0:0:0:0:
192,192,106396,1,2,0:0:0:0:
320,192,106396,1,0,0:0:0:0:
64,192,106552,1,8,0:0:0:0:
192,192,106552,128,0,106708:0:0:0:70:tin.wav
448,192,106552,1,0,0:0:0:0:
320,192,106708,1,2,0:0:0:0:
448,192,106708,1,0,0:0:0:0:
64,192,106864,1,2,0:0:0:0:
192,192,106864,1,0,0:0:0:0:
64,192,107021,1,8,0:0:0:0:
320,192,107021,1,0,0:0:0:0:
448,192,107021,128,0,107177:0:0:0:0:
192,192,107177,1,2,0:0:0:0:
320,192,107177,1,0,0:0:0:0:
64,192,107333,128,2,107489:0:0:0:0:
448,192,107333,1,0,0:0:0:0:
64,192,107646,1,2,0:0:0:0:
192,192,107646,128,4,108739:0:0:0:0:
320,192,107646,128,0,108817:0:0:0:0:
448,192,107646,128,0,108896:0:0:0:0:
