osu file format v14

[General]
AudioFilename: audio.mp3
AudioLeadIn: 0
PreviewTime: 58566
Countdown: 0
SampleSet: None
StackLeniency: 0.3
Mode: 0
LetterboxInBreaks: 0
WidescreenStoryboard: 1

[Editor]
Bookmarks: 10888,11653,11959,12112,12265,12571,12878,13031,13184,13337,15480,15633,15786,15939,30786,39051,40582,47929,50378,54663,55276,58949,60174,75786,89561,94459,96908,105480,105556,106704,107929,123847,143439
DistanceSpacing: 1.1
BeatDivisor: 4
GridSize: 16
TimelineZoom: 2.52

[Metadata]
Title:Sesshoku
TitleUnicode:Sesshoku
Artist:THE ORAL CIGARETTES
ArtistUnicode:THE ORAL CIGARETTES
Creator:moneybags
Version:hitsounds
Source:
Tags:
BeatmapID:1939023
BeatmapSetID:925814

[Difficulty]
HPDrainRate:5
CircleSize:4
OverallDifficulty:8.5
ApproachRate:9.2
SliderMultiplier:1.65
SliderTickRate:1

[Events]
//Background and Video events
0,0,"68201490_p0.jpg",0,0
//Break Periods
//Storyboard Layer 0 (Background)
//Storyboard Layer 1 (Fail)
//Storyboard Layer 2 (Pass)
//Storyboard Layer 3 (Foreground)
//Storyboard Sound Samples

[TimingPoints]
174,306.122448979592,4,3,1,60,1,0
1398,-111.111111111111,4,3,1,60,0,0
50378,-133.333333333333,4,3,1,60,0,0
51296,-135.135135135135,4,3,1,60,0,0
52214,-135.135135135135,4,3,3,60,0,0
55276,-133.333333333333,4,3,1,60,0,0
57878,-100,4,3,1,60,0,0
58949,-133.333333333333,4,3,1,60,0,0
59026,-133.333333333333,4,3,1,5,0,0
59408,-142.857142857143,4,3,1,60,0,0
59485,-166.666666666667,4,3,1,5,0,0
59867,-166.666666666667,4,3,1,60,0,0
59944,-166.666666666667,4,3,1,5,0,0
60174,-83.3333333333333,4,3,1,80,0,1
79765,-100,4,3,1,60,0,0
89561,-200,4,3,1,60,0,0
91704,-200,4,3,3,40,0,0
92087,-200,4,3,1,60,0,0
93541,-200,4,3,2,60,0,0
94459,-161.290322580645,4,3,2,60,0,0
98439,-100,4,3,2,60,0,0
104255,-100,4,3,1,60,0,0
107929,-200,4,3,1,60,0,0
107948,-200,4,3,1,5,0,0
108388,-133.333333333333,4,3,1,60,0,0
108511,-133.333333333333,4,3,1,5,0,0
108847,-100,4,3,1,60,0,0
108924,-100,4,3,1,5,0,0
109153,-83.3333333333333,4,3,1,80,0,1
123235,-83.3333333333333,4,3,1,80,0,0
123847,-83.3333333333333,4,3,1,80,0,1
142214,-83.3333333333333,4,3,1,80,0,0
143439,-111.111111111111,4,3,1,80,0,0

[Colours]
Combo1 : 225,190,108
Combo2 : 218,160,84
SliderBorder : 253,217,181

[HitObjects]
109,130,1398,5,0,0:2:0:0:
199,201,1551,1,0,3:2:0:0:
187,102,1704,1,0,3:2:0:0:
121,227,1857,1,8,3:2:0:0:
121,227,2163,1,8,3:2:0:0:
109,130,2316,5,0,0:2:0:0:
199,201,2469,1,0,3:2:0:0:
187,102,2622,1,0,3:2:0:0:
121,227,2775,1,8,3:2:0:0:
121,227,3081,1,8,3:2:0:0:
276,139,3235,5,0,0:0:0:0:
368,196,3388,1,0,0:2:0:0:
364,92,3541,1,8,3:3:0:0:
109,130,3847,5,0,0:2:0:0:
199,201,4000,1,0,3:2:0:0:
187,102,4153,1,0,3:2:0:0:
121,227,4306,1,8,3:2:0:0:
121,227,4612,1,8,3:2:0:0:
109,130,4765,5,0,0:2:0:0:
199,201,4918,1,0,3:2:0:0:
187,102,5071,1,0,3:2:0:0:
121,227,5224,1,8,3:2:0:0:
121,227,5530,1,8,3:2:0:0:
276,139,5684,5,0,0:0:0:0:
368,196,5837,1,0,0:0:0:0:
368,54,5990,1,8,3:3:0:0:
275,269,6143,1,8,0:3:0:0:
109,130,6296,5,4,0:2:0:0:
199,201,6449,1,0,3:2:0:0:
187,102,6602,1,0,3:2:0:0:
121,227,6755,1,8,3:2:0:0:
121,227,7061,1,8,3:2:0:0:
109,130,7214,5,0,0:2:0:0:
199,201,7367,1,0,3:2:0:0:
187,102,7520,1,0,3:2:0:0:
121,227,7673,1,8,3:2:0:0:
121,227,7979,1,8,3:2:0:0:
281,141,8133,5,0,0:0:0:0:
360,188,8286,1,0,0:0:0:0:
364,92,8439,1,8,3:3:0:0:
109,130,8745,5,0,0:2:0:0:
199,201,8898,1,0,3:2:0:0:
187,102,9051,1,0,3:2:0:0:
121,227,9204,1,8,3:2:0:0:
121,227,9510,1,8,3:2:0:0:
109,130,9663,5,0,0:2:0:0:
199,201,9816,1,0,3:2:0:0:
187,102,9969,1,0,3:2:0:0:
121,227,10122,1,8,3:2:0:0:
121,227,10428,1,8,3:2:0:0:
291,87,10582,5,8,0:2:0:0:
291,87,10658,1,8,0:2:0:0:
291,87,10735,1,8,0:2:0:0:
291,87,10811,1,8,0:2:0:0:
364,77,10888,5,0,0:2:0:0:
364,77,10964,1,0,0:2:0:0:
364,77,11041,1,0,0:2:0:0:
364,77,11117,1,0,0:2:0:0:
335,151,11194,5,4,3:2:0:0:
436,203,11347,1,0,3:2:0:0:
342,260,11500,1,0,3:2:0:0:
164,201,11653,1,8,0:2:0:0:
259,298,11806,1,0,3:2:0:0:
257,205,11959,1,8,3:2:0:0:
169,291,12112,1,0,0:2:0:0:
218,131,12265,1,0,0:2:0:0:
80,247,12418,1,0,2:2:0:0:
272,59,12571,1,8,0:2:0:0:
257,205,12725,1,2,0:2:0:0:
169,48,12878,1,10,0:0:0:0:
257,205,13031,1,2,0:0:0:0:
169,48,13184,1,2,0:0:0:0:
257,205,13337,1,10,0:2:0:0:
169,48,13490,1,2,0:0:0:0:
335,151,13643,5,4,3:2:0:0:
436,203,13796,1,0,3:2:0:0:
342,260,13949,1,0,3:2:0:0:
164,201,14102,1,8,0:2:0:0:
259,298,14255,1,0,3:2:0:0:
257,205,14408,1,8,3:2:0:0:
169,291,14561,1,0,0:2:0:0:
218,131,14714,1,0,0:2:0:0:
80,247,14867,1,0,2:2:0:0:
272,59,15020,1,8,0:2:0:0:
257,205,15174,1,2,0:2:0:0:
169,48,15327,1,10,0:0:0:0:
257,205,15480,1,2,0:0:0:0:
169,48,15633,1,2,0:0:0:0:
257,205,15786,1,10,0:2:0:0:
169,48,15939,1,2,0:0:0:0:
335,151,16092,5,4,3:2:0:0:
436,203,16245,1,0,3:2:0:0:
342,260,16398,1,0,3:2:0:0:
164,201,16551,1,8,0:2:0:0:
259,298,16704,1,0,3:2:0:0:
257,205,16857,1,8,3:2:0:0:
169,291,17010,1,0,0:2:0:0:
218,131,17163,1,0,0:2:0:0:
80,247,17316,1,0,2:2:0:0:
272,59,17469,1,8,0:2:0:0:
257,205,17623,1,2,0:2:0:0:
169,48,17776,1,10,0:0:0:0:
257,205,17929,1,2,0:0:0:0:
169,48,18082,1,2,0:0:0:0:
257,205,18235,1,10,0:2:0:0:
169,48,18388,1,2,0:0:0:0:
335,151,18541,5,4,3:2:0:0:
436,203,18694,1,0,3:2:0:0:
342,260,18847,1,0,3:2:0:0:
164,201,19000,1,8,0:2:0:0:
259,298,19153,1,0,3:2:0:0:
257,205,19306,1,8,3:2:0:0:
169,291,19459,1,0,0:2:0:0:
218,131,19612,1,0,0:2:0:0:
80,247,19765,1,0,2:2:0:0:
272,59,19918,1,8,0:2:0:0:
257,205,20072,1,2,0:2:0:0:
169,48,20225,1,10,0:0:0:0:
257,205,20378,1,2,0:0:0:0:
169,48,20531,1,2,0:0:0:0:
257,205,20684,1,10,0:2:0:0:
169,48,20837,1,2,0:0:0:0:
335,151,20990,5,4,3:2:0:0:
436,203,21143,1,0,3:2:0:0:
342,260,21296,1,0,3:2:0:0:
164,201,21449,1,8,0:2:0:0:
259,298,21602,1,0,3:2:0:0:
257,205,21755,1,8,3:2:0:0:
169,291,21908,1,0,0:2:0:0:
218,131,22061,1,0,0:2:0:0:
80,247,22214,1,0,2:2:0:0:
272,59,22367,1,8,0:2:0:0:
257,205,22521,1,2,0:2:0:0:
169,48,22674,1,10,0:0:0:0:
257,205,22827,1,2,0:0:0:0:
169,48,22980,1,2,0:0:0:0:
257,205,23133,1,10,0:2:0:0:
169,48,23286,1,2,0:0:0:0:
335,151,23439,5,4,3:2:0:0:
436,203,23592,1,0,3:2:0:0:
342,260,23745,1,0,3:2:0:0:
164,201,23898,1,8,0:2:0:0:
259,298,24051,1,0,3:2:0:0:
257,205,24204,1,8,3:2:0:0:
169,291,24357,1,0,0:2:0:0:
218,131,24510,1,0,0:2:0:0:
80,247,24663,1,0,2:2:0:0:
272,59,24816,1,8,0:2:0:0:
257,205,24970,1,2,0:2:0:0:
169,48,25123,1,10,0:0:0:0:
257,205,25276,1,2,0:0:0:0:
169,48,25429,1,2,0:0:0:0:
257,205,25582,1,10,0:2:0:0:
169,48,25735,1,2,0:0:0:0:
335,151,25888,5,4,3:2:0:0:
436,203,26041,1,0,3:2:0:0:
342,260,26194,1,0,3:2:0:0:
164,201,26347,1,8,0:2:0:0:
259,298,26500,1,0,3:2:0:0:
257,205,26653,1,8,3:2:0:0:
169,291,26806,1,0,0:2:0:0:
218,131,26959,1,0,0:2:0:0:
80,247,27112,1,0,2:2:0:0:
272,59,27265,1,8,0:2:0:0:
257,205,27419,1,2,0:2:0:0:
169,48,27572,1,10,0:0:0:0:
257,205,27725,1,10,0:0:0:0:
356,98,27801,1,8,0:2:0:0:
356,98,27878,1,8,0:2:0:0:
356,98,27954,1,8,0:2:0:0:
429,88,28031,5,0,0:2:0:0:
429,88,28107,1,0,0:2:0:0:
429,88,28184,1,0,0:2:0:0:
429,88,28260,1,0,0:2:0:0:
400,162,28337,5,4,0:2:0:0:
65,89,28490,5,2,0:0:0:0:
221,239,28796,1,10,0:2:0:0:
65,89,29102,5,2,0:0:0:0:
221,239,29408,1,6,0:2:0:0:
65,89,29714,5,10,0:2:0:0:
258,104,30020,1,2,0:0:0:0:
71,208,30174,1,2,0:0:0:0:
161,57,30327,1,2,0:0:0:0:
208,332,30480,1,2,0:0:0:0:
171,157,30633,1,2,0:0:0:0:
412,210,30786,5,6,0:2:0:0:
346,119,30939,1,2,0:0:0:0:
412,210,31092,1,2,0:0:0:0:
440,69,31245,1,8,0:2:0:0:
440,69,31551,1,8,0:2:0:0:
412,210,31704,5,6,0:2:0:0:
346,119,31857,1,2,0:0:0:0:
412,210,32010,1,2,0:0:0:0:
440,69,32163,1,8,0:2:0:0:
440,69,32469,1,10,0:2:0:0:
99,56,32622,1,2,0:0:0:0:
266,42,32776,1,2,0:0:0:0:
118,216,32929,1,10,0:2:0:0:
282,207,33082,1,0,0:0:0:0:
412,210,33235,5,2,0:2:0:0:
346,119,33388,1,2,0:0:0:0:
412,210,33541,1,2,0:0:0:0:
440,69,33694,1,8,0:2:0:0:
440,69,34000,1,8,0:2:0:0:
412,210,34153,5,2,0:2:0:0:
346,119,34306,1,2,0:0:0:0:
412,210,34459,1,2,0:0:0:0:
440,69,34612,1,8,0:2:0:0:
440,69,34918,1,10,0:2:0:0:
99,56,35071,1,2,0:0:0:0:
266,42,35225,1,2,0:0:0:0:
118,216,35378,1,10,0:2:0:0:
282,207,35531,1,0,0:0:0:0:
412,210,35684,5,6,0:2:0:0:
346,119,35837,1,2,0:0:0:0:
412,210,35990,1,2,0:0:0:0:
440,69,36143,1,8,0:2:0:0:
440,69,36449,1,8,0:2:0:0:
412,210,36602,5,6,0:2:0:0:
346,119,36755,1,2,0:0:0:0:
412,210,36908,1,2,0:0:0:0:
440,69,37061,1,8,0:2:0:0:
440,69,37367,1,10,0:2:0:0:
99,56,37520,1,2,0:0:0:0:
266,42,37674,1,2,0:0:0:0:
118,216,37827,1,10,0:2:0:0:
282,207,37980,1,0,0:0:0:0:
412,210,38133,5,2,0:2:0:0:
346,119,38286,1,2,0:0:0:0:
412,210,38439,1,2,0:0:0:0:
440,69,38592,1,8,0:2:0:0:
440,69,38898,1,8,0:2:0:0:
412,210,39051,5,2,0:2:0:0:
346,119,39204,1,2,0:0:0:0:
412,210,39357,1,2,0:0:0:0:
440,69,39510,1,8,0:2:0:0:
440,69,39816,1,10,0:2:0:0:
99,56,39969,1,2,0:0:0:0:
266,42,40123,1,2,0:0:0:0:
146,147,40276,1,8,0:3:0:0:
146,147,40352,1,8,0:3:0:0:
146,147,40429,1,8,0:3:0:0:
146,147,40505,1,8,0:3:0:0:
412,210,40582,5,6,0:2:0:0:
346,119,40735,1,2,0:0:0:0:
412,210,40888,1,2,0:0:0:0:
440,69,41041,1,8,0:2:0:0:
440,69,41347,1,8,0:2:0:0:
412,210,41500,5,2,0:2:0:0:
346,119,41653,1,2,0:0:0:0:
412,210,41806,1,2,0:0:0:0:
440,69,41959,1,8,0:2:0:0:
440,69,42265,1,10,0:2:0:0:
99,56,42418,1,2,0:0:0:0:
266,42,42572,1,2,0:0:0:0:
118,216,42725,1,10,0:2:0:0:
282,207,42878,1,2,0:0:0:0:
412,210,43031,5,2,0:2:0:0:
346,119,43184,1,2,0:0:0:0:
412,210,43337,1,2,0:0:0:0:
440,69,43490,1,8,0:2:0:0:
440,69,43796,1,8,0:2:0:0:
412,210,43949,5,2,0:2:0:0:
346,119,44102,1,2,0:0:0:0:
412,210,44255,1,2,0:0:0:0:
440,69,44408,1,8,0:2:0:0:
440,69,44714,1,10,0:2:0:0:
99,56,44867,1,2,0:0:0:0:
266,42,45021,1,2,0:0:0:0:
118,216,45174,1,10,0:2:0:0:
282,207,45327,1,0,0:0:0:0:
412,210,45480,5,6,0:2:0:0:
346,119,45633,1,2,0:0:0:0:
412,210,45786,1,2,0:0:0:0:
440,69,45939,1,8,0:2:0:0:
440,69,46245,1,8,0:2:0:0:
412,210,46398,5,2,0:2:0:0:
346,119,46551,1,2,0:0:0:0:
412,210,46704,1,2,0:0:0:0:
440,69,46857,1,8,0:2:0:0:
440,69,47163,1,10,0:2:0:0:
99,56,47316,1,2,0:0:0:0:
266,42,47470,1,2,0:0:0:0:
118,216,47623,1,10,0:2:0:0:
282,207,47776,1,2,0:0:0:0:
412,210,47929,5,2,0:2:0:0:
346,119,48082,1,2,0:0:0:0:
412,210,48235,1,2,0:0:0:0:
440,69,48388,1,8,0:2:0:0:
440,69,48694,1,8,0:2:0:0:
412,210,48847,5,2,0:2:0:0:
346,119,49000,1,2,0:0:0:0:
412,210,49153,1,2,0:0:0:0:
440,69,49306,1,8,0:2:0:0:
440,69,49612,1,10,0:2:0:0:
241,74,49765,1,0,0:0:0:0:
241,74,49842,1,0,0:0:0:0:
241,74,49919,1,0,0:0:0:0:
241,74,49995,1,0,0:0:0:0:
241,74,50071,1,8,0:3:0:0:
241,74,50148,1,8,0:3:0:0:
241,74,50224,1,8,0:3:0:0:
241,74,50301,1,8,0:3:0:0:
241,74,50378,1,4,0:2:0:0:
136,70,50837,1,4,0:2:0:0:
187,154,51296,1,6,0:2:0:0:
60,245,52214,5,2,0:2:0:0:
60,245,53439,5,2,0:2:0:0:
60,245,54663,5,2,0:2:0:0:
241,74,55276,5,4,0:2:0:0:
136,70,55735,1,4,0:2:0:0:
187,154,56194,1,6,0:2:0:0:
62,121,57112,1,2,0:2:0:0:
326,98,57418,1,2,0:2:0:0:
138,179,57725,1,4,0:2:0:0:
329,213,58031,5,8,0:2:0:0:
329,213,58107,1,0,0:0:0:0:
329,213,58184,1,0,0:0:0:0:
329,213,58260,1,0,0:0:0:0:
329,213,58337,1,8,0:2:0:0:
329,213,58413,1,0,0:0:0:0:
329,213,58490,1,0,0:0:0:0:
329,213,58566,1,0,0:0:0:0:
329,213,58643,1,8,0:2:0:0:
329,213,58719,1,0,0:0:0:0:
329,213,58796,1,0,0:0:0:0:
329,213,58872,1,0,0:0:0:0:
329,213,58949,5,4,0:2:0:0:
452,114,59408,1,2,0:0:0:0:
470,280,59867,1,0,0:0:0:0:
188,246,60174,5,6,0:2:0:0:
316,331,60327,1,0,0:2:0:0:
270,180,60480,1,10,0:2:0:0:
151,355,60633,1,2,0:2:0:0:
272,260,60786,1,2,0:2:0:0:
179,135,60939,1,0,0:2:0:0:
104,277,61092,1,10,0:2:0:0:
263,98,61245,1,2,0:2:0:0:
22,117,61398,1,2,0:2:0:0:
187,216,61551,1,0,0:2:0:0:
91,40,61704,1,10,0:2:0:0:
34,213,61857,1,0,0:2:0:0:
188,37,62010,1,2,0:2:0:0:
315,174,62163,1,0,0:2:0:0:
144,112,62316,1,10,0:2:0:0:
425,81,62469,1,2,0:2:0:0:
188,37,62622,1,2,0:2:0:0:
411,186,62776,1,0,0:2:0:0:
411,186,62852,1,0,0:2:0:0:
411,186,62929,1,10,0:2:0:0:
299,20,63082,1,2,0:2:0:0:
243,263,63235,1,2,0:2:0:0:
223,110,63388,1,2,0:2:0:0:
360,277,63541,1,10,0:2:0:0:
435,82,63694,1,2,0:2:0:0:
306,148,63847,1,0,0:2:0:0:
491,294,64000,1,2,0:2:0:0:
346,81,64153,1,8,0:2:0:0:
302,354,64306,1,0,0:2:0:0:
306,148,64459,1,0,0:2:0:0:
221,353,64612,1,0,0:2:0:0:
221,148,64765,1,10,0:0:0:0:
221,148,64842,1,0,0:0:0:0:
221,148,64918,1,10,0:0:0:0:
221,148,64995,1,0,0:0:0:0:
221,148,65071,1,6,0:2:0:0:
81,258,65225,1,0,0:2:0:0:
110,84,65378,1,10,0:2:0:0:
217,252,65531,1,2,0:2:0:0:
231,21,65684,1,2,0:2:0:0:
81,168,65837,1,0,0:2:0:0:
408,185,65990,1,10,0:2:0:0:
197,92,66143,1,2,0:2:0:0:
410,40,66296,1,2,0:2:0:0:
282,197,66449,1,0,0:2:0:0:
282,197,66526,1,0,0:2:0:0:
282,197,66602,1,10,0:2:0:0:
487,116,66755,1,2,0:2:0:0:
302,72,66908,1,2,0:2:0:0:
433,239,67061,1,0,0:2:0:0:
388,127,67214,1,8,0:2:0:0:
289,311,67367,1,0,0:2:0:0:
227,112,67520,1,2,0:2:0:0:
180,335,67674,1,0,0:2:0:0:
135,109,67827,1,10,0:2:0:0:
91,334,67980,1,0,0:2:0:0:
53,116,68133,1,2,0:2:0:0:
213,236,68286,1,0,0:2:0:0:
101,28,68439,1,10,0:2:0:0:
96,225,68592,1,2,0:2:0:0:
276,60,68745,1,0,0:2:0:0:
320,246,68898,1,2,0:2:0:0:
187,121,69051,1,12,0:2:0:0:
455,50,69204,1,0,0:2:0:0:
459,211,69357,1,8,0:0:0:0:
459,211,69434,1,0,0:0:0:0:
459,211,69510,1,0,0:0:0:0:
465,208,69587,1,0,0:0:0:0:
459,211,69663,1,10,0:0:0:0:
466,208,69740,1,0,0:0:0:0:
467,208,69816,1,10,0:0:0:0:
467,208,69893,1,0,0:0:0:0:
469,207,69969,1,14,0:2:0:0:
171,223,70122,5,0,0:0:0:0:
339,71,70276,1,2,0:0:0:0:
360,325,70429,5,10,0:2:0:0:
143,102,70582,1,0,0:0:0:0:
395,181,70735,1,2,0:0:0:0:
175,334,70888,5,10,0:2:0:0:
215,49,71041,1,0,0:0:0:0:
289,255,71194,1,0,0:2:0:0:
15,180,71347,5,8,0:2:0:0:
290,166,71500,1,0,0:2:0:0:
66,314,71653,1,0,0:2:0:0:
458,111,71806,5,10,0:0:0:0:
87,61,71959,1,2,0:0:0:0:
477,234,72112,1,10,0:0:0:0:
51,276,72265,1,2,0:0:0:0:
381,175,72418,5,14,0:2:0:0:
188,362,72571,1,0,0:0:0:0:
206,60,72725,1,2,0:0:0:0:
391,314,72878,5,10,0:2:0:0:
113,179,73031,1,0,0:0:0:0:
353,89,73184,1,2,0:0:0:0:
137,270,73337,5,10,0:2:0:0:
447,142,73490,1,0,0:0:0:0:
18,85,73643,1,0,0:0:0:0:
452,21,73796,5,8,0:2:0:0:
148,153,73949,1,0,0:0:0:0:
457,259,74102,1,0,0:0:0:0:
255,146,74255,1,10,0:2:0:0:
255,146,74332,1,0,0:0:0:0:
255,146,74408,1,0,0:0:0:0:
255,146,74485,1,0,0:0:0:0:
255,146,74561,1,6,0:2:0:0:
281,238,74714,1,2,0:0:0:0:
357,121,74867,1,2,0:0:0:0:
167,230,75020,1,0,0:0:0:0:
94,67,75174,1,8,0:3:0:0:
94,67,75250,1,0,0:0:0:0:
94,67,75327,1,0,0:0:0:0:
94,67,75403,1,0,0:0:0:0:
94,67,75480,1,8,0:3:0:0:
94,67,75556,1,0,0:0:0:0:
94,67,75633,1,2,0:0:0:0:
94,67,75709,1,0,0:0:0:0:
94,67,75786,1,8,0:3:0:0:
94,67,75862,1,0,0:0:0:0:
94,67,75939,1,2,0:0:0:0:
94,67,76015,1,0,0:0:0:0:
94,67,76092,1,12,0:2:0:0:
94,67,76398,1,8,0:3:0:0:
94,67,76474,1,0,0:0:0:0:
94,67,76551,1,0,0:0:0:0:
94,67,76627,1,0,0:0:0:0:
94,67,76704,1,8,0:3:0:0:
94,67,76780,1,0,0:0:0:0:
94,67,76857,1,2,0:0:0:0:
94,67,76933,1,0,0:0:0:0:
94,67,77010,1,8,0:3:0:0:
94,67,77086,1,0,0:0:0:0:
94,67,77163,1,2,0:0:0:0:
94,67,77239,1,0,0:0:0:0:
94,67,77316,1,12,0:2:0:0:
270,123,77622,1,10,0:2:0:0:
56,229,77776,1,2,0:2:0:0:
423,237,77929,1,8,0:2:0:0:
261,20,78082,1,2,0:2:0:0:
29,158,78235,1,8,0:2:0:0:
386,314,78388,1,2,0:2:0:0:
38,23,78541,1,6,0:2:0:0:
97,201,79765,5,6,0:2:0:0:
239,110,79918,1,2,0:0:0:0:
221,270,80071,1,2,0:0:0:0:
91,88,80225,1,10,0:2:0:0:
47,282,80531,1,8,0:2:0:0:
97,201,80684,5,6,0:2:0:0:
239,110,80837,1,2,0:0:0:0:
221,270,80990,1,2,0:0:0:0:
91,88,81144,1,10,0:2:0:0:
47,282,81450,1,8,0:2:0:0:
398,170,81602,5,2,0:0:0:0:
164,162,81755,1,2,0:0:0:0:
329,292,81908,1,10,0:2:0:0:
262,64,82061,1,10,0:2:0:0:
97,201,82214,5,6,0:2:0:0:
239,110,82367,1,2,0:0:0:0:
221,270,82520,1,2,0:0:0:0:
91,88,82674,1,10,0:2:0:0:
47,282,82980,1,8,0:2:0:0:
97,201,83133,5,6,0:2:0:0:
239,110,83286,1,2,0:0:0:0:
221,270,83439,1,2,0:0:0:0:
91,88,83593,1,10,0:2:0:0:
47,282,83899,1,8,0:2:0:0:
398,170,84051,5,2,0:0:0:0:
164,162,84204,1,2,0:0:0:0:
329,292,84357,1,10,0:2:0:0:
262,64,84510,1,10,0:2:0:0:
97,201,84663,5,6,0:2:0:0:
239,110,84816,1,2,0:0:0:0:
221,270,84969,1,2,0:0:0:0:
91,88,85123,1,10,0:2:0:0:
47,282,85429,1,8,0:2:0:0:
97,201,85582,5,6,0:2:0:0:
239,110,85735,1,2,0:0:0:0:
221,270,85888,1,2,0:0:0:0:
91,88,86042,1,10,0:2:0:0:
47,282,86347,1,8,0:2:0:0:
398,170,86500,5,2,0:0:0:0:
164,162,86653,1,2,0:0:0:0:
329,292,86806,1,10,0:2:0:0:
262,64,86959,1,10,0:2:0:0:
97,201,87112,5,6,0:2:0:0:
239,110,87265,1,2,0:0:0:0:
221,270,87418,1,2,0:0:0:0:
91,88,87572,1,10,0:0:0:0:
47,282,87878,1,8,0:0:0:0:
97,201,88031,5,6,0:2:0:0:
239,110,88184,1,2,0:0:0:0:
221,270,88337,1,2,0:0:0:0:
91,88,88491,1,10,0:2:0:0:
375,122,88796,1,8,0:2:0:0:
265,56,88949,5,8,0:2:0:0:
265,56,89026,1,8,0:2:0:0:
265,56,89102,1,8,0:2:0:0:
265,56,89179,1,8,0:2:0:0:
265,56,89255,1,8,0:2:0:0:
265,56,89332,1,0,0:0:0:0:
265,56,89408,1,0,0:0:0:0:
265,56,89485,1,0,0:0:0:0:
265,56,89561,1,4,0:2:0:0:
119,85,91704,1,2,0:2:0:0:
119,85,91781,1,2,0:2:0:0:
119,85,91857,1,2,0:2:0:0:
119,85,91934,1,2,0:2:0:0:
119,85,92010,1,4,0:2:0:0:
226,247,93541,1,8,0:3:0:0:
220,96,93847,1,8,0:3:0:0:
226,247,94153,1,8,0:3:0:0:
73,147,94459,1,4,0:2:0:0:
73,147,96908,1,2,0:2:0:0:
73,147,98133,1,4,0:2:0:0:
135,321,98439,5,0,0:0:0:0:
267,316,98592,1,0,0:0:0:0:
101,248,98745,1,0,0:0:0:0:
300,236,98898,1,0,0:0:0:0:
36,328,99051,1,0,0:0:0:0:
175,200,99204,1,0,0:0:0:0:
364,319,99357,5,4,0:2:0:0:
364,319,99510,1,0,0:0:0:0:
364,319,99663,5,0,0:2:0:0:
364,319,99816,1,0,0:0:0:0:
364,319,99969,5,0,0:2:0:0:
364,319,100122,1,0,0:0:0:0:
364,319,100275,5,0,0:2:0:0:
364,319,100428,1,0,0:0:0:0:
364,319,100582,5,0,0:2:0:0:
364,319,100735,1,0,0:0:0:0:
364,319,100888,5,0,0:2:0:0:
364,319,101041,1,0,0:0:0:0:
364,319,101194,5,0,0:2:0:0:
364,319,101347,1,0,0:0:0:0:
364,319,101500,5,8,0:2:0:0:
364,319,101806,5,4,0:2:0:0:
364,319,101959,1,0,0:0:0:0:
364,319,102112,5,0,0:2:0:0:
364,319,102265,1,0,0:0:0:0:
364,319,102418,5,0,0:2:0:0:
364,319,102571,1,0,0:0:0:0:
364,319,102724,5,0,0:2:0:0:
364,319,102877,1,0,0:0:0:0:
364,319,103031,5,0,0:2:0:0:
364,319,103184,1,0,0:0:0:0:
364,319,103337,5,0,0:2:0:0:
364,319,103490,1,0,0:0:0:0:
364,319,103643,5,8,0:2:0:0:
364,319,103949,1,8,0:2:0:0:
99,127,104255,1,4,0:2:0:0:
99,127,104561,1,8,0:0:0:0:
99,127,104637,1,0,0:0:0:0:
99,127,104714,1,0,0:0:0:0:
99,127,104791,1,0,0:0:0:0:
99,127,104867,1,8,0:0:0:0:
99,127,104943,1,0,0:0:0:0:
99,127,105020,1,0,0:0:0:0:
99,127,105097,1,0,0:0:0:0:
99,127,105174,1,8,0:0:0:0:
99,127,105250,1,0,0:0:0:0:
99,127,105327,1,0,0:0:0:0:
99,127,105404,1,0,0:0:0:0:
99,127,105480,1,8,0:0:0:0:
99,127,105556,1,0,0:0:0:0:
99,127,105633,1,0,0:0:0:0:
99,127,105710,1,0,0:0:0:0:
99,127,105786,1,8,0:0:0:0:
99,127,105862,1,0,0:0:0:0:
99,127,105939,1,0,0:0:0:0:
99,127,106016,1,0,0:0:0:0:
99,127,106093,1,8,0:0:0:0:
99,127,106169,1,0,0:0:0:0:
99,127,106246,1,0,0:0:0:0:
99,127,106323,1,0,0:0:0:0:
99,127,106399,1,8,0:0:0:0:
99,127,106475,1,0,0:0:0:0:
99,127,106551,1,0,0:0:0:0:
104,125,106628,1,0,0:0:0:0:
104,125,106704,1,8,0:3:0:0:
99,127,106781,1,8,0:3:0:0:
99,127,106857,1,8,0:3:0:0:
99,127,106934,1,8,0:3:0:0:
104,125,107010,1,8,0:3:0:0:
99,127,107087,1,8,0:3:0:0:
99,127,107163,1,8,0:3:0:0:
99,127,107240,1,8,0:3:0:0:
104,125,107316,1,10,0:3:0:0:
99,127,107393,1,10,0:3:0:0:
99,127,107469,1,10,0:3:0:0:
99,127,107546,1,10,0:3:0:0:
104,125,107622,1,10,0:3:0:0:
99,127,107699,1,10,0:3:0:0:
99,127,107775,1,10,0:3:0:0:
99,127,107852,1,10,0:3:0:0:
328,211,107929,5,4,0:2:0:0:
451,112,108388,1,2,0:0:0:0:
469,278,108847,1,0,0:0:0:0:
187,244,109154,5,6,0:2:0:0:
315,329,109307,1,0,0:2:0:0:
269,178,109460,1,10,0:2:0:0:
150,353,109613,1,2,0:2:0:0:
271,258,109766,1,2,0:2:0:0:
178,133,109919,1,0,0:2:0:0:
103,275,110072,1,10,0:2:0:0:
262,96,110225,1,2,0:2:0:0:
21,115,110378,1,2,0:2:0:0:
186,214,110531,1,0,0:2:0:0:
90,38,110684,1,10,0:2:0:0:
33,211,110837,1,0,0:2:0:0:
187,35,110990,1,2,0:2:0:0:
314,172,111143,1,0,0:2:0:0:
143,110,111296,1,10,0:2:0:0:
424,79,111449,1,2,0:2:0:0:
187,35,111602,1,2,0:2:0:0:
410,184,111756,1,0,0:2:0:0:
410,184,111832,1,0,0:2:0:0:
410,184,111909,1,10,0:2:0:0:
298,18,112062,1,2,0:2:0:0:
242,261,112215,1,2,0:2:0:0:
222,108,112368,1,2,0:2:0:0:
359,275,112521,1,10,0:2:0:0:
434,80,112674,1,2,0:2:0:0:
305,146,112827,1,0,0:2:0:0:
490,292,112980,1,2,0:2:0:0:
345,79,113133,1,8,0:2:0:0:
301,352,113286,1,0,0:2:0:0:
305,146,113439,1,0,0:2:0:0:
220,351,113592,1,0,0:2:0:0:
220,146,113745,1,10,0:0:0:0:
220,146,113822,1,0,0:0:0:0:
220,146,113898,1,10,0:0:0:0:
220,146,113975,1,0,0:0:0:0:
220,146,114051,1,6,0:2:0:0:
80,256,114205,1,0,0:2:0:0:
109,82,114358,1,10,0:2:0:0:
216,250,114511,1,2,0:2:0:0:
230,19,114664,1,2,0:2:0:0:
80,166,114817,1,0,0:2:0:0:
407,183,114970,1,10,0:2:0:0:
196,90,115123,1,2,0:2:0:0:
409,38,115276,1,2,0:2:0:0:
281,195,115429,1,0,0:2:0:0:
281,195,115506,1,0,0:2:0:0:
281,195,115582,1,10,0:2:0:0:
486,114,115735,1,2,0:2:0:0:
301,70,115888,1,2,0:2:0:0:
432,237,116041,1,0,0:2:0:0:
387,125,116194,1,8,0:2:0:0:
288,309,116347,1,0,0:2:0:0:
226,110,116500,1,2,0:2:0:0:
179,333,116654,1,0,0:2:0:0:
134,107,116807,1,10,0:2:0:0:
90,332,116960,1,0,0:2:0:0:
52,114,117113,1,2,0:2:0:0:
212,234,117266,1,0,0:2:0:0:
100,26,117419,1,10,0:2:0:0:
95,223,117572,1,2,0:2:0:0:
275,58,117725,1,0,0:2:0:0:
319,244,117878,1,2,0:2:0:0:
186,119,118031,1,12,0:2:0:0:
454,48,118184,1,0,0:2:0:0:
458,209,118337,1,8,0:0:0:0:
458,209,118414,1,0,0:0:0:0:
458,209,118490,1,0,0:0:0:0:
464,206,118567,1,0,0:0:0:0:
458,209,118643,1,10,0:0:0:0:
465,206,118720,1,0,0:0:0:0:
466,206,118796,1,10,0:0:0:0:
466,206,118873,1,0,0:0:0:0:
468,205,118949,1,14,0:2:0:0:
170,221,119102,5,0,0:0:0:0:
338,69,119256,1,2,0:0:0:0:
359,323,119409,5,10,0:2:0:0:
142,100,119562,1,0,0:0:0:0:
394,179,119715,1,2,0:0:0:0:
174,332,119868,5,10,0:2:0:0:
214,47,120021,1,0,0:0:0:0:
288,253,120174,1,0,0:2:0:0:
14,178,120327,5,8,0:2:0:0:
289,164,120480,1,0,0:2:0:0:
65,312,120633,1,0,0:2:0:0:
457,109,120786,5,10,0:0:0:0:
86,59,120939,1,2,0:0:0:0:
476,232,121092,1,10,0:0:0:0:
50,274,121245,1,2,0:0:0:0:
380,173,121398,5,14,0:2:0:0:
196,206,121551,1,0,0:0:0:0:
205,58,121705,5,10,0:0:0:0:
390,312,121858,1,2,0:2:0:0:
112,177,122011,5,8,0:0:0:0:
352,87,122164,1,2,0:0:0:0:
136,268,122317,5,10,0:2:0:0:
446,140,122470,1,0,0:0:0:0:
254,144,122623,1,10,0:2:0:0:
254,144,122700,1,0,0:0:0:0:
254,144,122776,1,0,0:0:0:0:
254,144,122853,1,0,0:0:0:0:
254,144,122929,1,10,0:2:0:0:
254,144,123006,1,0,0:0:0:0:
254,144,123082,1,0,0:0:0:0:
254,144,123159,1,0,0:0:0:0:
254,144,123235,1,10,0:2:0:0:
254,144,123312,1,8,0:0:0:0:
254,144,123388,1,8,0:0:0:0:
254,144,123465,1,8,0:0:0:0:
254,144,123541,1,10,0:2:0:0:
254,144,123618,1,8,0:0:0:0:
254,144,123694,1,8,0:0:0:0:
254,144,123771,1,8,0:0:0:0:
188,246,123847,5,6,0:2:0:0:
316,331,124000,1,0,0:2:0:0:
270,180,124153,1,10,0:2:0:0:
151,355,124306,1,2,0:2:0:0:
272,260,124459,1,2,0:2:0:0:
179,135,124612,1,0,0:2:0:0:
104,277,124765,1,10,0:2:0:0:
263,98,124918,1,2,0:2:0:0:
22,117,125071,1,2,0:2:0:0:
187,216,125224,1,0,0:2:0:0:
91,40,125377,1,10,0:2:0:0:
34,213,125530,1,0,0:2:0:0:
188,37,125683,1,2,0:2:0:0:
315,174,125836,1,0,0:2:0:0:
144,112,125989,1,10,0:2:0:0:
425,81,126142,1,2,0:2:0:0:
188,37,126295,1,2,0:2:0:0:
411,186,126449,1,0,0:2:0:0:
411,186,126525,1,0,0:2:0:0:
411,186,126602,1,10,0:2:0:0:
299,20,126755,1,2,0:2:0:0:
243,263,126908,1,2,0:2:0:0:
223,110,127061,1,2,0:2:0:0:
360,277,127214,1,10,0:2:0:0:
435,82,127367,1,2,0:2:0:0:
306,148,127520,1,0,0:2:0:0:
491,294,127673,1,2,0:2:0:0:
346,81,127826,1,8,0:2:0:0:
302,354,127979,1,0,0:2:0:0:
306,148,128132,1,0,0:2:0:0:
221,353,128285,1,0,0:2:0:0:
221,148,128438,1,10,0:0:0:0:
221,148,128515,1,0,0:0:0:0:
221,148,128591,1,10,0:0:0:0:
221,148,128668,1,0,0:0:0:0:
221,148,128744,1,6,0:2:0:0:
81,258,128898,1,0,0:2:0:0:
110,84,129051,1,10,0:2:0:0:
217,252,129204,1,2,0:2:0:0:
231,21,129357,1,2,0:2:0:0:
81,168,129510,1,0,0:2:0:0:
408,185,129663,1,10,0:2:0:0:
197,92,129816,1,2,0:2:0:0:
410,40,129969,1,2,0:2:0:0:
282,197,130122,1,0,0:2:0:0:
282,197,130199,1,0,0:2:0:0:
282,197,130275,1,10,0:2:0:0:
487,116,130428,1,2,0:2:0:0:
302,72,130581,1,2,0:2:0:0:
433,239,130734,1,0,0:2:0:0:
388,127,130887,1,8,0:2:0:0:
289,311,131040,1,0,0:2:0:0:
227,112,131193,1,2,0:2:0:0:
180,335,131347,1,0,0:2:0:0:
135,109,131500,1,10,0:2:0:0:
91,334,131653,1,0,0:2:0:0:
53,116,131806,1,2,0:2:0:0:
213,236,131959,1,0,0:2:0:0:
101,28,132112,1,10,0:2:0:0:
96,225,132265,1,2,0:2:0:0:
276,60,132418,1,0,0:2:0:0:
320,246,132571,1,2,0:2:0:0:
187,121,132724,1,12,0:2:0:0:
455,50,132877,1,0,0:2:0:0:
459,211,133030,1,8,0:0:0:0:
459,211,133107,1,0,0:0:0:0:
459,211,133183,1,0,0:0:0:0:
465,208,133260,1,0,0:0:0:0:
459,211,133336,1,10,0:0:0:0:
466,208,133413,1,0,0:0:0:0:
467,208,133489,1,10,0:0:0:0:
467,208,133566,1,0,0:0:0:0:
469,207,133642,1,14,0:2:0:0:
171,223,133795,5,0,0:0:0:0:
339,71,133949,1,2,0:0:0:0:
360,325,134102,5,10,0:2:0:0:
143,102,134255,1,0,0:0:0:0:
395,181,134408,1,2,0:0:0:0:
175,334,134561,5,10,0:2:0:0:
215,49,134714,1,0,0:0:0:0:
289,255,134867,1,0,0:2:0:0:
15,180,135020,5,8,0:2:0:0:
290,166,135173,1,0,0:2:0:0:
66,314,135326,1,0,0:2:0:0:
458,111,135479,5,10,0:0:0:0:
87,61,135632,1,2,0:0:0:0:
477,234,135785,1,10,0:0:0:0:
51,276,135938,1,2,0:0:0:0:
381,175,136091,5,14,0:2:0:0:
188,362,136244,1,0,0:0:0:0:
206,60,136398,1,2,0:0:0:0:
391,314,136551,5,10,0:2:0:0:
113,179,136704,1,0,0:0:0:0:
353,89,136857,1,2,0:0:0:0:
137,270,137010,5,10,0:2:0:0:
447,142,137163,1,0,0:0:0:0:
18,85,137316,1,0,0:0:0:0:
452,21,137469,5,8,0:2:0:0:
148,153,137622,1,0,0:0:0:0:
457,259,137775,1,0,0:0:0:0:
255,146,137928,1,10,0:2:0:0:
255,146,138005,1,0,0:0:0:0:
255,146,138081,1,0,0:0:0:0:
255,146,138158,1,0,0:0:0:0:
255,146,138234,1,6,0:2:0:0:
281,238,138387,1,2,0:0:0:0:
357,121,138540,1,2,0:0:0:0:
167,230,138693,1,0,0:0:0:0:
94,67,138847,1,8,0:3:0:0:
94,67,138923,1,0,0:0:0:0:
94,67,139000,1,0,0:0:0:0:
94,67,139076,1,0,0:0:0:0:
94,67,139153,1,8,0:3:0:0:
94,67,139229,1,0,0:0:0:0:
94,67,139306,1,2,0:0:0:0:
94,67,139382,1,0,0:0:0:0:
94,67,139459,1,8,0:3:0:0:
94,67,139535,1,0,0:0:0:0:
94,67,139612,1,2,0:0:0:0:
94,67,139688,1,0,0:0:0:0:
94,67,139765,1,12,0:2:0:0:
212,158,139918,1,0,0:0:0:0:
94,67,140071,1,8,0:3:0:0:
94,67,140147,1,0,0:0:0:0:
94,67,140224,1,0,0:0:0:0:
94,67,140300,1,0,0:0:0:0:
94,67,140377,1,8,0:3:0:0:
94,67,140453,1,0,0:0:0:0:
94,67,140530,1,2,0:0:0:0:
94,67,140606,1,0,0:0:0:0:
94,67,140683,1,8,0:3:0:0:
94,67,140759,1,0,0:0:0:0:
94,67,140836,1,2,0:0:0:0:
94,67,140912,1,0,0:0:0:0:
94,67,140989,1,12,0:2:0:0:
213,159,141143,1,0,0:0:0:0:
270,123,141295,1,8,0:2:0:0:
56,229,141449,1,0,0:2:0:0:
423,237,141602,1,8,0:2:0:0:
261,20,141755,1,0,0:2:0:0:
29,158,141908,1,8,0:2:0:0:
386,314,142061,1,0,0:2:0:0:
38,23,142214,1,4,0:2:0:0:
335,151,143439,5,4,3:2:0:0:
436,203,143592,1,0,3:2:0:0:
342,260,143745,1,0,3:2:0:0:
164,201,143898,1,8,0:2:0:0:
259,298,144051,1,0,3:2:0:0:
257,205,144204,1,8,3:2:0:0:
169,291,144357,1,0,0:2:0:0:
218,131,144510,1,0,0:2:0:0:
80,247,144663,1,0,2:2:0:0:
272,59,144816,1,8,0:2:0:0:
257,205,144970,1,2,0:2:0:0:
169,48,145123,1,10,0:2:0:0:
257,205,145276,1,2,0:2:0:0:
169,48,145429,1,2,0:0:0:0:
257,205,145582,1,10,0:2:0:0:
169,48,145735,1,2,0:0:0:0:
335,151,145888,5,4,3:2:0:0:
436,203,146041,1,0,3:2:0:0:
342,260,146194,1,0,3:2:0:0:
164,201,146347,1,8,0:2:0:0:
259,298,146500,1,0,3:2:0:0:
257,205,146653,1,8,3:2:0:0:
169,291,146806,1,0,0:2:0:0:
218,131,146959,1,0,0:2:0:0:
80,247,147112,1,0,2:2:0:0:
272,59,147265,1,8,0:2:0:0:
257,205,147419,1,2,0:2:0:0:
169,48,147572,1,10,0:2:0:0:
257,205,147725,1,2,0:2:0:0:
169,48,147878,1,2,0:2:0:0:
257,205,148031,1,10,0:2:0:0:
169,48,148184,1,2,0:0:0:0:
335,151,148337,5,4,3:2:0:0:
436,203,148490,1,0,3:2:0:0:
342,260,148643,1,0,3:2:0:0:
164,201,148796,1,8,0:2:0:0:
259,298,148949,1,0,3:2:0:0:
257,205,149102,1,8,3:2:0:0:
169,291,149255,1,0,0:2:0:0:
218,131,149408,1,0,0:2:0:0:
80,247,149561,1,0,2:2:0:0:
272,59,149714,1,8,0:2:0:0:
257,205,149868,1,2,0:2:0:0:
169,48,150021,1,10,0:2:0:0:
257,205,150174,1,2,0:2:0:0:
169,48,150327,1,2,0:2:0:0:
257,205,150480,1,10,0:2:0:0:
169,48,150633,1,2,0:0:0:0:
335,151,150786,5,4,3:2:0:0:
436,203,150939,1,0,3:2:0:0:
342,260,151092,1,0,3:2:0:0:
164,201,151245,1,8,0:2:0:0:
259,298,151398,1,0,3:2:0:0:
257,205,151551,1,8,3:2:0:0:
169,291,151704,1,0,0:2:0:0:
218,131,151857,1,0,0:2:0:0:
80,247,152010,1,0,2:2:0:0:
272,59,152163,1,8,0:2:0:0:
257,205,152317,1,2,0:2:0:0:
169,48,152470,1,10,0:3:0:0:
257,205,152623,1,2,0:0:0:0:
169,48,152776,1,2,0:0:0:0:
257,205,152929,1,10,0:2:0:0:
169,48,153082,1,2,0:0:0:0:
335,151,153235,5,4,3:2:0:0:
436,203,153388,1,0,3:2:0:0:
342,260,153541,1,0,3:2:0:0:
164,201,153694,1,8,0:2:0:0:
259,298,153847,1,0,3:2:0:0:
257,205,154000,1,8,3:2:0:0:
169,291,154153,1,0,0:2:0:0:
218,131,154306,1,0,0:2:0:0:
80,247,154459,1,0,2:2:0:0:
272,59,154612,1,8,0:2:0:0:
257,205,154766,1,2,0:2:0:0:
169,48,154919,1,10,0:2:0:0:
257,205,155072,1,2,0:2:0:0:
169,48,155225,1,2,0:0:0:0:
257,205,155378,1,10,0:2:0:0:
169,48,155531,1,2,0:0:0:0:
335,151,155684,5,4,3:2:0:0:
436,203,155837,1,0,3:2:0:0:
342,260,155990,1,0,3:2:0:0:
164,201,156143,1,8,0:2:0:0:
259,298,156296,1,0,3:2:0:0:
257,205,156449,1,8,3:2:0:0:
169,291,156602,1,0,0:2:0:0:
218,131,156755,1,0,0:2:0:0:
80,247,156908,1,0,2:2:0:0:
272,59,157061,1,8,0:2:0:0:
257,205,157215,1,2,0:2:0:0:
169,48,157368,1,10,0:2:0:0:
257,205,157521,1,2,0:0:0:0:
169,48,157674,1,2,0:0:0:0:
257,205,157827,1,10,0:2:0:0:
169,48,157980,1,2,0:0:0:0:
335,151,158133,5,4,3:2:0:0:
436,203,158286,1,0,3:2:0:0:
342,260,158439,1,0,3:2:0:0:
164,201,158592,1,8,0:2:0:0:
259,298,158745,1,0,3:2:0:0:
257,205,158898,1,8,3:2:0:0:
169,291,159051,1,0,0:2:0:0:
218,131,159204,1,0,0:2:0:0:
80,247,159357,1,0,2:2:0:0:
272,59,159510,5,8,0:2:0:0:
257,205,159664,1,2,0:0:0:0:
169,48,159817,1,10,0:0:0:0:
257,205,159970,1,10,0:0:0:0:
356,98,160046,1,8,0:2:0:0:
356,98,160123,1,8,0:2:0:0:
356,98,160199,1,8,0:2:0:0:
429,88,160276,5,0,0:2:0:0:
429,88,160352,1,0,0:2:0:0:
429,88,160429,1,0,0:2:0:0:
429,88,160505,1,0,0:2:0:0:
400,162,160582,5,4,0:2:0:0:
65,89,160735,5,2,0:0:0:0:
221,239,161041,1,10,0:2:0:0:
65,89,161347,5,2,0:0:0:0:
221,239,161653,1,6,0:2:0:0:
65,89,161959,5,10,0:2:0:0:
258,104,162265,1,2,0:0:0:0:
76,227,162418,1,0,0:0:0:0:
76,227,162495,1,0,0:0:0:0:
161,57,162572,1,2,0:0:0:0:
76,227,162648,1,0,0:0:0:0:
76,227,162725,1,0,0:0:0:0:
76,227,162802,1,0,0:0:0:0:
76,227,162878,1,0,0:0:0:0:
76,227,162955,1,0,0:0:0:0:
76,227,163032,1,4,0:2:0:0:
280,266,163184,1,2,0:0:0:0:
280,266,163490,1,2,0:0:0:0:
280,266,163796,1,2,0:0:0:0:
280,266,164102,1,2,0:0:0:0:
280,266,164408,1,2,0:0:0:0:
