osu file format v14

[General]
AudioFilename: anime.mp3
AudioLeadIn: 0
PreviewTime: 107873
Countdown: 0
SampleSet: Normal
StackLeniency: 0.6
Mode: 0
LetterboxInBreaks: 0
WidescreenStoryboard: 1

[Editor]
Bookmarks: 31671,50342,60160,79729,83403,87076,99321,123834,163018
DistanceSpacing: 1.1
BeatDivisor: 4
GridSize: 16
TimelineZoom: 2.5

[Metadata]
Title:Sesshoku
TitleUnicode:接触
Artist:THE ORAL CIGARETTES
ArtistUnicode:THE ORAL CIGARETTES
Creator:Nevo
Version:Alphabet's Hard
Source:
Tags:AyanokoRin Alphabet Frostwich Irohas Haruto Sotarks haruto_aizawa
BeatmapID:1782343
BeatmapSetID:839248

[Difficulty]
HPDrainRate:5.2
CircleSize:3.9
OverallDifficulty:7
ApproachRate:8
SliderMultiplier:1.3
SliderTickRate:1

[Events]
//Background and Video events
0,0,"65922209_p0.jpg",0,0
//Break Periods
2,89762,92792
2,94660,97384
//Storyboard Layer 0 (Background)
//Storyboard Layer 1 (Fail)
//Storyboard Layer 2 (Pass)
//Storyboard Layer 3 (Foreground)
//Storyboard Sound Samples

[TimingPoints]
175,306.122448979592,4,2,22,42,1,0
175,-100,4,2,22,42,0,0
1399,-100,4,2,22,42,0,0
60175,-90.9090909090909,4,1,22,62,0,1
79766,-100,4,2,22,42,0,0
105481,-100,4,2,22,52,0,0
106705,-100,4,2,22,62,0,0
109154,-86.9565217391304,4,1,22,62,0,1
122623,-90.9090909090909,4,1,22,62,0,0
123848,-90.9090909090909,4,1,22,62,0,1
142215,-90.9090909090909,4,1,22,62,0,0
143440,-100,4,2,22,62,0,0
163032,-100,4,2,22,42,0,0

[Colours]
Combo1 : 239,237,148
Combo2 : 121,137,155
Combo3 : 207,156,80

[HitObjects]
87,100,175,6,0,L|163:107,1,65,2|2,0:0|0:0,0:0:0:0:
259,179,634,2,0,L|411:193,2,130,2|2|0,0:0|0:0|0:0,0:0:0:0:
207,237,1399,6,0,P|181:192|224:109,1,130,4|0,1:0|0:0,0:0:0:0:
179,48,1858,2,0,P|230:47|281:126,1,130,8|8,0:0|0:0,0:0:0:0:
357,118,2317,2,0,P|331:163|237:167,1,130,0|0,1:0|0:0,0:0:0:0:
207,237,2777,2,0,L|71:228,1,130,8|8,0:0|0:0,0:0:0:0:
10,268,3236,2,0,P|-2:228|7:194,2,65,0|0|8,1:0|1:0|0:0,0:0:0:0:
146,343,3848,6,0,L|287:335,1,130,0|0,1:0|0:0,0:0:0:0:
256,260,4307,2,0,L|397:268,1,130,8|8,0:0|0:0,0:0:0:0:
413,340,4766,1,0,1:0:0:0:
474,292,4919,2,0,P|464:217|406:177,1,130,0|8,1:0|0:0,0:0:0:0:
311,76,5532,1,8,0:0:0:0:
242,113,5685,2,0,L|171:102,1,65,0|0,1:0|1:0,0:0:0:0:
121,49,5991,2,0,L|50:60,1,65,8|8,0:0|0:0,0:0:0:0:
15,125,6297,5,0,1:0:0:0:
15,125,6450,1,0,1:0:0:0:
132,179,6756,2,0,L|116:325,1,130,8|8,0:0|0:0,0:0:0:0:
175,360,7215,1,0,1:0:0:0:
239,315,7368,2,0,P|300:306|374:334,1,130,0|8,1:0|0:0,0:0:0:0:
493,239,7981,1,8,0:0:0:0:
439,295,8134,2,0,P|417:255|422:211,1,65,0|0,1:0|1:0,0:0:0:0:
452,167,8440,1,8,0:0:0:0:
330,68,8746,6,0,L|247:79,1,65,0|0,1:0|1:0,0:0:0:0:
165,159,9205,2,0,L|17:144,1,130,8|8,0:0|0:0,0:0:0:0:
21,69,9664,1,0,1:0:0:0:
98,76,9817,2,0,L|246:91,1,130,0|8,1:0|0:0,0:0:0:0:
371,149,10430,1,8,0:0:0:0:
371,149,10583,2,0,L|452:145,1,65,8|8,0:0|0:0,0:0:0:0:
441,223,10889,2,0,L|360:227,1,65,8|4,0:3|0:3,0:0:0:0:
315,275,11195,5,4,1:0:0:0:
259,329,11348,2,0,P|237:283|273:209,2,130,0|8|8,1:0|0:0|0:0,0:0:0:0:
333,351,12113,1,0,1:0:0:0:
393,302,12266,2,0,L|538:313,1,130,0|8,1:0|0:0,0:0:0:0:
452,202,12879,1,8,0:0:0:0:
452,202,13032,2,0,L|377:207,1,65,0|0,1:0|1:0,0:0:0:0:
309,212,13338,1,8,0:0:0:0:
185,307,13644,5,0,1:0:0:0:
185,307,13797,2,0,P|123:297|60:342,2,130,0|8|8,1:0|0:0|0:0,0:0:0:0:
250,348,14562,1,0,1:0:0:0:
257,270,14715,2,0,L|242:126,1,130,0|8,1:0|0:0,0:0:0:0:
154,45,15328,1,8,0:0:0:0:
154,45,15481,2,0,L|163:119,1,65,0|0,1:0|1:0,0:0:0:0:
102,160,15787,2,0,L|111:234,1,65,8|8,0:0|0:0,0:0:0:0:
63,287,16093,5,0,1:0:0:0:
121,337,16246,2,0,P|64:364|6:340,2,130,0|8|8,1:0|0:0|0:0,0:0:0:0:
197,356,17011,1,0,1:0:0:0:
254,303,17164,2,0,P|311:276|369:300,2,130,0|8|8,1:0|0:0|0:0,0:0:0:0:
179,277,17930,2,0,L|164:197,2,65,0|0|8,1:0|1:0|0:0,0:0:0:0:
313,356,18542,5,0,1:0:0:0:
369,300,18695,2,0,L|358:163,2,130,0|8|8,1:0|0:0|0:0,0:0:0:0:
431,346,19460,1,0,1:0:0:0:
487,290,19613,2,0,L|476:153,2,130,0|8|8,1:0|0:0|0:0,0:0:0:0:
431,346,20379,2,0,L|363:352,1,65,8|8,0:0|0:0,0:0:0:0:
288,361,20685,2,0,L|220:367,1,65,8|8,0:0|0:0,0:0:0:0:
122,322,20991,5,4,1:0:0:0:
80,255,21144,2,0,P|43:306|56:368,2,130,0|8|8,1:0|0:0|0:0,0:0:0:0:
157,244,21909,1,0,1:0:0:0:
234,232,22062,2,0,P|270:180|257:118,2,130,0|8|8,1:0|0:0|0:0,0:0:0:0:
204,304,22828,2,0,P|244:311|280:295,1,65,0|0,1:0|1:0,0:0:0:0:
327,254,23134,1,8,0:0:0:0:
423,131,23440,5,0,1:0:0:0:
351,162,23593,2,0,L|213:148,2,130,0|8|8,1:0|0:0|0:0,0:0:0:0:
411,211,24358,1,0,1:0:0:0:
338,239,24511,2,0,L|200:225,2,130,0|8|8,1:0|0:0|0:0,0:0:0:0:
398,289,25277,1,0,1:0:0:0:
398,289,25430,1,0,1:0:0:0:
326,319,25583,2,0,L|236:311,1,65,8|8,0:0|0:0,0:0:0:0:
189,344,25889,5,0,1:0:0:0:
165,267,26042,2,0,P|116:307|115:370,2,130,0|8|8,1:0|0:0|0:0,0:0:0:0:
219,212,26807,1,0,1:0:0:0:
267,151,26960,2,0,P|226:134|152:173,2,130,0|8|8,1:0|0:0|0:0,0:0:0:0:
316,211,27726,2,0,L|310:251,3,32.5,8|8|8|8,0:0|0:0|0:0|0:0,0:0:0:0:
338,270,28032,2,0,L|332:310,3,32.5,8|8|4|4,0:3|0:3|0:3|0:3,0:0:0:0:
360,330,28338,5,4,1:0:0:0:
423,374,28491,2,0,P|437:334|429:297,1,65,0|0,1:0|0:0,0:0:0:0:
489,256,28797,2,0,P|481:214|455:186,1,65,10|0,0:0|0:0,0:0:0:0:
478,119,29103,2,0,P|450:86|414:75,1,65,10|0,0:0|0:0,0:0:0:0:
358,107,29409,6,0,L|269:91,1,65,10|0,0:0|0:0,0:0:0:0:
224,59,29715,2,0,L|135:75,1,65,10|0,0:0|0:0,0:0:0:0:
83,85,30021,1,10,0:0:0:0:
133,145,30175,2,0,P|140:185|131:225,1,65,10|10,0:3|0:3,0:0:0:0:
98,277,30481,1,6,0:3:0:0:
98,277,30634,1,6,0:3:0:0:
225,220,30787,6,0,L|297:227,1,65,6|0,1:0|1:0,0:0:0:0:
398,297,31246,2,0,P|419:237|395:164,1,130,8|8,0:0|0:0,0:0:0:0:
347,119,31705,2,0,P|299:133|202:108,1,130,0|0,1:0|3:0,0:0:0:0:
156,76,32164,2,0,P|108:62|11:87,1,130,8|8,0:0|0:0,0:0:0:0:
0,147,32623,2,0,L|7:217,1,65,2|2,1:0|1:0,0:0:0:0:
19,289,32930,1,10,0:0:0:0:
89,255,33083,1,2,0:0:0:0:
160,287,33236,6,0,L|150:366,1,65,0|2,1:0|1:0,0:0:0:0:
278,378,33695,2,0,L|265:248,1,130,8|8,0:0|0:0,0:0:0:0:
342,240,34154,1,0,1:0:0:0:
342,240,34307,2,0,L|335:170,1,65,0|0,1:0|3:0,0:0:0:0:
405,144,34613,2,0,L|417:273,1,130,8|8,0:0|0:0,0:0:0:0:
427,350,35072,1,2,1:0:0:0:
355,318,35226,1,2,1:0:0:0:
290,361,35379,2,0,L|209:355,1,65,10|10,0:0|0:0,0:0:0:0:
106,345,35685,5,4,1:0:0:0:
106,345,35838,1,2,1:0:0:0:
18,248,36144,2,0,P|38:208|17:125,1,130,10|10,0:0|0:0,0:0:0:0:
75,73,36603,2,0,P|115:93|198:72,1,130,0|0,1:0|3:0,0:0:0:0:
228,144,37062,2,0,P|268:124|351:145,1,130,10|8,0:0|0:0,0:0:0:0:
410,95,37521,2,0,P|426:128|419:171,1,65,2|2,1:0|1:0,0:0:0:0:
378,218,37828,1,10,0:0:0:0:
344,288,37981,1,2,0:0:0:0:
375,359,38134,5,0,1:0:0:0:
375,359,38287,1,2,1:0:0:0:
280,235,38593,2,0,P|260:281|263:312,1,65,10|0,0:0|3:0,0:0:0:0:
210,355,38899,1,10,0:0:0:0:
148,307,39052,1,0,1:0:0:0:
80,346,39205,2,0,P|69:305|129:232,1,130,2|8,1:0|0:0,0:0:0:0:
187,208,39664,2,0,P|164:174|119:161,1,65,0|8,3:0|0:0,0:0:0:0:
67,146,39970,1,2,1:0:0:0:
67,146,40123,1,0,1:0:0:0:
18,83,40277,2,0,L|20:35,2,32.5,8|8|8,0:0|0:0|0:0,0:0:0:0:
100,23,40583,6,0,L|171:28,1,65,6|0,1:0|1:0,0:0:0:0:
267,107,41042,2,0,L|409:97,1,130,8|8,0:0|0:0,0:0:0:0:
462,139,41501,2,0,B|434:174|434:174|343:181,1,130,0|0,1:0|3:0,0:0:0:0:
299,240,41960,2,0,L|142:232,1,130,8|8,0:0|0:0,0:0:0:0:
99,198,42419,2,0,P|90:229|100:269,2,65,2|0|10,1:0|1:0|0:0,0:0:0:0:
23,100,43032,6,0,L|96:93,1,65,0|2,1:0|1:0,0:0:0:0:
202,155,43491,2,0,L|349:146,1,130,8|8,0:0|0:0,0:0:0:0:
407,166,43950,1,0,1:0:0:0:
464,113,44103,2,0,P|485:169|450:231,1,130,0|8,1:0|0:0,0:0:0:0:
358,315,44715,1,8,0:0:0:0:
299,263,44868,2,0,L|230:270,2,65,2|2|10,1:0|1:0|0:0,0:0:0:0:
350,204,45328,1,10,0:0:0:0:
420,170,45481,6,0,P|387:135|297:146,1,130,4|0,1:0|3:0,0:0:0:0:
245,181,45940,2,0,P|182:188|134:147,1,130,10|10,0:0|0:0,0:0:0:0:
82,89,46399,2,0,L|90:228,1,130,0|0,1:0|3:0,0:0:0:0:
64,292,46858,2,0,L|203:284,1,130,10|8,0:0|0:0,0:0:0:0:
264,252,47317,2,0,L|330:264,1,65,2|2,1:0|1:0,0:0:0:0:
381,320,47623,2,0,L|447:308,1,65,10|2,0:0|0:0,0:0:0:0:
497,249,47930,5,0,1:0:0:0:
497,249,48083,1,2,1:0:0:0:
469,121,48389,2,0,P|419:104|330:129,1,130,10|10,0:0|0:0,0:0:0:0:
283,166,48848,1,0,1:0:0:0:
283,166,49001,2,0,P|233:183|144:158,2,130,2|10|10,1:0|0:0|0:0,0:0:0:0:
352,201,49766,2,0,L|344:244,3,32.5,0|8|10|8,1:0|0:0|0:0|0:0,0:0:0:0:
366,266,50072,2,0,L|358:309,3,32.5,8|8|8|8,1:2|0:0|0:0|0:0,0:0:0:0:
379,332,50379,6,0,B|250:320|250:320|175:344,1,195,6|6,1:0|1:0,0:0:0:0:
187,339,51297,1,6,1:0:0:0:
256,192,51450,12,2,54664,3:0:0:0:
128,83,55277,6,0,B|232:54|221:128|331:84,1,195,2|2,1:0|1:0,0:0:0:0:
317,89,56195,1,2,1:0:0:0:
256,192,56348,12,2,57726,1:0:0:0:
411,214,58032,6,0,L|377:222,3,32.5,8|8|8|8,1:2|0:0|0:0|0:0,0:0:0:0:
348,245,58338,2,0,L|314:237,3,32.5,8|8|8|8,1:2|0:0|0:0|0:0,0:0:0:0:
283,215,58644,2,0,L|249:223,3,32.5,10|8|8|8,1:2|0:0|0:0|0:0,0:0:0:0:
218,244,58950,1,6,1:0:0:0:
218,244,60175,6,0,P|175:218|75:237,1,143.000004364014,6|10,0:0|0:2,0:0:0:0:
27,281,60634,1,2,0:0:0:0:
71,345,60787,2,0,P|114:371|214:352,1,143.000004364014,2|10,0:0|0:2,0:0:0:0:
266,313,61246,1,2,0:0:0:0:
323,259,61399,2,0,L|480:284,2,143.000004364014,2|10|2,0:0|0:2|0:0,0:0:0:0:
256,132,62317,2,0,L|170:143,1,71.5000021820069,10|2,0:2|0:0,0:0:0:0:
106,217,62623,6,0,L|257:242,1,143.000004364014,2|10,0:0|0:2,0:0:0:0:
323,259,63083,1,2,0:0:0:0:
393,224,63236,2,0,P|411:182|392:89,1,143.000004364014,2|10,0:0|0:2,0:0:0:0:
327,45,63695,2,0,P|239:64|173:44,1,143.000004364014,2|2,0:0|0:0,0:0:0:0:
114,26,64154,6,0,P|108:59|130:108,1,71.5000021820069,8|0,0:2|0:0,0:0:0:0:
175,149,64460,1,0,0:0:0:0:
122,207,64613,1,0,0:0:0:0:
177,279,64766,1,0,0:0:0:0:
177,279,64843,1,0,0:0:0:0:
177,279,64919,1,0,0:0:0:0:
248,227,65072,6,0,L|404:243,1,143.000004364014,6|10,0:0|0:2,0:0:0:0:
468,230,65532,1,2,0:0:0:0:
420,167,65685,2,2,L|264:151,1,143.000004364014,2|10,0:0|0:2,0:0:0:0:
207,117,66144,1,2,0:0:0:0:
128,107,66297,2,0,P|64:108|3:187,2,143.000004364014,2|10|2,0:0|0:2|0:0,0:0:0:0:
128,107,67215,2,0,L|205:117,1,71.5000021820069,10|2,0:2|0:0,0:0:0:0:
238,236,67521,6,0,B|166:214|169:262|79:232,2,143.000004364014,2|10|2,0:0|0:2|0:0,0:0:0:0:
395,254,68440,1,10,0:2:0:0:
458,300,68593,2,0,P|422:327|330:297,1,143.000004364014,2|2,0:0|0:0,0:0:0:0:
315,226,69052,2,0,L|321:140,1,71.5000021820069,8|0,0:2|0:0,0:0:0:0:
266,97,69358,1,8,0:2:0:0:
251,95,69435,1,8,0:2:0:0:
236,93,69511,1,8,0:2:0:0:
221,91,69588,1,8,0:2:0:0:
206,91,69664,2,0,L|201:162,1,71.5000021820069,10|2,0:2|0:0,0:0:0:0:
112,38,69970,6,0,L|101:201,1,143.000004364014,14|2,0:2|0:0,0:0:0:0:
30,278,70430,2,0,P|104:260|168:289,1,143.000004364014,10|2,0:2|0:0,0:0:0:0:
242,276,70889,2,0,P|307:301|375:282,1,143.000004364014,10|0,0:2|0:0,0:0:0:0:
463,327,71348,2,0,P|454:258|472:172,1,143.000004364014,8|0,0:2|0:0,0:0:0:0:
486,103,71807,2,0,L|405:110,1,71.5000021820069,14|2,0:2|0:0,0:0:0:0:
337,144,72113,1,12,0:2:0:0:
254,121,72266,1,0,0:0:0:0:
141,79,72419,6,0,B|90:84|90:84|52:78|52:78|-24:86,1,143.000004364014,14|2,0:2|0:0,0:0:0:0:
2,162,72879,2,0,B|53:157|53:157|91:163|91:163|167:155,1,143.000004364014,10|2,0:2|0:0,0:0:0:0:
229,153,73338,2,0,P|216:203|253:288,1,143.000004364014,10|0,0:2|0:0,0:0:0:0:
277,358,73797,2,0,P|339:325|408:337,1,143.000004364014,8|0,0:2|0:0,0:0:0:0:
472,280,74256,2,0,L|468:239,4,35.7500010910034,10|8|8|8|14,0:3|0:3|0:3|0:3|0:2,0:0:0:0:
473,105,74868,5,6,0:0:0:0:
473,105,75175,2,0,L|390:101,1,71.5000021820069,10|8,0:2|0:2,0:0:0:0:
335,58,75481,2,0,L|252:62,1,71.5000021820069,8|10,0:2|0:2,0:0:0:0:
197,103,75787,1,10,0:2:0:0:
55,34,76093,5,6,0:0:0:0:
55,34,76399,2,0,L|51:117,1,71.5000021820069,10|8,0:2|0:2,0:0:0:0:
11,173,76705,1,8,0:2:0:0:
12,187,76782,1,8,0:2:0:0:
14,200,76858,1,8,0:2:0:0:
15,214,76935,1,8,0:2:0:0:
17,227,77011,2,0,L|21:310,1,71.5000021820069,8|8,0:2|0:2,0:0:0:0:
208,243,77317,5,6,0:0:0:0:
208,243,77623,2,0,L|299:252,1,71.5000021820069,10|10,0:2|0:2,0:0:0:0:
343,295,77930,1,8,0:2:0:0:
343,295,78083,1,10,0:2:0:0:
409,234,78236,1,8,0:2:0:0:
474,308,78389,1,10,0:2:0:0:
512,211,78542,5,2,2:0:0:0:
474,308,79766,6,0,P|458:256|477:181,1,130,4|0,1:0|0:0,0:0:0:0:
407,146,80226,2,0,P|423:94|404:19,1,130,8|0,0:0|0:0,0:0:0:0:
328,15,80685,2,0,L|186:30,1,130,0|0,1:0|0:0,0:0:0:0:
149,94,81144,2,0,L|291:109,1,130,8|8,0:0|0:0,0:0:0:0:
342,154,81603,2,0,L|417:144,2,65,0|0|8,1:0|1:0|0:0,0:0:0:0:
259,255,82215,6,0,P|213:237|133:259,1,130,0|0,1:0|0:0,0:0:0:0:
135,334,82675,2,0,P|181:352|261:330,1,130,8|0,0:0|0:0,0:0:0:0:
329,305,83134,2,0,P|390:286|450:305,1,130,0|0,1:0|0:0,0:0:0:0:
511,354,83593,2,0,P|492:292|511:232,1,130,8|8,0:0|0:0,0:0:0:0:
449,185,84052,2,0,L|456:49,1,130,0|8,1:0|0:0,0:0:0:0:
332,100,84664,6,0,L|187:89,1,130,0|0,1:0|0:0,0:0:0:0:
133,53,85123,2,0,L|122:198,1,130,8|8,0:0|0:0,0:0:0:0:
86,252,85583,2,0,L|231:263,1,130,0|0,1:0|0:0,0:0:0:0:
285,299,86042,2,0,L|296:154,1,130,8|8,0:0|0:0,0:0:0:0:
332,100,86501,2,0,L|258:95,2,65,0|0|8,1:0|1:0|0:0,0:0:0:0:
458,148,87113,6,0,P|477:208|449:277,1,130,0|0,1:0|0:0,0:0:0:0:
398,322,87572,2,0,P|337:300|276:319,1,130,8|8,0:0|0:0,0:0:0:0:
234,253,88032,2,0,P|173:274|112:255,1,130,0|0,1:0|0:0,0:0:0:0:
60,313,88491,2,0,L|76:167,1,130,8|8,0:0|0:0,0:0:0:0:
38,114,88950,2,0,L|45:69,3,32.5,8|8|8|8,0:0|0:0|0:0|0:0,0:0:0:0:
72,56,89256,2,0,L|79:11,3,32.5,8|8|4|4,0:3|0:3|0:3|0:3,0:0:0:0:
114,12,89562,5,4,1:0:0:0:
346,40,93542,5,8,0:3:0:0:
342,117,93848,1,8,0:3:0:0:
338,194,94154,1,4,0:3:0:0:
335,271,94460,5,4,1:0:0:0:
335,271,98134,5,4,0:0:0:0:
335,271,98440,2,0,L|260:267,1,65,4|8,0:3|0:3,0:0:0:0:
209,218,98746,2,0,L|134:222,3,65,4|8|4|4,0:3|0:3|0:3|0:3,0:0:0:0:
70,267,99358,6,0,P|57:230|65:188,1,65,4|8,1:3|0:3,0:0:0:0:
102,139,99664,1,4,1:3:0:0:
102,139,99817,1,8,0:3:0:0:
139,70,99970,2,0,P|139:37|127:7,2,65,4|4|4,1:3|0:3|1:3,0:0:0:0:
209,218,100583,2,0,L|294:223,1,65,4|8,1:3|0:3,0:0:0:0:
324,280,100889,2,0,L|409:285,1,65,4|4,1:3|0:3,0:0:0:0:
440,342,101195,2,0,L|525:347,2,65,4|8|8,1:3|0:3|1:2,0:0:0:0:
324,280,101807,6,0,P|311:243|319:201,1,65,4|8,1:3|0:3,0:0:0:0:
356,152,102113,1,4,1:3:0:0:
356,152,102266,1,8,0:3:0:0:
393,83,102419,2,0,P|393:50|381:20,2,65,4|4|4,1:3|0:3|1:3,0:0:0:0:
312,217,103032,2,0,L|232:203,1,65,4|8,1:3|0:3,0:0:0:0:
187,156,103338,2,0,L|107:170,1,65,4|4,1:3|0:3,0:0:0:0:
61,214,103644,1,8,1:2:0:0:
61,214,103950,1,8,1:2:0:0:
166,328,104256,5,4,1:0:0:0:
166,328,104562,2,0,L|208:324,3,32.5,10|8|8|8,1:2|0:0|0:0|0:0,0:0:0:0:
236,335,104868,2,0,L|308:339,1,65,8|8,1:2|0:0,0:0:0:0:
352,279,105175,2,0,L|424:283,1,65,8|8,1:2|0:0,0:0:0:0:
478,234,105481,2,0,L|483:200,3,32.5,10|8|8|8,1:2|0:0|0:0|0:0,0:0:0:0:
457,171,105787,2,0,L|462:137,3,32.5,8|8|8|8,1:2|0:0|0:0|0:0,0:0:0:0:
434,111,106093,2,0,L|353:117,1,65,8|8,1:2|0:0,0:0:0:0:
312,168,106399,2,0,L|231:162,1,65,8|8,1:2|0:0,0:0:0:0:
146,161,106705,6,0,L|155:236,1,65,10|8,1:2|0:0,0:0:0:0:
83,258,107011,2,0,L|75:193,1,65,8|8,1:2|0:0,0:0:0:0:
24,134,107317,2,0,L|29:93,3,32.5,8|8|8|8,1:2|0:0|0:0|0:0,0:0:0:0:
63,85,107623,2,0,L|68:44,3,32.5,10|8|8|8,1:2|0:0|0:0|0:0,0:0:0:0:
103,38,107930,5,6,1:0:0:0:
53,172,109154,6,0,P|106:165|190:238,1,149.500002851486,6|10,0:0|0:2,0:0:0:0:
205,295,109613,1,2,0:0:0:0:
141,346,109766,2,0,P|123:311|130:263,1,74.7500014257431,2|0,0:0|0:0,0:0:0:0:
205,295,110072,1,10,0:2:0:0:
270,344,110226,1,2,0:0:0:0:
352,339,110379,2,0,L|362:177,1,149.500002851486,2|8,0:0|0:2,0:0:0:0:
412,125,110838,1,2,0:0:0:0:
362,59,110991,2,0,L|282:66,1,74.7500014257431,2|0,0:0|0:0,0:0:0:0:
226,120,111297,1,10,0:2:0:0:
146,100,111450,1,2,0:0:0:0:
63,176,111603,6,0,P|127:174|207:247,1,149.500002851486,2|10,0:0|0:2,0:0:0:0:
230,295,112062,1,2,0:0:0:0:
289,352,112215,2,0,P|349:374|442:336,1,149.500002851486,2|10,0:0|0:2,0:0:0:0:
472,279,112675,2,0,L|463:189,1,74.7500014257431,2|0,0:0|0:0,0:0:0:0:
418,136,112981,1,2,0:0:0:0:
355,189,113134,2,0,L|265:198,1,74.7500014257431,8|0,0:2|0:0,0:0:0:0:
200,176,113440,1,0,0:0:0:0:
255,115,113593,1,0,0:0:0:0:
214,43,113746,1,10,0:2:0:0:
214,43,113822,1,8,0:2:0:0:
214,43,113899,1,10,0:2:0:0:
113,97,114052,6,0,P|75:164|112:235,1,149.500002851486,6|10,0:0|0:2,0:0:0:0:
90,307,114511,1,2,0:0:0:0:
165,275,114664,2,0,P|220:279|285:358,1,149.500002851486,2|10,0:0|0:2,0:0:0:0:
346,293,115123,1,2,0:0:0:0:
405,361,115277,2,0,L|387:208,1,149.500002851486,2|8,0:0|0:2,0:0:0:0:
378,130,115736,1,2,0:0:0:0:
455,103,115889,2,0,L|473:256,1,149.500002851486,2|8,0:0|0:2,0:0:0:0:
489,331,116348,1,2,0:0:0:0:
405,361,116501,6,0,L|317:357,1,74.7500014257431,2|0,0:0|0:0,0:0:0:0:
248,353,116807,2,0,L|160:349,1,74.7500014257431,10|0,0:2|0:0,0:0:0:0:
91,342,117113,2,0,B|66:299|66:299|86:173,1,149.500002851486,2|10,0:0|0:2,0:0:0:0:
49,124,117572,2,0,L|63:40,1,74.7500014257431,2|0,0:0|0:0,0:0:0:0:
137,17,117879,1,2,0:0:0:0:
197,72,118032,2,0,L|183:156,1,74.7500014257431,8|0,0:2|0:0,0:0:0:0:
210,223,118338,1,8,0:2:0:0:
223,229,118414,1,8,0:2:0:0:
236,235,118491,1,8,0:2:0:0:
249,241,118567,1,8,0:2:0:0:
262,247,118644,1,10,0:2:0:0:
399,115,118950,6,0,L|323:103,2,74.7500014257431,14|0|2,0:2|0:0|0:0,0:0:0:0:
437,187,119409,2,0,L|513:175,2,74.7500014257431,10|0|2,0:2|0:0|0:0,0:0:0:0:
369,234,119868,2,0,L|293:222,2,74.7500014257431,10|0|0,0:2|0:0|0:0,0:0:0:0:
425,294,120328,2,0,L|501:282,2,74.7500014257431,8|0|0,0:2|0:0|0:0,0:0:0:0:
360,344,120787,2,0,L|314:338,3,37.3750007128716,10|8|0|8,0:2|0:2|0:0|0:2,0:0:0:0:
284,323,121093,2,0,L|238:329,3,37.3750007128716,10|8|10|8,0:2|0:2|0:2|0:2,0:0:0:0:
212,350,121399,5,14,0:2:0:0:
57,294,121705,1,10,0:2:0:0:
57,294,121858,1,10,0:2:0:0:
116,237,122011,1,8,0:3:0:0:
116,237,122164,1,10,0:2:0:0:
72,167,122317,1,10,0:2:0:0:
72,167,122470,1,8,0:2:0:0:
129,113,122623,6,0,L|206:122,1,71.5000021820069,8|8,0:3|0:3,0:0:0:0:
255,178,122930,2,0,L|332:169,1,71.5000021820069,8|8,0:3|0:3,0:0:0:0:
377,110,123236,2,0,L|421:117,7,35.7500010910034,8|8|8|8|10|8|10|8,0:2|0:2|0:2|0:2|0:2|0:2|0:2|0:2,0:0:0:0:
450,125,123848,6,0,P|467:176|438:261,1,143.000004364014,6|10,0:0|0:2,0:0:0:0:
425,335,124307,1,2,0:0:0:0:
355,298,124460,2,0,L|265:291,1,71.5000021820069,2|0,0:0|0:0,0:0:0:0:
215,332,124766,1,10,0:2:0:0:
137,317,124919,1,2,0:0:0:0:
39,359,125072,6,0,P|52:296|54:197,1,143.000004364014,2|10,0:0|0:2,0:0:0:0:
35,141,125532,1,2,0:0:0:0:
68,69,125685,2,0,P|99:65|144:74,1,71.5000021820069,2|0,0:0|0:0,0:0:0:0:
203,115,125991,1,10,0:2:0:0:
264,65,126144,1,2,0:0:0:0:
332,102,126297,2,0,P|315:168|331:266,1,143.000004364014,2|10,0:0|0:2,0:0:0:0:
382,292,126756,1,2,0:0:0:0:
307,318,126909,2,0,P|241:301|143:317,1,143.000004364014,2|10,0:0|0:2,0:0:0:0:
88,311,127368,6,0,P|96:272|90:228,1,71.5000021820069,2|0,0:0|0:0,0:0:0:0:
42,180,127675,1,2,0:0:0:0:
99,126,127828,2,0,P|138:134|182:128,1,71.5000021820069,8|0,0:2|0:0,0:0:0:0:
240,98,128134,1,0,0:0:0:0:
311,130,128287,1,0,0:0:0:0:
390,109,128440,1,10,0:2:0:0:
390,109,128516,1,8,0:2:0:0:
390,109,128593,1,10,0:2:0:0:
472,162,128746,6,0,L|466:334,1,143.000004364014,6|10,0:0|0:2,0:0:0:0:
402,350,129205,1,2,0:0:0:0:
332,313,129358,2,0,L|186:304,1,143.000004364014,2|10,0:0|0:2,0:0:0:0:
117,335,129817,1,2,0:0:0:0:
48,296,129970,2,0,P|29:240|57:153,1,143.000004364014,2|10,0:0|0:2,0:0:0:0:
120,123,130430,1,2,0:0:0:0:
187,163,130583,2,0,P|253:184|321:165,1,143.000004364014,2|0,0:0|0:0,0:0:0:0:
464,57,131195,6,0,L|474:216,1,143.000004364014,2|10,0:0|0:2,0:0:0:0:
450,275,131654,1,0,0:0:0:0:
415,345,131807,2,0,P|386:319|399:217,1,143.000004364014,2|10,0:0|0:2,0:0:0:0:
330,174,132266,2,0,P|304:203|202:190,1,143.000004364014,2|2,0:0|0:0,0:0:0:0:
146,245,132726,1,8,0:2:0:0:
31,136,133032,2,0,L|37:78,3,35.7500010910034,8|8|0|8,0:2|0:2|0:0|0:2,0:0:0:0:
61,71,133338,1,10,0:2:0:0:
217,80,133644,6,0,P|221:51|215:-1,2,71.5000021820069,14|0|2,0:2|0:0|0:0,0:0:0:0:
265,142,134103,2,0,P|261:177|265:212,2,71.5000021820069,10|0|2,0:2|0:0|0:0,0:0:0:0:
323,89,134562,2,0,P|327:60|321:8,2,71.5000021820069,10|0|0,0:2|0:0|0:0,0:0:0:0:
371,151,135021,2,0,P|367:186|371:221,2,71.5000021820069,8|0|0,0:2|0:0|0:0,0:0:0:0:
425,93,135481,2,0,P|429:64|423:12,2,71.5000021820069,10|0|0,0:2|0:0|0:0,0:0:0:0:
371,221,136093,6,0,L|449:219,2,71.5000021820069,14|0|2,0:2|0:0|0:0,0:0:0:0:
302,257,136552,2,0,L|224:259,2,71.5000021820069,10|0|2,0:2|0:0|0:0,0:0:0:0:
370,297,137011,2,0,L|448:295,2,71.5000021820069,10|0|0,0:2|0:0|0:0,0:0:0:0:
301,333,137470,2,0,L|223:335,2,71.5000021820069,8|0|0,0:2|0:0|0:0,0:0:0:0:
366,377,137930,2,0,L|421:373,4,35.7500010910034,10|8|10|8|14,0:3|0:3|0:3|0:3|0:2,0:0:0:0:
212,321,138542,5,10,0:2:0:0:
62,369,138848,2,0,L|71:333,3,35.7500010910034,10|8|8|8,0:2|0:2|0:2|0:2,0:0:0:0:
105,316,139154,2,0,L|114:280,3,35.7500010910034,8|0|0|0,0:2|0:0|0:0|0:0,0:0:0:0:
144,256,139460,1,6,0:0:0:0:
51,128,139766,5,10,0:2:0:0:
51,128,140072,2,0,L|88:124,3,35.7500010910034,10|8|8|8,0:2|0:2|0:2|0:2,0:0:0:0:
101,123,140379,1,8,0:2:0:0:
114,126,140455,1,8,0:2:0:0:
127,129,140532,1,8,0:2:0:0:
140,132,140608,1,8,0:2:0:0:
153,137,140685,1,6,0:0:0:0:
335,70,140991,5,10,0:2:0:0:
335,70,141297,2,0,L|341:155,1,71.5000021820069,8|10,0:2|0:2,0:0:0:0:
380,208,141603,1,8,0:2:0:0:
380,208,141756,1,10,0:2:0:0:
327,275,141909,1,8,2:0:0:0:
420,320,142062,1,10,0:2:0:0:
319,384,142215,5,2,2:2:0:0:
79,173,143440,5,4,1:0:0:0:
149,207,143593,2,0,P|147:135|101:96,2,130,0|8|8,1:0|0:0|0:0,0:0:0:0:
112,275,144358,1,0,1:0:0:0:
161,335,144511,2,0,L|299:323,2,130,0|8|8,1:0|0:0|0:0,0:0:0:0:
84,351,145277,2,0,L|-1:348,2,65,0|0|8,1:0|1:0|0:0,0:0:0:0:
192,239,145889,5,0,1:0:0:0:
260,276,146042,2,0,P|311:288|393:251,2,130,0|8|8,1:0|0:0|0:0,0:0:0:0:
192,239,146807,1,0,1:0:0:0:
257,196,146960,2,0,P|269:145|232:63,2,130,0|8|8,1:0|0:0|0:0,0:0:0:0:
192,239,147726,2,0,L|115:230,1,65,0|0,1:0|1:0,0:0:0:0:
50,218,148032,1,8,0:0:0:0:
50,218,148185,1,8,0:0:0:0:
97,156,148338,5,0,1:0:0:0:
150,99,148491,2,0,P|118:80|27:123,2,130,0|8|8,1:0|0:0|0:0,0:0:0:0:
206,152,149256,1,0,1:0:0:0:
263,99,149409,2,0,L|410:108,2,130,0|8|8,1:0|0:0|0:0,0:0:0:0:
206,152,150175,2,0,L|201:242,1,65,0|0,1:0|1:0,0:0:0:0:
194,294,150481,1,8,0:0:0:0:
344,252,150787,5,0,1:0:0:0:
402,303,150940,2,0,P|361:328|276:289,2,130,0|8|8,1:0|0:0|0:0,0:0:0:0:
438,233,151705,1,0,1:0:0:0:
464,159,151858,2,0,L|457:22,2,130,0|8|8,1:0|0:0|0:0,0:0:0:0:
386,169,152623,2,0,L|317:159,1,65,8|8,0:0|0:0,0:0:0:0:
253,121,152930,2,0,L|184:131,1,65,8|8,0:0|0:0,0:0:0:0:
84,175,153236,5,4,1:0:0:0:
33,234,153389,2,0,P|75:253|156:208,2,130,0|8|8,1:0|0:0|0:0,0:0:0:0:
84,175,154154,1,0,1:0:0:0:
154,141,154307,2,0,L|142:7,2,130,0|8|8,1:0|0:0|0:0,0:0:0:0:
218,185,155072,2,0,L|296:187,1,65,0|0,1:0|1:0,0:0:0:0:
361,190,155379,1,8,0:0:0:0:
437,325,155685,5,0,1:0:0:0:
402,255,155838,2,0,P|448:245|512:306,2,130,0|8|8,1:0|0:0|0:0,0:0:0:0:
341,304,156603,1,0,1:0:0:0:
274,344,156756,2,0,P|228:354|164:293,2,130,0|8|8,1:0|0:0|0:0,0:0:0:0:
274,266,157521,2,0,L|259:188,1,65,0|0,1:0|1:0,0:0:0:0:
205,147,157828,2,0,L|220:69,1,65,8|8,0:0|0:0,0:0:0:0:
275,31,158134,5,0,1:0:0:0:
337,77,158287,2,0,L|481:84,2,130,0|8|8,1:0|0:0|0:0,0:0:0:0:
270,117,159052,1,0,1:0:0:0:
332,163,159205,2,0,L|476:170,2,130,0|8|8,1:0|0:0|0:0,0:0:0:0:
270,210,159970,2,0,L|225:206,3,32.5,8|8|8|8,0:0|0:0|0:0|0:0,0:0:0:0:
206,182,160277,2,0,L|161:186,3,32.5,8|8|4|4,0:3|0:3|0:3|0:3,0:0:0:0:
148,214,160583,6,0,L|70:210,1,65,4|0,1:0|1:0,0:0:0:0:
38,360,161042,2,0,L|167:366,1,130,10|10,0:0|0:0,0:0:0:0:
224,313,161501,1,0,0:0:0:0:
288,268,161654,2,0,L|435:274,2,130,10|10|10,0:0|0:0|0:0,0:0:0:0:
228,217,162419,2,0,P|223:191|223:182,3,32.5,8|8|8|8,0:3|0:3|0:3|0:3,0:0:0:0:
244,151,162726,2,0,P|249:125|249:116,3,32.5,4|4|4|4,0:3|0:3|0:3|0:3,0:0:0:0:
223,88,163032,5,6,1:0:0:0:
