osu file format v14

[General]
AudioFilename: audio.mp3
AudioLeadIn: 0
PreviewTime: 48846
Countdown: 0
SampleSet: Soft
StackLeniency: 0.7
Mode: 3
LetterboxInBreaks: 0
SpecialStyle: 0
WidescreenStoryboard: 1

[Editor]
DistanceSpacing: 0.9
BeatDivisor: 4
GridSize: 32
TimelineZoom: 2.8

[Metadata]
Title:Sesshoku (Cut Ver.)
TitleUnicode:接触 (Cut Ver.)
Artist:THE ORAL CIGARETTES
ArtistUnicode:THE ORAL CIGARETTES
Creator:Stelar
Version:Hard
Source:
Tags:toc album before it's too late black memory a-sketch j-rock japanese rock kanon matsubara rakh2502 rakh onii_ue yuiazu- short version
BeatmapID:2401088
BeatmapSetID:1149492

[Difficulty]
HPDrainRate:7.5
CircleSize:4
OverallDifficulty:7.5
ApproachRate:5
SliderMultiplier:1.4
SliderTickRate:1

[Events]
//Background and Video events
0,0,"pasti mau maling bg.jpg",0,0
//Break Periods
//Storyboard Layer 0 (Background)
//Storyboard Layer 1 (Fail)
//Storyboard Layer 2 (Pass)
//Storyboard Layer 3 (Foreground)
//Storyboard Layer 4 (Overlay)
//Storyboard Sound Samples
Sample,2392,0,"Crash.wav",28
Sample,3311,0,"Crash.wav",28
Sample,3923,0,"Crash.wav",28
Sample,4841,0,"Crash.wav",28
Sample,5760,0,"Crash.wav",28
Sample,6372,0,"Crash.wav",28
Sample,7290,0,"Crash.wav",28
Sample,8209,0,"Crash.wav",28
Sample,8821,0,"Crash.wav",28
Sample,9739,0,"Crash.wav",28
Sample,12188,0,"Crash.wav",28
Sample,13107,0,"Crash.wav",28
Sample,13719,0,"Crash.wav",28
Sample,14637,0,"Crash.wav",28
Sample,15556,0,"Crash.wav",28
Sample,16168,0,"Crash.wav",28
Sample,17086,0,"Crash.wav",28
Sample,67903,0,"Tom3.wav",20
Sample,68056,0,"Tom3.wav",25
Sample,68209,0,"Tom3.wav",30
Sample,68362,0,"Tom3.wav",40
Sample,68515,0,"Tom3.wav",40
Sample,70964,0,"Crash.wav",28
Sample,71882,0,"Crash.wav",28
Sample,72494,0,"Crash.wav",28
Sample,73413,0,"Crash.wav",28
Sample,74331,0,"Crash.wav",28
Sample,74943,0,"Crash.wav",28
Sample,75862,0,"Crash.wav",28
Sample,76780,0,"Crash.wav",28
Sample,77392,0,"Crash.wav",28
Sample,78311,0,"Crash.wav",28
Sample,80760,0,"Crash.wav",28
Sample,81678,0,"Crash.wav",28
Sample,82290,0,"Crash.wav",28
Sample,83209,0,"Crash.wav",28
Sample,84127,0,"Crash.wav",28
Sample,84739,0,"Crash.wav",28
Sample,85658,0,"Crash.wav",28
Sample,88107,0,"Crash.wav",60

[TimingPoints]
250,306.122448979592,4,2,1,50,1,0
21066,-100.0,4,2,1,40,0,0
40658,-100.0,4,2,1,45,0,0
50454,-100.0,4,2,1,55,0,1
70045,-100.0,4,2,1,50,0,0

[HitObjects]
64,192,250,1,0,0:0:0:0:
192,192,403,1,0,0:0:0:0:
320,192,709,1,0,0:0:0:0:
320,192,1015,1,0,0:0:0:0:
448,192,1321,1,0,0:0:0:0:
64,192,1474,1,2,0:0:0:0:
192,192,1474,1,4,0:0:0:0:
320,192,1627,1,2,0:0:0:0:
64,192,1933,1,8,0:0:0:0:
448,192,1933,1,0,0:0:0:0:
64,192,2239,1,8,0:0:0:0:
448,192,2239,1,0,0:0:0:0:
320,192,2392,1,2,0:0:0:0:
192,192,2545,1,2,0:0:0:0:
320,192,2852,1,8,0:0:0:0:
448,192,2852,1,0,0:0:0:0:
320,192,3158,1,8,0:0:0:0:
448,192,3158,1,0,0:0:0:0:
192,192,3311,1,2,0:0:0:0:
320,192,3464,1,2,0:0:0:0:
64,192,3617,1,8,0:0:0:0:
192,192,3617,1,4,0:0:0:0:
320,192,3923,1,2,0:0:0:0:
192,192,4076,1,2,0:0:0:0:
320,192,4382,1,8,0:0:0:0:
448,192,4382,1,0,0:0:0:0:
320,192,4688,1,8,0:0:0:0:
448,192,4688,1,0,0:0:0:0:
192,192,4841,1,2,0:0:0:0:
64,192,4994,1,2,0:0:0:0:
192,192,5301,1,8,0:0:0:0:
320,192,5301,1,0,0:0:0:0:
192,192,5607,1,8,0:0:0:0:
320,192,5607,1,0,0:0:0:0:
448,192,5760,1,2,0:0:0:0:
64,192,5913,1,2,0:0:0:0:
320,192,6066,1,8,0:0:0:0:
448,192,6066,1,4,0:0:0:0:
64,192,6219,1,8,0:0:0:0:
192,192,6219,1,4,0:0:0:0:
320,192,6372,1,2,0:0:0:0:
192,192,6525,1,2,0:0:0:0:
64,192,6831,1,8,0:0:0:0:
448,192,6831,1,0,0:0:0:0:
64,192,7137,1,8,0:0:0:0:
448,192,7137,1,0,0:0:0:0:
192,192,7290,1,2,0:0:0:0:
320,192,7443,1,2,0:0:0:0:
64,192,7750,1,8,0:0:0:0:
192,192,7750,1,0,0:0:0:0:
64,192,8056,1,8,0:0:0:0:
192,192,8056,1,0,0:0:0:0:
320,192,8209,1,2,0:0:0:0:
192,192,8362,1,2,0:0:0:0:
320,192,8515,1,8,0:0:0:0:
448,192,8515,1,4,0:0:0:0:
192,192,8821,1,2,0:0:0:0:
320,192,8974,1,2,0:0:0:0:
64,192,9280,1,8,0:0:0:0:
192,192,9280,1,0,0:0:0:0:
64,192,9586,1,8,0:0:0:0:
192,192,9586,1,0,0:0:0:0:
320,192,9739,1,2,0:0:0:0:
448,192,9892,1,2,0:0:0:0:
64,192,10198,1,8,0:0:0:0:
448,192,10198,1,0,0:0:0:0:
192,192,10505,1,8,0:0:0:0:
320,192,10505,1,0,0:0:0:0:
64,192,10658,1,8,0:0:0:0:
192,192,10734,1,8,0:0:0:0:
448,192,10811,1,8,0:0:0:0:
320,192,10887,1,8,0:0:0:0:
64,192,10964,1,0,0:0:0:40:Tom1.wav
192,192,11040,1,0,0:0:0:40:Tom1.wav
448,192,11117,1,0,0:0:0:40:Tom2.wav
320,192,11193,1,0,0:0:0:40:Tom3.wav
64,192,11270,1,2,0:0:0:0:
192,192,11270,1,0,0:0:0:60:Crash.wav
448,192,11423,1,6,0:0:0:0:
192,192,11729,1,8,0:0:0:0:
320,192,11729,1,0,0:0:0:0:
64,192,12035,1,8,0:0:0:0:
448,192,12035,1,0,0:0:0:0:
320,192,12188,1,2,0:0:0:0:
192,192,12341,1,2,0:0:0:0:
64,192,12494,1,0,0:0:0:28:Crash.wav
320,192,12647,1,8,0:0:0:0:
448,192,12647,1,0,0:0:0:0:
64,192,12954,1,8,0:0:0:0:
192,192,12954,1,0,0:0:0:0:
320,192,13107,1,2,0:0:0:0:
192,192,13260,1,2,0:0:0:0:
320,192,13413,1,8,0:0:0:0:
448,192,13413,1,4,0:0:0:0:
64,192,13719,1,2,0:0:0:0:
320,192,13872,1,2,0:0:0:0:
64,192,14178,1,8,0:0:0:0:
192,192,14178,1,0,0:0:0:0:
64,192,14484,1,8,0:0:0:0:
192,192,14484,1,0,0:0:0:0:
448,192,14637,1,2,0:0:0:0:
192,192,14790,1,2,0:0:0:0:
320,192,15096,1,8,0:0:0:0:
448,192,15096,1,0,0:0:0:0:
320,192,15403,1,8,0:0:0:0:
448,192,15403,1,0,0:0:0:0:
192,192,15556,1,2,0:0:0:0:
320,192,15709,1,2,0:0:0:0:
64,192,15862,1,8,0:0:0:0:
448,192,15862,1,4,0:0:0:0:
192,192,16015,1,8,0:0:0:0:
320,192,16015,1,4,0:0:0:0:
64,192,16168,1,2,0:0:0:0:
448,192,16321,1,2,0:0:0:0:
64,192,16627,1,8,0:0:0:0:
192,192,16627,1,0,0:0:0:0:
64,192,16933,1,8,0:0:0:0:
192,192,16933,1,0,0:0:0:0:
448,192,17086,1,2,0:0:0:0:
320,192,17239,1,2,0:0:0:0:
64,192,17545,1,8,0:0:0:0:
448,192,17545,1,0,0:0:0:0:
192,192,17852,1,8,0:0:0:0:
320,192,17852,1,0,0:0:0:0:
448,192,18005,1,8,0:0:0:0:
320,192,18081,1,8,0:0:0:0:
64,192,18158,1,8,0:0:0:0:
192,192,18234,1,8,0:0:0:0:
448,192,18311,1,0,0:0:0:40:Tom1.wav
320,192,18387,1,0,0:0:0:40:Tom1.wav
64,192,18464,1,0,0:0:0:40:Tom2.wav
192,192,18540,1,0,0:0:0:40:Tom3.wav
320,192,18617,1,2,0:0:0:0:
448,192,18617,1,0,0:0:0:60:Crash.wav
64,192,18770,1,6,0:0:0:0:
320,192,19076,1,8,0:0:0:0:
448,192,19076,1,0,0:0:0:0:
64,192,19382,1,8,0:0:0:0:
448,192,19382,1,0,0:0:0:0:
64,192,19688,1,2,0:0:0:0:
192,192,19688,1,0,0:0:0:45:Crash.wav
320,192,19688,1,0,0:0:0:0:
320,192,19994,1,8,0:0:0:0:
448,192,19994,1,0,0:0:0:0:
64,192,20301,1,8,0:0:0:0:
192,192,20301,1,0,0:0:0:0:
320,192,20454,1,0,0:0:0:40:Tom1.wav
192,192,20607,1,0,0:0:0:40:Tom1.wav
448,192,20760,1,0,0:0:0:40:Tom3.wav
64,192,20913,1,0,0:0:0:40:Tom3.wav
192,192,21066,1,2,0:0:0:0:
320,192,21066,1,4,0:0:0:0:
320,192,21219,1,2,0:0:0:0:
64,192,21372,1,0,0:0:0:0:
320,192,21525,1,8,0:0:0:0:
448,192,21525,128,0,21831:0:0:0:0:
64,192,21831,1,8,0:0:0:0:
192,192,21831,1,0,0:0:0:0:
320,192,21984,1,2,0:0:0:0:
320,192,22137,1,2,0:0:0:0:
192,192,22290,1,0,0:0:0:0:
64,192,22443,128,8,22750:0:0:0:0:
448,192,22443,1,0,0:0:0:0:
192,192,22750,1,8,0:0:0:0:
320,192,22750,1,0,0:0:0:0:
448,192,22903,1,2,0:0:0:0:
320,192,23056,1,2,0:0:0:0:
64,192,23209,1,8,0:0:0:0:
192,192,23209,1,0,0:0:0:0:
320,192,23515,1,2,0:0:0:0:
320,192,23668,1,2,0:0:0:0:
192,192,23821,1,0,0:0:0:0:
64,192,23974,1,8,0:0:0:0:
448,192,23974,128,0,24280:0:0:0:0:
192,192,24280,1,8,0:0:0:0:
320,192,24280,1,0,0:0:0:0:
64,192,24433,1,2,0:0:0:0:
64,192,24586,1,2,0:0:0:0:
448,192,24739,1,0,0:0:0:0:
192,192,24892,128,8,25198:0:0:0:0:
320,192,24892,1,0,0:0:0:0:
64,192,25198,1,8,0:0:0:0:
448,192,25198,1,0,0:0:0:0:
320,192,25352,1,2,0:0:0:0:
320,192,25505,1,2,0:0:0:0:
64,192,25658,1,8,0:0:0:0:
448,192,25658,1,0,0:0:0:0:
192,192,25811,1,8,0:0:0:0:
320,192,25811,1,0,0:0:0:0:
64,192,25964,1,2,0:0:0:0:
448,192,25964,1,4,0:0:0:0:
64,192,26117,1,2,0:0:0:0:
192,192,26270,1,0,0:0:0:0:
320,192,26423,128,8,26729:0:0:0:0:
448,192,26423,1,0,0:0:0:0:
64,192,26729,1,8,0:0:0:0:
192,192,26729,1,0,0:0:0:0:
448,192,26882,1,2,0:0:0:0:
448,192,27035,1,2,0:0:0:0:
192,192,27188,1,0,0:0:0:0:
64,192,27341,1,8,0:0:0:0:
320,192,27341,128,0,27647:0:0:0:0:
192,192,27647,1,8,0:0:0:0:
448,192,27647,1,0,0:0:0:0:
64,192,27801,1,2,0:0:0:0:
64,192,27954,1,2,0:0:0:0:
320,192,28107,1,8,0:0:0:0:
448,192,28107,1,0,0:0:0:0:
64,192,28413,1,2,0:0:0:0:
64,192,28566,1,2,0:0:0:0:
320,192,28719,1,0,0:0:0:0:
192,192,28872,128,8,29178:0:0:0:0:
448,192,28872,1,0,0:0:0:0:
64,192,29178,1,8,0:0:0:0:
320,192,29178,1,0,0:0:0:0:
448,192,29331,1,2,0:0:0:0:
448,192,29484,1,2,0:0:0:0:
320,192,29637,1,0,0:0:0:0:
64,192,29790,128,8,30096:0:0:0:0:
192,192,29790,1,0,0:0:0:0:
320,192,30096,1,8,0:0:0:0:
448,192,30096,1,0,0:0:0:0:
192,192,30250,1,2,0:0:0:0:
192,192,30403,1,2,0:0:0:0:
320,192,30556,1,8,0:0:0:0:
448,192,30556,128,0,30709:0:0:0:0:
64,192,30709,128,8,30862:0:0:0:0:
192,192,30709,1,0,0:0:0:0:
320,192,30862,1,2,0:0:0:0:
448,192,30862,1,4,0:0:0:0:
192,192,31015,1,2,0:0:0:0:
320,192,31168,1,0,0:0:0:0:
448,192,31321,1,8,0:0:0:0:
192,192,31474,1,0,0:0:0:0:
64,192,31627,1,8,0:0:0:0:
320,192,31780,1,2,0:0:0:0:
192,192,31933,1,2,0:0:0:0:
448,192,32086,1,0,0:0:0:0:
64,192,32239,1,8,0:0:0:0:
192,192,32392,1,0,0:0:0:0:
320,192,32545,1,8,0:0:0:0:
448,192,32698,1,2,0:0:0:0:
192,192,32852,1,2,0:0:0:0:
320,192,33005,1,8,0:0:0:0:
64,192,33158,1,0,0:0:0:0:
192,192,33311,1,2,0:0:0:0:
192,192,33464,1,2,0:0:0:0:
64,192,33617,1,0,0:0:0:0:
320,192,33770,1,8,0:0:0:0:
448,192,33770,128,0,34076:0:0:0:0:
64,192,34076,1,8,0:0:0:0:
192,192,34076,1,0,0:0:0:0:
320,192,34229,1,2,0:0:0:0:
320,192,34382,1,2,0:0:0:0:
192,192,34535,1,0,0:0:0:0:
64,192,34688,128,8,34994:0:0:0:0:
448,192,34688,1,0,0:0:0:0:
192,192,34994,1,8,0:0:0:0:
320,192,34994,1,0,0:0:0:0:
448,192,35147,1,2,0:0:0:0:
320,192,35301,1,2,0:0:0:0:
64,192,35454,1,8,0:0:0:0:
192,192,35454,1,0,0:0:0:0:
320,192,35607,1,8,0:0:0:0:
448,192,35607,1,0,0:0:0:0:
64,192,35760,1,2,0:0:0:0:
192,192,35760,1,4,0:0:0:0:
192,192,35913,1,2,0:0:0:0:
320,192,36066,1,0,0:0:0:0:
64,192,36219,1,8,0:0:0:0:
448,192,36219,128,0,36525:0:0:0:0:
192,192,36525,1,8,0:0:0:0:
320,192,36525,1,0,0:0:0:0:
64,192,36678,1,2,0:0:0:0:
64,192,36831,1,2,0:0:0:0:
448,192,36984,1,0,0:0:0:0:
192,192,37137,128,8,37443:0:0:0:0:
320,192,37137,1,0,0:0:0:0:
64,192,37443,1,8,0:0:0:0:
448,192,37443,1,0,0:0:0:0:
320,192,37596,1,2,0:0:0:0:
320,192,37750,1,2,0:0:0:0:
64,192,37903,1,8,0:0:0:0:
448,192,37903,1,0,0:0:0:0:
192,192,38209,1,2,0:0:0:0:
192,192,38362,1,2,0:0:0:0:
64,192,38515,1,0,0:0:0:0:
320,192,38668,128,8,38974:0:0:0:0:
448,192,38668,1,0,0:0:0:0:
64,192,38974,1,8,0:0:0:0:
192,192,38974,1,0,0:0:0:0:
448,192,39127,1,2,0:0:0:0:
448,192,39280,1,2,0:0:0:0:
192,192,39433,1,0,0:0:0:0:
64,192,39586,1,8,0:0:0:0:
448,192,39586,128,0,39892:0:0:0:0:
192,192,39892,1,8,0:0:0:0:
320,192,39892,1,0,0:0:0:0:
64,192,40045,128,2,40198:0:0:0:0:
448,192,40045,1,0,0:0:0:0:
320,192,40198,128,8,40352:0:0:0:0:
64,192,40352,1,2,0:0:0:0:
192,192,40352,128,8,40505:0:0:0:0:
448,192,40505,128,8,40658:0:0:0:0:
64,192,40658,128,2,41117:0:0:0:0:
192,192,40658,1,0,0:0:0:45:Crash.wav
320,192,41117,1,2,0:0:0:0:
448,192,41117,1,4,0:0:0:0:
64,192,41576,128,2,45556:0:0:0:0:
192,192,41576,1,0,0:0:0:45:Crash.wav
448,192,42494,1,0,0:0:0:85:Hat open.wav
448,192,43719,1,0,0:0:0:85:Hat open.wav
448,192,44943,1,0,0:0:0:85:Hat open.wav
320,192,45556,1,2,0:0:0:0:
448,192,45556,128,4,46015:0:0:0:0:
64,192,46015,1,2,0:0:0:0:
192,192,46015,1,0,0:0:0:45:Crash.wav
320,192,46474,1,2,0:0:0:0:
448,192,46474,128,4,48005:0:0:0:0:
192,192,47392,1,0,0:0:0:85:Hat open.wav
64,192,47698,1,0,0:0:0:40:Ride 2.wav
192,192,48005,1,2,0:0:0:0:
320,192,48005,1,4,0:0:0:0:
64,192,48311,128,10,48464:0:0:0:0:
320,192,48464,128,8,48617:0:0:0:0:
192,192,48617,128,10,48770:0:0:0:0:
448,192,48770,128,8,48923:0:0:0:0:
192,192,48923,128,10,49076:0:0:0:0:
320,192,49076,128,8,49229:0:0:0:0:
64,192,49229,1,2,0:0:0:0:
448,192,49229,1,0,0:0:0:40:Hat open.wav
64,192,50454,128,2,50760:0:0:0:0:
192,192,50454,1,4,0:0:0:0:
320,192,50760,1,8,0:0:0:0:
448,192,50760,1,0,0:0:0:0:
192,192,51066,1,2,0:0:0:0:
320,192,51219,1,2,0:0:0:0:
64,192,51372,1,8,0:0:0:0:
448,192,51372,1,0,0:0:0:0:
192,192,51525,1,2,0:0:0:0:
320,192,51831,1,2,0:0:0:0:
64,192,51984,1,8,0:0:0:0:
448,192,51984,1,0,0:0:0:0:
192,192,52137,1,2,0:0:0:0:
448,192,52290,1,2,0:0:0:0:
320,192,52443,1,2,0:0:0:0:
64,192,52596,1,8,0:0:0:0:
192,192,52596,1,0,0:0:0:0:
320,192,52750,1,2,0:0:0:0:
448,192,52903,128,2,53209:0:0:0:0:
64,192,53209,1,8,0:0:0:0:
192,192,53209,1,0,0:0:0:0:
320,192,53362,1,2,0:0:0:0:
64,192,53515,1,2,0:0:0:0:
192,192,53668,1,2,0:0:0:0:
320,192,53821,1,8,0:0:0:0:
448,192,53821,1,0,0:0:0:0:
64,192,53974,1,2,0:0:0:0:
320,192,54280,1,2,0:0:0:0:
64,192,54433,1,8,0:0:0:0:
192,192,54433,1,0,0:0:0:0:
448,192,54586,1,2,0:0:0:0:
192,192,54739,1,2,0:0:0:0:
320,192,54892,1,2,0:0:0:0:
64,192,55045,1,8,0:0:0:0:
192,192,55045,128,0,55198:0:0:0:0:
448,192,55198,128,8,55352:0:0:0:0:
64,192,55352,128,2,55658:0:0:0:0:
192,192,55352,1,0,0:0:0:25:Crash.wav
320,192,55658,1,8,0:0:0:0:
448,192,55658,1,0,0:0:0:30:Crash.wav
192,192,55811,1,2,0:0:0:0:
320,192,55964,1,2,0:0:0:0:
64,192,56117,1,2,0:0:0:0:
192,192,56270,1,8,0:0:0:0:
448,192,56270,1,0,0:0:0:0:
320,192,56423,1,2,0:0:0:0:
448,192,56729,1,2,0:0:0:0:
64,192,56882,1,8,0:0:0:0:
192,192,56882,1,0,0:0:0:0:
320,192,57035,1,2,0:0:0:0:
192,192,57188,1,2,0:0:0:0:
64,192,57341,1,2,0:0:0:0:
320,192,57494,1,8,0:0:0:0:
448,192,57494,1,0,0:0:0:0:
192,192,57647,1,2,0:0:0:0:
64,192,57801,128,2,58107:0:0:0:0:
320,192,58107,1,8,0:0:0:0:
448,192,58107,1,0,0:0:0:0:
192,192,58260,1,2,0:0:0:0:
320,192,58413,1,2,0:0:0:0:
64,192,58566,1,2,0:0:0:0:
192,192,58719,1,8,0:0:0:0:
448,192,58719,1,0,0:0:0:0:
320,192,58872,1,2,0:0:0:0:
192,192,59178,1,2,0:0:0:0:
320,192,59331,1,8,0:0:0:0:
448,192,59331,1,4,0:0:0:0:
64,192,59637,128,10,59790:0:0:0:0:
448,192,59790,128,8,59943:0:0:0:0:
192,192,59943,1,2,0:0:0:0:
320,192,59943,1,0,0:0:0:40:Hat open.wav
64,192,60250,1,8,0:0:0:0:
448,192,60250,1,4,0:0:0:0:
320,192,60403,1,2,0:0:0:0:
192,192,60556,1,2,0:0:0:0:
64,192,60709,1,8,0:0:0:0:
448,192,60709,1,0,0:0:0:40:Hat open.wav
320,192,60862,1,2,0:0:0:0:
192,192,61015,1,2,0:0:0:0:
320,192,61168,1,8,0:0:0:0:
448,192,61168,1,0,0:0:0:40:Hat open.wav
64,192,61321,1,2,0:0:0:0:
320,192,61474,1,2,0:0:0:0:
64,192,61627,1,8,0:0:0:0:
192,192,61627,1,0,0:0:0:40:Hat open.wav
448,192,61780,1,2,0:0:0:0:
192,192,61933,1,2,0:0:0:0:
320,192,62086,1,8,0:0:0:0:
448,192,62086,1,0,0:0:0:28:Crash.wav
64,192,62392,1,8,0:0:0:0:
448,192,62392,1,0,0:0:0:28:Crash.wav
64,192,62698,1,8,0:0:0:0:
192,192,62698,1,4,0:0:0:0:
448,192,62852,1,2,0:0:0:0:
192,192,63005,1,2,0:0:0:0:
320,192,63158,1,8,0:0:0:0:
448,192,63158,1,0,0:0:0:40:Hat open.wav
64,192,63311,1,2,0:0:0:0:
448,192,63464,1,2,0:0:0:0:
64,192,63617,1,8,0:0:0:0:
320,192,63617,1,0,0:0:0:40:Hat open.wav
192,192,63770,1,2,0:0:0:0:
448,192,63923,1,2,0:0:0:0:
192,192,64076,1,8,0:0:0:0:
320,192,64076,1,0,0:0:0:40:Hat open.wav
64,192,64229,1,2,0:0:0:0:
448,192,64382,1,2,0:0:0:0:
64,192,64535,128,0,64688:0:0:0:40:Tom1.wav
448,192,64688,128,0,64841:0:0:0:40:Tom3.wav
64,192,64841,1,8,0:0:0:0:
192,192,64841,1,0,0:0:0:60:Crash.wav
64,192,65147,1,6,0:0:0:0:
448,192,65454,128,10,65607:0:0:0:0:
192,192,65607,128,8,65760:0:0:0:0:
320,192,65760,128,10,65913:0:0:0:0:
64,192,65913,128,8,66066:0:0:0:0:
448,192,66066,128,10,66219:0:0:0:0:
320,192,66219,128,8,66372:0:0:0:0:
64,192,66372,1,2,0:0:0:0:
192,192,66372,1,4,0:0:0:0:
448,192,66678,128,10,66831:0:0:0:0:
192,192,66831,128,8,66984:0:0:0:0:
320,192,66984,128,10,67137:0:0:0:0:
64,192,67137,128,8,67290:0:0:0:0:
448,192,67290,128,10,67443:0:0:0:0:
192,192,67443,128,8,67596:0:0:0:0:
320,192,67596,1,2,0:0:0:0:
448,192,67596,1,0,0:0:0:60:Crash.wav
64,192,67903,1,8,0:0:0:0:
320,192,68056,1,8,0:0:0:0:
192,192,68209,1,8,0:0:0:0:
448,192,68362,1,8,0:0:0:0:
64,192,68515,1,8,0:0:0:0:
320,192,68668,1,8,0:0:0:0:
448,192,68668,1,0,0:0:0:40:Hat open.wav
320,192,70045,1,2,0:0:0:0:
448,192,70045,1,4,0:0:0:0:
192,192,70198,1,2,0:0:0:0:
64,192,70505,1,8,0:0:0:0:
448,192,70505,1,0,0:0:0:0:
64,192,70811,1,8,0:0:0:0:
448,192,70811,1,0,0:0:0:0:
320,192,70964,1,2,0:0:0:0:
192,192,71117,1,2,0:0:0:0:
320,192,71423,1,8,0:0:0:0:
448,192,71423,1,0,0:0:0:0:
320,192,71729,1,8,0:0:0:0:
448,192,71729,1,0,0:0:0:0:
192,192,71882,1,2,0:0:0:0:
320,192,72035,1,2,0:0:0:0:
64,192,72188,1,8,0:0:0:0:
192,192,72188,1,4,0:0:0:0:
448,192,72494,1,2,0:0:0:0:
192,192,72647,1,2,0:0:0:0:
320,192,72954,1,8,0:0:0:0:
448,192,72954,1,0,0:0:0:0:
320,192,73260,1,8,0:0:0:0:
448,192,73260,1,0,0:0:0:0:
64,192,73413,1,2,0:0:0:0:
320,192,73566,1,2,0:0:0:0:
64,192,73872,1,8,0:0:0:0:
192,192,73872,1,0,0:0:0:0:
64,192,74178,1,8,0:0:0:0:
192,192,74178,1,0,0:0:0:0:
320,192,74331,1,2,0:0:0:0:
192,192,74484,1,2,0:0:0:0:
64,192,74637,1,8,0:0:0:0:
448,192,74637,1,4,0:0:0:0:
192,192,74790,1,8,0:0:0:0:
320,192,74790,1,4,0:0:0:0:
448,192,74943,1,2,0:0:0:0:
64,192,75096,1,2,0:0:0:0:
320,192,75403,1,8,0:0:0:0:
448,192,75403,1,0,0:0:0:0:
320,192,75709,1,8,0:0:0:0:
448,192,75709,1,0,0:0:0:0:
192,192,75862,1,2,0:0:0:0:
64,192,76015,1,2,0:0:0:0:
192,192,76321,1,8,0:0:0:0:
448,192,76321,1,0,0:0:0:0:
192,192,76627,1,8,0:0:0:0:
448,192,76627,1,0,0:0:0:0:
320,192,76780,1,2,0:0:0:0:
64,192,76933,1,2,0:0:0:0:
320,192,77086,1,8,0:0:0:0:
448,192,77086,1,4,0:0:0:0:
64,192,77392,1,2,0:0:0:0:
320,192,77545,1,2,0:0:0:0:
64,192,77852,1,8,0:0:0:0:
448,192,77852,1,0,0:0:0:0:
64,192,78158,1,8,0:0:0:0:
448,192,78158,1,0,0:0:0:0:
192,192,78311,1,2,0:0:0:0:
320,192,78464,1,2,0:0:0:0:
64,192,78770,1,8,0:0:0:0:
192,192,78770,1,0,0:0:0:0:
64,192,79076,1,8,0:0:0:0:
192,192,79076,1,0,0:0:0:0:
320,192,79229,1,8,0:0:0:0:
448,192,79229,1,2,0:0:0:0:
64,192,79382,1,8,0:0:0:0:
448,192,79382,1,0,0:0:0:0:
192,192,79535,1,8,0:0:0:0:
320,192,79535,1,2,0:0:0:0:
64,192,79688,1,8,0:0:0:0:
192,192,79688,1,0,0:0:0:0:
320,192,79841,1,2,0:0:0:0:
448,192,79841,1,4,0:0:0:0:
192,192,79994,1,2,0:0:0:0:
64,192,80301,1,8,0:0:0:0:
320,192,80301,1,0,0:0:0:0:
64,192,80607,1,8,0:0:0:0:
320,192,80607,1,0,0:0:0:0:
448,192,80760,1,2,0:0:0:0:
192,192,80913,1,2,0:0:0:0:
320,192,81219,1,8,0:0:0:0:
448,192,81219,1,0,0:0:0:0:
320,192,81525,1,8,0:0:0:0:
448,192,81525,1,0,0:0:0:0:
192,192,81678,1,2,0:0:0:0:
320,192,81831,1,2,0:0:0:0:
64,192,81984,1,8,0:0:0:0:
448,192,81984,1,4,0:0:0:0:
192,192,82290,1,2,0:0:0:0:
320,192,82443,1,2,0:0:0:0:
64,192,82750,1,8,0:0:0:0:
448,192,82750,1,0,0:0:0:0:
64,192,83056,1,8,0:0:0:0:
448,192,83056,1,0,0:0:0:0:
192,192,83209,1,2,0:0:0:0:
320,192,83362,1,2,0:0:0:0:
64,192,83668,1,8,0:0:0:0:
192,192,83668,1,0,0:0:0:0:
64,192,83974,1,8,0:0:0:0:
192,192,83974,1,0,0:0:0:0:
320,192,84127,1,2,0:0:0:0:
192,192,84280,1,2,0:0:0:0:
320,192,84433,1,8,0:0:0:0:
448,192,84433,1,4,0:0:0:0:
64,192,84586,1,8,0:0:0:0:
192,192,84586,1,4,0:0:0:0:
448,192,84739,1,2,0:0:0:0:
320,192,84892,1,2,0:0:0:0:
64,192,85198,1,8,0:0:0:0:
192,192,85198,1,0,0:0:0:0:
64,192,85505,1,8,0:0:0:0:
192,192,85505,1,0,0:0:0:0:
448,192,85658,1,2,0:0:0:0:
192,192,85811,1,2,0:0:0:0:
320,192,86117,1,8,0:0:0:0:
448,192,86117,1,0,0:0:0:0:
320,192,86423,1,8,0:0:0:0:
448,192,86423,1,0,0:0:0:0:
64,192,86576,128,8,86729:0:0:0:0:
320,192,86729,128,8,86882:0:0:0:0:
192,192,86882,128,0,87035:0:0:0:40:Tom1.wav
448,192,87035,128,0,87188:0:0:0:40:Tom2.wav
64,192,87188,1,2,0:0:0:0:
192,192,87188,1,0,0:0:0:60:Crash.wav
320,192,87341,1,6,0:0:0:0:
64,192,87647,1,8,0:0:0:0:
448,192,87647,1,0,0:0:0:0:
192,192,87954,1,8,0:0:0:0:
320,192,87954,1,0,0:0:0:0:
64,192,88107,1,2,0:0:0:0:
320,192,88260,1,2,0:0:0:0:
448,192,88260,1,4,0:0:0:0:
64,192,88566,1,8,0:0:0:0:
448,192,88566,1,0,0:0:0:0:
64,192,88872,1,8,0:0:0:0:
192,192,88872,1,0,0:0:0:0:
448,192,89025,128,0,89178:0:0:0:40:Tom1.wav
192,192,89178,128,0,89331:0:0:0:40:Tom1.wav
320,192,89331,128,0,89484:0:0:0:40:Tom2.wav
64,192,89484,128,0,89637:0:0:0:40:Tom3.wav
320,192,89637,1,2,0:0:0:0:
448,192,89637,1,4,0:0:0:0:
192,192,89790,1,0,0:0:0:0:
448,192,90096,1,0,0:0:0:0:
448,192,90403,1,0,0:0:0:0:
64,192,90709,1,0,0:0:0:0:
64,192,91015,1,0,0:0:0:0:
