osu file format v14

[General]
AudioFilename: audio.ogg
AudioLeadIn: 0
PreviewTime: 107623
Countdown: 0
SampleSet: Soft
StackLeniency: 0.7
Mode: 3
LetterboxInBreaks: 0
SpecialStyle: 0
WidescreenStoryboard: 1

[Editor]
DistanceSpacing: 0.9
BeatDivisor: 4
GridSize: 16
TimelineZoom: 0.9999999

[Metadata]
Title:Sesshoku (Cut Ver.)
TitleUnicode:接触 (Cut Ver.)
Artist:THE ORAL CIGARETTES
ArtistUnicode:THE ORAL CIGARETTES
Creator:-[ Peachy ]-
Version:Normal
Source:
Tags:Syadow- toc Black Memory Before It's Too Late あきらかにあきら Akirakani Akira 山中拓也 Takuya Yamanaka 鈴木重伸 Shigenobu Suzuki 中西雅哉 Masaya Nakanishi japanese rock jrock j-rock short version
BeatmapID:2129229
BeatmapSetID:1017310

[Difficulty]
HPDrainRate:7
CircleSize:4
OverallDifficulty:7
ApproachRate:5
SliderMultiplier:1.4
SliderTickRate:1

[Events]
//Background and Video events
0,0,"BGmifuru.jpg",0,0
//Break Periods
//Storyboard Layer 0 (Background)
//Storyboard Layer 1 (Fail)
//Storyboard Layer 2 (Pass)
//Storyboard Layer 3 (Foreground)
//Storyboard Layer 4 (Overlay)
//Storyboard Sound Samples

[TimingPoints]
174,306.122448979592,4,2,1,50,1,0
60174,-100,4,2,1,50,0,1
78388,-100,4,2,1,50,0,0
109153,-100,4,2,1,50,0,1
122622,-100,4,2,1,50,0,0
123847,-100,4,2,1,50,0,1
142061,-100,4,2,1,50,0,0

[HitObjects]
448,192,174,5,0,0:0:0:0:
320,192,327,1,0,0:0:0:0:
192,192,633,1,0,0:0:0:0:
320,192,939,1,0,0:0:0:0:
192,192,1245,1,0,0:0:0:0:
64,192,1398,1,2,0:0:0:0:
448,192,1398,1,4,0:0:0:0:
320,192,1551,1,2,0:0:0:0:
64,192,1857,1,8,0:0:0:0:
192,192,1857,1,0,0:0:0:0:
448,192,2163,1,8,0:0:0:0:
192,192,2316,1,2,0:0:0:0:
64,192,2469,1,2,0:0:0:0:
192,192,2776,1,8,0:0:0:0:
320,192,2776,1,0,0:0:0:0:
448,192,3082,1,8,0:0:0:0:
320,192,3235,1,2,0:0:0:0:
192,192,3388,1,2,0:0:0:0:
320,192,3541,1,8,0:0:0:0:
448,192,3541,1,0,0:0:0:0:
64,192,3847,1,2,0:0:0:0:
320,192,4000,1,2,0:0:0:0:
192,192,4306,1,8,0:0:0:0:
448,192,4306,1,0,0:0:0:0:
64,192,4612,1,8,0:0:0:0:
192,192,4765,1,2,0:0:0:0:
320,192,4918,1,2,0:0:0:0:
64,192,5225,1,8,0:0:0:0:
192,192,5225,1,0,0:0:0:0:
448,192,5531,1,8,0:0:0:0:
320,192,5684,1,2,0:0:0:0:
192,192,5837,1,2,0:0:0:0:
448,192,5990,1,8,0:0:0:0:
64,192,6143,1,8,0:0:0:0:
320,192,6296,1,2,0:0:0:0:
192,192,6449,1,2,0:0:0:0:
64,192,6755,1,8,0:0:0:0:
320,192,6755,1,0,0:0:0:0:
448,192,7061,1,8,0:0:0:0:
320,192,7214,1,2,0:0:0:0:
192,192,7367,1,2,0:0:0:0:
64,192,7674,1,8,0:0:0:0:
448,192,7674,1,0,0:0:0:0:
192,192,7980,1,8,0:0:0:0:
320,192,8133,1,2,0:0:0:0:
192,192,8286,1,2,0:0:0:0:
320,192,8439,1,8,0:0:0:0:
448,192,8439,1,0,0:0:0:0:
192,192,8745,1,2,0:0:0:0:
320,192,8898,1,2,0:0:0:0:
64,192,9204,1,8,0:0:0:0:
192,192,9204,1,0,0:0:0:0:
448,192,9510,1,8,0:0:0:0:
192,192,9663,1,2,0:0:0:0:
64,192,9816,1,2,0:0:0:0:
192,192,10122,1,8,0:0:0:0:
448,192,10122,1,0,0:0:0:0:
64,192,10429,1,8,0:0:0:0:
192,192,10429,1,0,0:0:0:0:
448,192,10582,128,2,10888:0:0:0:0:
64,192,10888,128,2,11194:0:0:0:0:
320,192,11194,1,2,0:0:0:0:
448,192,11194,1,4,0:0:0:0:
192,192,11347,1,2,0:0:0:0:
64,192,11653,1,8,0:0:0:0:
448,192,11653,1,0,0:0:0:0:
192,192,11959,1,8,0:0:0:0:
448,192,12112,1,2,0:0:0:0:
64,192,12265,1,2,0:0:0:0:
320,192,12571,1,8,0:0:0:0:
448,192,12571,1,0,0:0:0:0:
64,192,12878,1,8,0:0:0:0:
192,192,13031,1,2,0:0:0:0:
320,192,13184,1,2,0:0:0:0:
64,192,13337,1,8,0:0:0:0:
448,192,13337,1,0,0:0:0:0:
192,192,13643,1,2,0:0:0:0:
64,192,13796,1,2,0:0:0:0:
320,192,14102,1,8,0:0:0:0:
448,192,14102,1,0,0:0:0:0:
64,192,14408,1,8,0:0:0:0:
320,192,14561,1,2,0:0:0:0:
448,192,14714,1,2,0:0:0:0:
192,192,15020,1,8,0:0:0:0:
320,192,15020,1,0,0:0:0:0:
64,192,15327,1,8,0:0:0:0:
192,192,15480,1,2,0:0:0:0:
320,192,15633,1,2,0:0:0:0:
448,192,15786,1,8,0:0:0:0:
448,192,15939,1,8,0:0:0:0:
192,192,16092,1,2,0:0:0:0:
64,192,16245,1,2,0:0:0:0:
320,192,16551,1,8,0:0:0:0:
448,192,16551,1,0,0:0:0:0:
64,192,16857,1,8,0:0:0:0:
192,192,17010,1,2,0:0:0:0:
320,192,17163,1,2,0:0:0:0:
64,192,17469,1,8,0:0:0:0:
192,192,17469,1,0,0:0:0:0:
448,192,17776,1,8,0:0:0:0:
320,192,17929,1,2,0:0:0:0:
192,192,18082,1,2,0:0:0:0:
64,192,18235,1,8,0:0:0:0:
448,192,18235,1,0,0:0:0:0:
320,192,18541,1,2,0:0:0:0:
192,192,18694,1,2,0:0:0:0:
320,192,19000,1,8,0:0:0:0:
448,192,19000,1,0,0:0:0:0:
64,192,19306,1,8,0:0:0:0:
320,192,19459,1,2,0:0:0:0:
192,192,19612,1,2,0:0:0:0:
64,192,19918,1,8,0:0:0:0:
448,192,19918,1,0,0:0:0:0:
320,192,20225,1,8,0:0:0:0:
64,192,20378,1,8,0:0:0:0:
192,192,20531,1,8,0:0:0:0:
320,192,20684,1,8,0:0:0:0:
448,192,20837,1,8,0:0:0:0:
64,192,20990,1,4,0:0:0:0:
192,192,20990,1,2,0:0:0:0:
320,192,21143,1,2,0:0:0:0:
64,192,21449,1,8,0:0:0:0:
448,192,21449,1,0,0:0:0:0:
320,192,21755,1,8,0:0:0:0:
192,192,21908,1,2,0:0:0:0:
64,192,22061,1,2,0:0:0:0:
192,192,22367,1,8,0:0:0:0:
448,192,22367,1,0,0:0:0:0:
64,192,22674,1,8,0:0:0:0:
192,192,22827,1,2,0:0:0:0:
320,192,22980,1,2,0:0:0:0:
64,192,23133,1,8,0:0:0:0:
448,192,23133,1,0,0:0:0:0:
320,192,23439,1,2,0:0:0:0:
448,192,23592,1,2,0:0:0:0:
64,192,23898,1,8,0:0:0:0:
192,192,23898,1,0,0:0:0:0:
448,192,24204,1,8,0:0:0:0:
192,192,24357,1,2,0:0:0:0:
64,192,24510,1,2,0:0:0:0:
192,192,24816,1,8,0:0:0:0:
320,192,24816,1,0,0:0:0:0:
64,192,25122,1,8,0:0:0:0:
320,192,25276,1,2,0:0:0:0:
192,192,25429,1,2,0:0:0:0:
448,192,25582,1,8,0:0:0:0:
448,192,25735,1,8,0:0:0:0:
64,192,25888,1,2,0:0:0:0:
320,192,26041,1,2,0:0:0:0:
192,192,26347,1,8,0:0:0:0:
448,192,26347,1,0,0:0:0:0:
64,192,26653,1,8,0:0:0:0:
192,192,26806,1,2,0:0:0:0:
320,192,26959,1,2,0:0:0:0:
320,192,27265,1,8,0:0:0:0:
448,192,27265,1,0,0:0:0:0:
64,192,27571,1,8,0:0:0:0:
192,192,27571,1,0,0:0:0:0:
320,192,27725,128,2,28031:0:0:0:0:
192,192,28031,128,2,28337:0:0:0:0:
64,192,28337,1,4,0:0:0:0:
448,192,28337,1,2,0:0:0:0:
320,192,28490,1,2,0:0:0:0:
64,192,28796,1,8,0:0:0:0:
192,192,28796,1,0,0:0:0:0:
64,192,29102,1,8,0:0:0:0:
448,192,29102,1,0,0:0:0:0:
192,192,29408,1,4,0:0:0:0:
320,192,29408,1,8,0:0:0:0:
320,192,29714,1,8,0:0:0:0:
448,192,29714,1,0,0:0:0:0:
64,192,30020,1,2,0:0:0:0:
192,192,30020,1,0,0:0:0:0:
448,192,30174,1,2,0:0:0:0:
320,192,30327,1,2,0:0:0:0:
192,192,30480,1,2,0:0:0:0:
64,192,30633,1,2,0:0:0:0:
320,192,30786,1,4,0:0:0:0:
448,192,30786,1,2,0:0:0:0:
192,192,30939,1,2,0:0:0:0:
448,192,31245,1,8,0:0:0:0:
192,192,31551,1,8,0:0:0:0:
320,192,31704,1,2,0:0:0:0:
448,192,31857,1,2,0:0:0:0:
64,192,32163,1,8,0:0:0:0:
320,192,32469,1,8,0:0:0:0:
192,192,32622,1,2,0:0:0:0:
64,192,32776,1,2,0:0:0:0:
448,192,32929,1,8,0:0:0:0:
64,192,33235,1,2,0:0:0:0:
192,192,33388,1,2,0:0:0:0:
320,192,33694,1,8,0:0:0:0:
64,192,34000,1,8,0:0:0:0:
320,192,34153,1,2,0:0:0:0:
192,192,34306,1,2,0:0:0:0:
448,192,34612,1,8,0:0:0:0:
64,192,34918,1,8,0:0:0:0:
448,192,35071,1,2,0:0:0:0:
320,192,35225,1,2,0:0:0:0:
64,192,35378,1,8,0:0:0:0:
64,192,35531,1,8,0:0:0:0:
320,192,35684,1,2,0:0:0:0:
448,192,35684,1,4,0:0:0:0:
192,192,35837,1,2,0:0:0:0:
448,192,36143,1,8,0:0:0:0:
192,192,36449,1,8,0:0:0:0:
64,192,36602,1,2,0:0:0:0:
320,192,36755,1,2,0:0:0:0:
448,192,37061,1,8,0:0:0:0:
64,192,37367,1,8,0:0:0:0:
320,192,37520,1,2,0:0:0:0:
192,192,37674,1,2,0:0:0:0:
448,192,37827,1,8,0:0:0:0:
64,192,38133,1,2,0:0:0:0:
448,192,38286,1,2,0:0:0:0:
192,192,38592,1,8,0:0:0:0:
192,192,38898,1,8,0:0:0:0:
448,192,39051,1,2,0:0:0:0:
320,192,39204,1,2,0:0:0:0:
64,192,39510,1,8,0:0:0:0:
448,192,39816,1,8,0:0:0:0:
320,192,39969,1,2,0:0:0:0:
192,192,40122,1,2,0:0:0:0:
64,192,40276,128,8,40582:0:0:0:0:
320,192,40582,1,2,0:0:0:0:
448,192,40582,1,4,0:0:0:0:
192,192,40735,1,2,0:0:0:0:
448,192,41041,1,8,0:0:0:0:
448,192,41347,1,8,0:0:0:0:
320,192,41500,1,2,0:0:0:0:
192,192,41653,1,2,0:0:0:0:
64,192,41959,1,8,0:0:0:0:
448,192,42265,1,8,0:0:0:0:
192,192,42418,1,2,0:0:0:0:
320,192,42571,1,2,0:0:0:0:
448,192,42725,1,8,0:0:0:0:
64,192,43031,1,2,0:0:0:0:
192,192,43184,1,2,0:0:0:0:
320,192,43490,1,8,0:0:0:0:
320,192,43796,1,8,0:0:0:0:
448,192,43949,1,2,0:0:0:0:
192,192,44102,1,2,0:0:0:0:
64,192,44408,1,8,0:0:0:0:
320,192,44714,1,8,0:0:0:0:
64,192,44867,1,2,0:0:0:0:
448,192,45020,1,2,0:0:0:0:
320,192,45174,1,8,0:0:0:0:
320,192,45327,1,8,0:0:0:0:
64,192,45480,1,2,0:0:0:0:
192,192,45480,1,4,0:0:0:0:
448,192,45633,1,2,0:0:0:0:
64,192,45939,1,8,0:0:0:0:
64,192,46245,1,8,0:0:0:0:
320,192,46398,1,2,0:0:0:0:
448,192,46551,1,2,0:0:0:0:
64,192,46857,1,8,0:0:0:0:
448,192,47163,1,8,0:0:0:0:
320,192,47316,1,2,0:0:0:0:
192,192,47469,1,2,0:0:0:0:
448,192,47622,1,8,0:0:0:0:
64,192,47929,1,2,0:0:0:0:
320,192,48082,1,2,0:0:0:0:
192,192,48388,1,8,0:0:0:0:
64,192,48694,1,8,0:0:0:0:
320,192,48847,1,2,0:0:0:0:
448,192,49000,1,2,0:0:0:0:
448,192,49306,1,8,0:0:0:0:
64,192,49612,1,8,0:0:0:0:
448,192,49765,128,2,50071:0:0:0:0:
64,192,50071,128,2,50378:0:0:0:0:
320,192,50378,1,2,0:0:0:0:
448,192,50378,128,4,50837:0:0:0:0:
192,192,50837,1,2,0:0:0:0:
64,192,50837,1,4,0:0:0:0:
320,192,51296,1,2,0:0:0:0:
448,192,51296,128,4,55276:0:0:0:0:
64,192,52214,1,4,0:0:0:0:
64,192,53439,1,4,0:0:0:0:
64,192,54663,1,4,0:0:0:0:
192,192,55276,1,2,0:0:0:0:
320,192,55276,128,4,55735:0:0:0:0:
64,192,55735,1,2,0:0:0:0:
448,192,55735,1,4,0:0:0:0:
64,192,56194,128,2,57725:0:0:0:0:
192,192,56194,1,4,0:0:0:0:
448,192,57112,1,4,0:0:0:0:
192,192,57418,1,0,0:0:0:0:
320,192,57725,1,2,0:0:0:0:
448,192,57725,1,4,0:0:0:0:
192,192,58031,1,10,0:0:0:0:
64,192,58184,1,8,0:0:0:0:
320,192,58337,1,10,0:0:0:0:
192,192,58490,1,8,0:0:0:0:
64,192,58643,1,10,0:0:0:0:
448,192,58796,1,8,0:0:0:0:
192,192,58949,1,2,0:0:0:0:
320,192,58949,1,0,0:0:0:0:
64,192,60174,1,4,0:0:0:0:
192,192,60174,1,2,0:0:0:0:
320,192,60327,1,2,0:0:0:0:
192,192,60480,1,8,0:0:0:0:
448,192,60480,1,0,0:0:0:0:
64,192,60786,1,2,0:0:0:0:
192,192,60939,1,2,0:0:0:0:
320,192,61092,1,8,0:0:0:0:
448,192,61092,1,0,0:0:0:0:
192,192,61398,1,2,0:0:0:0:
320,192,61551,1,2,0:0:0:0:
64,192,61704,1,8,0:0:0:0:
192,192,61704,1,0,0:0:0:0:
320,192,62010,1,2,0:0:0:0:
448,192,62163,1,2,0:0:0:0:
64,192,62316,1,8,0:0:0:0:
320,192,62316,1,0,0:0:0:0:
192,192,62622,1,2,0:0:0:0:
320,192,62776,1,2,0:0:0:0:
64,192,62929,1,8,0:0:0:0:
448,192,62929,1,0,0:0:0:0:
192,192,63235,1,2,0:0:0:0:
64,192,63388,1,2,0:0:0:0:
320,192,63541,1,8,0:0:0:0:
448,192,63541,1,0,0:0:0:0:
192,192,63847,1,2,0:0:0:0:
320,192,64000,1,2,0:0:0:0:
192,192,64153,1,8,0:0:0:0:
448,192,64153,1,0,0:0:0:0:
64,192,64459,1,2,0:0:0:0:
64,192,64612,1,2,0:0:0:0:
448,192,64765,128,8,65071:0:0:0:0:
64,192,65071,1,2,0:0:0:0:
192,192,65071,1,4,0:0:0:0:
64,192,65378,1,8,0:0:0:0:
448,192,65378,1,4,0:0:0:0:
320,192,65684,1,2,0:0:0:0:
192,192,65837,1,2,0:0:0:0:
64,192,65990,1,8,0:0:0:0:
320,192,65990,1,0,0:0:0:0:
448,192,66296,1,2,0:0:0:0:
64,192,66449,1,2,0:0:0:0:
192,192,66602,1,8,0:0:0:0:
320,192,66602,1,0,0:0:0:0:
64,192,66908,1,2,0:0:0:0:
192,192,67061,1,2,0:0:0:0:
320,192,67214,1,8,0:0:0:0:
448,192,67214,1,0,0:0:0:0:
192,192,67520,1,2,0:0:0:0:
448,192,67674,1,2,0:0:0:0:
64,192,67827,1,8,0:0:0:0:
320,192,67827,1,0,0:0:0:0:
448,192,68133,1,2,0:0:0:0:
320,192,68286,1,2,0:0:0:0:
64,192,68439,1,8,0:0:0:0:
192,192,68439,1,0,0:0:0:0:
320,192,68745,1,2,0:0:0:0:
192,192,68898,1,2,0:0:0:0:
320,192,69051,1,8,0:0:0:0:
448,192,69051,1,4,0:0:0:0:
64,192,69357,128,8,69663:0:0:0:0:
448,192,69663,1,2,0:0:0:0:
64,192,69969,1,8,0:0:0:0:
192,192,69969,1,4,0:0:0:0:
64,192,70429,1,8,0:0:0:0:
320,192,70429,1,0,0:0:0:0:
192,192,70888,1,8,0:0:0:0:
320,192,70888,1,0,0:0:0:0:
192,192,71347,1,8,0:0:0:0:
448,192,71347,1,0,0:0:0:0:
64,192,71806,1,4,0:0:0:0:
448,192,71806,1,8,0:0:0:0:
64,192,72112,1,4,0:0:0:0:
448,192,72112,1,8,0:0:0:0:
192,192,72418,1,8,0:0:0:0:
320,192,72418,1,4,0:0:0:0:
64,192,72878,1,8,0:0:0:0:
192,192,72878,1,0,0:0:0:0:
320,192,73337,1,8,0:0:0:0:
448,192,73337,1,0,0:0:0:0:
64,192,73796,1,8,0:0:0:0:
448,192,73796,1,0,0:0:0:0:
192,192,74255,128,2,74561:0:0:0:0:
320,192,74561,1,2,0:0:0:0:
448,192,74561,1,4,0:0:0:0:
64,192,74867,1,4,0:0:0:0:
192,192,74867,1,2,0:0:0:0:
448,192,75174,128,10,75480:0:0:0:0:
64,192,75480,128,10,75786:0:0:0:0:
320,192,75786,128,10,76092:0:0:0:0:
448,192,76092,1,6,0:0:0:0:
64,192,76092,1,0,0:0:0:0:
192,192,76398,128,10,76704:0:0:0:0:
320,192,76704,128,10,77010:0:0:0:0:
448,192,77010,128,10,77316:0:0:0:0:
192,192,77316,1,4,0:0:0:0:
320,192,77316,1,2,0:0:0:0:
64,192,77622,1,2,0:0:0:0:
64,192,77776,1,2,0:0:0:0:
448,192,77929,1,2,0:0:0:0:
448,192,78082,1,2,0:0:0:0:
448,192,78235,1,2,0:0:0:0:
192,192,78388,1,8,0:0:0:0:
320,192,78388,1,0,0:0:0:0:
64,192,79765,1,2,0:0:0:0:
448,192,79765,1,4,0:0:0:0:
192,192,79918,1,2,0:0:0:0:
320,192,80225,1,8,0:0:0:0:
448,192,80225,1,0,0:0:0:0:
64,192,80531,1,8,0:0:0:0:
192,192,80531,1,0,0:0:0:0:
320,192,80684,1,2,0:0:0:0:
448,192,80837,1,2,0:0:0:0:
192,192,81143,1,8,0:0:0:0:
320,192,81143,1,0,0:0:0:0:
64,192,81449,1,8,0:0:0:0:
448,192,81449,1,0,0:0:0:0:
192,192,81602,1,2,0:0:0:0:
320,192,81755,1,2,0:0:0:0:
64,192,81908,1,0,0:0:0:0:
448,192,81908,1,8,0:0:0:0:
320,192,82214,1,2,0:0:0:0:
192,192,82367,1,2,0:0:0:0:
64,192,82674,1,8,0:0:0:0:
448,192,82674,1,0,0:0:0:0:
192,192,82980,1,8,0:0:0:0:
320,192,82980,1,0,0:0:0:0:
448,192,83133,1,2,0:0:0:0:
320,192,83286,1,2,0:0:0:0:
64,192,83592,1,8,0:0:0:0:
192,192,83592,1,0,0:0:0:0:
448,192,83898,1,8,0:0:0:0:
320,192,84051,1,2,0:0:0:0:
192,192,84204,1,2,0:0:0:0:
320,192,84357,1,8,0:0:0:0:
448,192,84357,1,0,0:0:0:0:
64,192,84510,1,0,0:0:0:0:
192,192,84510,1,8,0:0:0:0:
448,192,84663,1,2,0:0:0:0:
320,192,84816,1,2,0:0:0:0:
192,192,85122,1,8,0:0:0:0:
64,192,85122,1,0,0:0:0:0:
448,192,85429,1,0,0:0:0:0:
320,192,85429,1,8,0:0:0:0:
64,192,85582,1,2,0:0:0:0:
192,192,85735,1,2,0:0:0:0:
448,192,86041,1,8,0:0:0:0:
64,192,86041,1,0,0:0:0:0:
320,192,86347,1,8,0:0:0:0:
192,192,86347,1,0,0:0:0:0:
64,192,86500,1,2,0:0:0:0:
192,192,86653,1,2,0:0:0:0:
448,192,86806,1,8,0:0:0:0:
320,192,86806,1,0,0:0:0:0:
192,192,87112,1,2,0:0:0:0:
64,192,87265,1,2,0:0:0:0:
448,192,87571,1,8,0:0:0:0:
192,192,87571,1,0,0:0:0:0:
64,192,87878,1,8,0:0:0:0:
320,192,87878,1,0,0:0:0:0:
192,192,88031,1,2,0:0:0:0:
320,192,88184,1,2,0:0:0:0:
448,192,88490,1,8,0:0:0:0:
64,192,88490,1,0,0:0:0:0:
192,192,88796,1,8,0:0:0:0:
320,192,88796,1,0,0:0:0:0:
448,192,88949,128,8,89255:0:0:0:0:
64,192,89255,128,2,89561:0:0:0:0:
320,192,89561,128,4,90020:0:0:0:0:
448,192,89561,1,0,0:0:0:0:
192,192,90020,128,0,90480:0:0:0:0:
448,192,90480,128,0,91704:0:0:0:0:
64,192,91704,128,0,92010:0:0:0:0:
320,192,92010,128,0,92469:0:0:0:0:
192,192,92469,128,0,92929:0:0:0:0:
448,192,92929,128,0,94153:0:0:0:0:
192,192,93541,1,2,0:0:0:0:
64,192,93847,1,2,0:0:0:0:
320,192,94153,1,2,0:0:0:0:
64,192,94459,128,4,94918:0:0:0:0:
448,192,94459,1,0,0:0:0:0:
192,192,94918,128,0,95378:0:0:0:0:
448,192,95378,128,0,96602:0:0:0:0:
320,192,96908,128,0,97367:0:0:0:0:
192,192,97367,128,0,97827:0:0:0:0:
448,192,97827,128,0,98133:0:0:0:0:
64,192,98133,128,4,98439:0:0:0:0:
320,192,98439,1,2,0:0:0:0:
448,192,98745,1,2,0:0:0:0:
192,192,99051,1,2,0:0:0:0:
64,192,99357,1,4,0:0:0:0:
448,192,99357,128,2,101500:0:0:0:0:
320,192,99663,1,2,0:0:0:0:
192,192,99969,1,2,0:0:0:0:
64,192,100276,1,2,0:0:0:0:
320,192,100582,1,2,0:0:0:0:
64,192,100888,1,2,0:0:0:0:
320,192,101194,1,2,0:0:0:0:
64,192,101500,1,8,0:0:0:0:
192,192,101500,1,0,0:0:0:0:
320,192,101806,128,2,103031:0:0:0:0:
448,192,101806,1,4,0:0:0:0:
192,192,102112,1,2,0:0:0:0:
64,192,102418,1,2,0:0:0:0:
448,192,102725,1,2,0:0:0:0:
192,192,103031,128,2,103949:0:0:0:0:
64,192,103337,1,2,0:0:0:0:
320,192,103643,1,8,0:0:0:0:
448,192,103643,1,0,0:0:0:0:
320,192,103949,1,8,0:0:0:0:
448,192,103949,1,0,0:0:0:0:
64,192,104255,128,4,104561:0:0:0:0:
192,192,104255,1,2,0:0:0:0:
448,192,104561,128,10,104867:0:0:0:0:
192,192,104867,128,10,105174:0:0:0:0:
320,192,105174,128,10,105480:0:0:0:0:
448,192,105480,128,10,105786:0:0:0:0:
64,192,105786,128,10,106092:0:0:0:0:
320,192,106092,128,10,106398:0:0:0:0:
192,192,106398,128,10,106704:0:0:0:0:
64,192,106704,128,10,107010:0:0:0:0:
448,192,107010,128,10,107316:0:0:0:0:
192,192,107316,128,10,107622:0:0:0:0:
320,192,107622,128,10,107929:0:0:0:0:
64,192,107929,1,2,0:0:0:0:
64,192,109153,1,2,0:0:0:0:
448,192,109153,1,4,0:0:0:0:
320,192,109306,1,2,0:0:0:0:
64,192,109459,1,8,0:0:0:0:
192,192,109459,1,0,0:0:0:0:
320,192,109765,1,2,0:0:0:0:
64,192,109918,1,2,0:0:0:0:
192,192,110071,1,8,0:0:0:0:
448,192,110071,1,0,0:0:0:0:
64,192,110378,1,2,0:0:0:0:
192,192,110531,1,2,0:0:0:0:
320,192,110684,1,8,0:0:0:0:
448,192,110684,1,0,0:0:0:0:
192,192,110990,1,2,0:0:0:0:
448,192,111143,1,2,0:0:0:0:
64,192,111296,1,8,0:0:0:0:
320,192,111296,1,0,0:0:0:0:
448,192,111602,1,2,0:0:0:0:
320,192,111755,1,2,0:0:0:0:
64,192,111908,1,8,0:0:0:0:
192,192,111908,1,0,0:0:0:0:
448,192,112214,1,2,0:0:0:0:
64,192,112367,1,2,0:0:0:0:
192,192,112520,1,8,0:0:0:0:
320,192,112520,1,0,0:0:0:0:
64,192,112827,1,2,0:0:0:0:
192,192,112980,1,2,0:0:0:0:
64,192,113133,1,8,0:0:0:0:
320,192,113133,1,0,0:0:0:0:
448,192,113439,1,2,0:0:0:0:
448,192,113592,1,2,0:0:0:0:
64,192,113745,128,8,114051:0:0:0:0:
320,192,114051,1,4,0:0:0:0:
448,192,114051,1,2,0:0:0:0:
192,192,114204,1,2,0:0:0:0:
64,192,114357,1,4,0:0:0:0:
320,192,114357,1,8,0:0:0:0:
448,192,114663,1,2,0:0:0:0:
64,192,114816,1,2,0:0:0:0:
192,192,114969,1,8,0:0:0:0:
320,192,114969,1,0,0:0:0:0:
448,192,115276,1,2,0:0:0:0:
320,192,115429,1,2,0:0:0:0:
64,192,115582,1,8,0:0:0:0:
192,192,115582,1,0,0:0:0:0:
320,192,115888,1,2,0:0:0:0:
192,192,116041,1,2,0:0:0:0:
64,192,116194,1,8,0:0:0:0:
448,192,116194,1,0,0:0:0:0:
192,192,116500,1,2,0:0:0:0:
320,192,116653,1,2,0:0:0:0:
192,192,116806,1,8,0:0:0:0:
448,192,116806,1,0,0:0:0:0:
64,192,117112,1,2,0:0:0:0:
448,192,117265,1,2,0:0:0:0:
192,192,117418,1,8,0:0:0:0:
320,192,117418,1,0,0:0:0:0:
448,192,117725,1,2,0:0:0:0:
320,192,117878,1,2,0:0:0:0:
64,192,118031,1,8,0:0:0:0:
192,192,118031,1,4,0:0:0:0:
320,192,118337,128,2,118643:0:0:0:0:
192,192,118643,1,8,0:0:0:0:
64,192,118949,1,4,0:0:0:0:
448,192,118949,1,2,0:0:0:0:
192,192,119408,1,8,0:0:0:0:
320,192,119408,1,2,0:0:0:0:
64,192,119867,1,8,0:0:0:0:
320,192,119867,1,2,0:0:0:0:
192,192,120327,1,8,0:0:0:0:
448,192,120327,1,2,0:0:0:0:
320,192,120633,1,2,0:0:0:0:
64,192,120786,1,8,0:0:0:0:
192,192,120786,1,2,0:0:0:0:
320,192,121092,1,2,0:0:0:0:
448,192,121092,1,8,0:0:0:0:
64,192,121398,1,4,0:0:0:0:
192,192,121398,1,0,0:0:0:0:
448,192,121704,1,2,0:0:0:0:
448,192,121857,1,2,0:0:0:0:
64,192,122010,1,2,0:0:0:0:
64,192,122163,1,2,0:0:0:0:
192,192,122316,1,2,0:0:0:0:
320,192,122469,1,2,0:0:0:0:
448,192,122622,128,2,122929:0:0:0:0:
320,192,122929,128,2,123235:0:0:0:0:
64,192,123235,128,10,123541:0:0:0:0:
192,192,123541,128,10,123847:0:0:0:0:
320,192,123847,1,2,0:0:0:0:
448,192,123847,1,4,0:0:0:0:
192,192,124000,1,2,0:0:0:0:
64,192,124153,1,8,0:0:0:0:
320,192,124153,1,0,0:0:0:0:
192,192,124459,1,2,0:0:0:0:
64,192,124612,1,2,0:0:0:0:
192,192,124765,1,8,0:0:0:0:
320,192,124765,1,0,0:0:0:0:
64,192,125071,1,2,0:0:0:0:
192,192,125225,1,2,0:0:0:0:
320,192,125378,1,8,0:0:0:0:
448,192,125378,1,0,0:0:0:0:
192,192,125684,1,2,0:0:0:0:
448,192,125837,1,2,0:0:0:0:
64,192,125990,1,8,0:0:0:0:
320,192,125990,1,0,0:0:0:0:
192,192,126296,1,2,0:0:0:0:
320,192,126449,1,2,0:0:0:0:
64,192,126602,1,8,0:0:0:0:
448,192,126602,1,0,0:0:0:0:
192,192,126908,1,2,0:0:0:0:
64,192,127061,1,2,0:0:0:0:
320,192,127214,1,8,0:0:0:0:
448,192,127214,1,0,0:0:0:0:
64,192,127520,1,2,0:0:0:0:
320,192,127674,1,2,0:0:0:0:
64,192,127827,1,8,0:0:0:0:
192,192,127827,1,0,0:0:0:0:
448,192,128133,1,2,0:0:0:0:
448,192,128286,1,2,0:0:0:0:
64,192,128439,128,8,128745:0:0:0:0:
448,192,128745,1,4,0:0:0:0:
192,192,128745,1,2,0:0:0:0:
320,192,128898,1,2,0:0:0:0:
64,192,129051,1,4,0:0:0:0:
448,192,129051,1,8,0:0:0:0:
320,192,129357,1,2,0:0:0:0:
192,192,129510,1,2,0:0:0:0:
320,192,129663,1,0,0:0:0:0:
64,192,129663,1,8,0:0:0:0:
448,192,129969,1,2,0:0:0:0:
320,192,130122,1,2,0:0:0:0:
64,192,130276,1,8,0:0:0:0:
192,192,130276,1,0,0:0:0:0:
320,192,130582,1,2,0:0:0:0:
448,192,130735,1,2,0:0:0:0:
192,192,130888,1,8,0:0:0:0:
320,192,130888,1,0,0:0:0:0:
448,192,131194,1,2,0:0:0:0:
320,192,131347,1,2,0:0:0:0:
64,192,131500,1,8,0:0:0:0:
192,192,131500,1,0,0:0:0:0:
320,192,131806,1,2,0:0:0:0:
192,192,131959,1,2,0:0:0:0:
320,192,132112,1,8,0:0:0:0:
448,192,132112,1,0,0:0:0:0:
192,192,132418,1,2,0:0:0:0:
320,192,132571,1,2,0:0:0:0:
64,192,132725,1,4,0:0:0:0:
448,192,132725,1,8,0:0:0:0:
320,192,133031,128,10,133337:0:0:0:0:
192,192,133337,1,2,0:0:0:0:
64,192,133643,1,4,0:0:0:0:
448,192,133643,1,2,0:0:0:0:
192,192,134102,1,8,0:0:0:0:
448,192,134102,1,2,0:0:0:0:
64,192,134561,1,8,0:0:0:0:
320,192,134561,1,2,0:0:0:0:
192,192,135020,1,8,0:0:0:0:
320,192,135020,1,2,0:0:0:0:
64,192,135480,1,10,0:0:0:0:
448,192,135480,1,4,0:0:0:0:
64,192,135786,1,10,0:0:0:0:
448,192,135786,1,4,0:0:0:0:
192,192,136092,1,4,0:0:0:0:
320,192,136092,1,8,0:0:0:0:
64,192,136551,1,8,0:0:0:0:
320,192,136551,1,2,0:0:0:0:
192,192,137010,1,8,0:0:0:0:
448,192,137010,1,2,0:0:0:0:
64,192,137469,1,8,0:0:0:0:
192,192,137469,1,2,0:0:0:0:
320,192,137776,1,2,0:0:0:0:
64,192,137929,128,2,138235:0:0:0:0:
320,192,138235,1,4,0:0:0:0:
448,192,138235,1,2,0:0:0:0:
64,192,138541,1,2,0:0:0:0:
192,192,138541,1,4,0:0:0:0:
320,192,138847,128,10,139153:0:0:0:0:
192,192,139153,128,10,139459:0:0:0:0:
64,192,139459,128,10,139765:0:0:0:0:
320,192,139765,1,4,0:0:0:0:
448,192,139765,1,2,0:0:0:0:
192,192,140071,128,10,140378:0:0:0:0:
320,192,140378,128,10,140684:0:0:0:0:
448,192,140684,128,10,140990:0:0:0:0:
64,192,140990,1,2,0:0:0:0:
192,192,140990,1,4,0:0:0:0:
320,192,141296,1,2,0:0:0:0:
320,192,141449,1,2,0:0:0:0:
64,192,141602,1,2,0:0:0:0:
64,192,141755,1,2,0:0:0:0:
64,192,141908,1,2,0:0:0:0:
448,192,142061,1,0,0:0:0:0:
320,192,142061,1,8,0:0:0:0:
64,192,143439,1,2,0:0:0:0:
448,192,143439,1,4,0:0:0:0:
192,192,143592,1,2,0:0:0:0:
320,192,143898,1,8,0:0:0:0:
448,192,143898,1,0,0:0:0:0:
64,192,144204,1,8,0:0:0:0:
320,192,144357,1,2,0:0:0:0:
448,192,144510,1,2,0:0:0:0:
192,192,144816,1,8,0:0:0:0:
320,192,144816,1,0,0:0:0:0:
448,192,145122,1,8,0:0:0:0:
192,192,145276,1,2,0:0:0:0:
64,192,145429,1,2,0:0:0:0:
320,192,145582,1,8,0:0:0:0:
448,192,145582,1,0,0:0:0:0:
192,192,145888,1,2,0:0:0:0:
320,192,146041,1,2,0:0:0:0:
64,192,146347,1,8,0:0:0:0:
192,192,146347,1,0,0:0:0:0:
448,192,146653,1,8,0:0:0:0:
192,192,146806,1,2,0:0:0:0:
320,192,146959,1,2,0:0:0:0:
64,192,147265,1,8,0:0:0:0:
448,192,147265,1,0,0:0:0:0:
192,192,147571,1,8,0:0:0:0:
320,192,147725,1,2,0:0:0:0:
448,192,147878,1,2,0:0:0:0:
64,192,148031,1,8,0:0:0:0:
192,192,148031,1,0,0:0:0:0:
192,192,148184,1,0,0:0:0:0:
64,192,148184,1,8,0:0:0:0:
320,192,148337,1,2,0:0:0:0:
448,192,148490,1,2,0:0:0:0:
64,192,148796,1,8,0:0:0:0:
192,192,148796,1,0,0:0:0:0:
320,192,149102,1,8,0:0:0:0:
192,192,149255,1,2,0:0:0:0:
64,192,149408,1,2,0:0:0:0:
192,192,149714,1,8,0:0:0:0:
448,192,149714,1,0,0:0:0:0:
320,192,150020,1,8,0:0:0:0:
448,192,150174,1,2,0:0:0:0:
192,192,150327,1,2,0:0:0:0:
320,192,150480,1,8,0:0:0:0:
448,192,150480,1,0,0:0:0:0:
192,192,150786,1,2,0:0:0:0:
64,192,150939,1,2,0:0:0:0:
192,192,151245,1,8,0:0:0:0:
320,192,151245,1,0,0:0:0:0:
448,192,151551,1,8,0:0:0:0:
320,192,151704,1,2,0:0:0:0:
192,192,151857,1,2,0:0:0:0:
64,192,152163,1,8,0:0:0:0:
448,192,152163,1,0,0:0:0:0:
192,192,152469,1,8,0:0:0:0:
320,192,152622,1,8,0:0:0:0:
320,192,152776,1,8,0:0:0:0:
192,192,152929,1,8,0:0:0:0:
192,192,153082,1,8,0:0:0:0:
64,192,153235,1,2,0:0:0:0:
448,192,153235,1,4,0:0:0:0:
320,192,153388,1,2,0:0:0:0:
64,192,153694,1,8,0:0:0:0:
192,192,153694,1,0,0:0:0:0:
448,192,154000,1,8,0:0:0:0:
320,192,154153,1,2,0:0:0:0:
192,192,154306,1,2,0:0:0:0:
64,192,154612,1,8,0:0:0:0:
448,192,154612,1,0,0:0:0:0:
192,192,154918,1,8,0:0:0:0:
320,192,155071,1,2,0:0:0:0:
448,192,155225,1,2,0:0:0:0:
64,192,155378,1,8,0:0:0:0:
192,192,155378,1,0,0:0:0:0:
448,192,155684,1,2,0:0:0:0:
320,192,155837,1,2,0:0:0:0:
192,192,156143,1,8,0:0:0:0:
448,192,156143,1,0,0:0:0:0:
64,192,156449,1,8,0:0:0:0:
192,192,156602,1,2,0:0:0:0:
320,192,156755,1,2,0:0:0:0:
64,192,157061,1,8,0:0:0:0:
192,192,157061,1,0,0:0:0:0:
448,192,157367,1,8,0:0:0:0:
320,192,157520,1,2,0:0:0:0:
64,192,157674,1,2,0:0:0:0:
320,192,157827,1,0,0:0:0:0:
448,192,157827,1,8,0:0:0:0:
320,192,157980,1,0,0:0:0:0:
448,192,157980,1,8,0:0:0:0:
64,192,158133,1,2,0:0:0:0:
192,192,158286,1,2,0:0:0:0:
64,192,158592,1,8,0:0:0:0:
448,192,158592,1,0,0:0:0:0:
192,192,158898,1,8,0:0:0:0:
320,192,159051,1,2,0:0:0:0:
448,192,159204,1,2,0:0:0:0:
64,192,159510,1,8,0:0:0:0:
320,192,159510,1,0,0:0:0:0:
448,192,159816,1,10,0:0:0:0:
64,192,159969,128,2,160276:0:0:0:0:
448,192,160276,128,2,160582:0:0:0:0:
64,192,160582,1,2,0:0:0:0:
192,192,160582,1,4,0:0:0:0:
320,192,160735,1,2,0:0:0:0:
64,192,161041,1,8,0:0:0:0:
448,192,161041,1,0,0:0:0:0:
192,192,161347,1,8,0:0:0:0:
448,192,161347,1,0,0:0:0:0:
320,192,161500,1,6,0:0:0:0:
64,192,161653,1,2,0:0:0:0:
192,192,161653,1,0,0:0:0:0:
320,192,161959,1,8,0:0:0:0:
448,192,161959,1,0,0:0:0:0:
192,192,162265,1,8,0:0:0:0:
320,192,162265,1,0,0:0:0:0:
64,192,162418,128,2,162725:0:0:0:0:
448,192,162725,128,2,163031:0:0:0:0:
192,192,163031,1,4,0:0:0:0:
192,192,163184,1,0,0:0:0:0:
448,192,163490,1,0,0:0:0:0:
448,192,163796,1,0,0:0:0:0:
64,192,164102,1,0,0:0:0:0:
64,192,164408,1,0,0:0:0:0:
