osu file format v14

[General]
AudioFilename: audio.mp3
AudioLeadIn: 0
PreviewTime: 44925
Countdown: 0
SampleSet: Soft
StackLeniency: 0.5
Mode: 0
LetterboxInBreaks: 0
WidescreenStoryboard: 1

[Editor]
Bookmarks: 45600,82800,83850
DistanceSpacing: 1
BeatDivisor: 4
GridSize: 16
TimelineZoom: 1

[Metadata]
Title:STAY ONE
TitleUnicode:STAY ONE
Artist:THE ORAL CIGARETTES
ArtistUnicode:THE ORAL CIGARETTES
Creator:X4D
Version:NORMAL
Source:
Tags:fixion toc short version cut
BeatmapID:1936437
BeatmapSetID:926513

[Difficulty]
HPDrainRate:4
CircleSize:2.7
OverallDifficulty:4
ApproachRate:5
SliderMultiplier:1.1
SliderTickRate:1

[Events]
//Background and Video events
0,0,"sotaerks.jpg",0,0
//Break Periods
//Storyboard Layer 0 (Background)
//Storyboard Layer 1 (Fail)
//Storyboard Layer 2 (Pass)
//Storyboard Layer 3 (Foreground)
//Storyboard Sound Samples

[TimingPoints]
1200,300,4,2,12,90,1,0
45600,-100,4,2,12,90,0,1
64650,-100,4,2,12,90,0,0
100800,-100,4,2,12,50,0,0
102600,-100,4,2,12,90,0,0
103050,-100,4,2,12,90,0,0
105000,-100,4,2,12,70,0,0
105600,-100,4,2,12,45,0,0
106200,-100,4,2,12,35,0,0
106800,-100,4,2,12,25,0,0
107400,-100,4,2,12,15,0,0
108000,-100,4,2,12,5,0,0

[Colours]
Combo1 : 224,140,56
Combo2 : 120,173,237
Combo3 : 228,188,112
Combo4 : 92,92,252

[HitObjects]
43,41,1200,6,0,L|162:35,1,110,8|8,0:0|0:0,0:0:0:0:
230,113,1800,2,0,L|349:119,1,110,8|8,0:0|0:0,0:0:0:0:
394,125,2250,6,0,P|412:203|391:245,1,110,4|0,1:2|1:0,0:0:0:0:
349,243,2700,1,8,0:0:0:0:
432,314,3000,2,0,L|486:311,2,55,0|0|8,0:0|0:0|0:0,0:0:0:0:
389,348,3450,2,0,L|279:342,1,110,0|0,0:0|0:0,0:0:0:0:
239,304,3900,1,8,0:0:0:0:
239,304,4050,2,0,L|129:309,1,110,0|0,0:0|0:0,0:0:0:0:
29,355,4650,6,0,P|17:301|37:251,1,110,4|0,1:2|1:0,0:0:0:0:
85,223,5100,1,8,0:0:0:0:
54,117,5400,2,0,L|0:114,2,55,0|0|8,0:0|0:0|0:0,0:0:0:0:
100,87,5850,6,0,P|150:67|203:78,1,110,0|0,0:0|0:0,0:0:0:0:
244,115,6300,1,8,0:0:0:0:
244,115,6450,2,0,P|294:134|347:123,1,110,0|0,0:0|0:0,0:0:0:0:
442,67,7050,6,0,L|436:176,1,110,4|0,1:2|1:0,0:0:0:0:
462,225,7500,1,8,0:0:0:0:
434,331,7800,2,0,P|469:325|505:329,2,55,0|0|8,0:0|0:0|0:0,0:0:0:0:
387,302,8250,2,0,P|333:313|283:293,1,110,0|0,0:0|0:0,0:0:0:0:
254,246,8700,1,8,0:0:0:0:
254,246,8850,2,0,P|200:234|150:254,1,110,0|0,0:0|0:0,0:0:0:0:
64,322,9450,6,0,L|58:212,1,110,4|0,1:2|1:0,0:0:0:0:
18,174,9900,1,8,0:0:0:0:
96,96,10200,2,0,P|68:96|41:90,2,55,0|0|8,0:0|0:0|0:0,0:0:0:0:
138,60,10650,5,10,0:0:0:0:
240,20,10950,1,10,0:0:0:0:
325,88,11250,1,10,0:0:0:0:
309,196,11550,1,10,0:0:0:0:
395,264,11850,6,0,P|448:252|498:272,1,110,4|0,1:2|1:2,0:0:0:0:
507,326,12300,1,8,0:0:0:0:
401,357,12600,2,0,L|346:360,1,55,0|0,1:2|1:2,0:0:0:0:
296,335,12900,1,8,0:0:0:0:
194,376,13200,2,0,L|197:321,1,55,0|0,1:2|1:2,0:0:0:0:
157,283,13500,2,0,L|154:228,1,55,8|0,0:0|0:0,0:0:0:0:
186,184,13800,2,0,P|239:172|289:192,1,110,0|8,1:2|0:0,0:0:0:0:
323,234,14250,6,0,L|329:124,1,110,4|0,1:2|1:2,0:0:0:0:
371,89,14700,1,8,0:0:0:0:
281,24,15000,2,0,L|226:27,1,55,0|0,1:2|1:2,0:0:0:0:
181,59,15300,1,8,0:0:0:0:
75,28,15600,2,0,L|72:83,1,55,0|0,1:2|1:2,0:0:0:0:
113,118,15900,2,0,L|116:173,1,55,8|0,0:0|0:0,0:0:0:0:
76,211,16200,2,0,L|70:321,1,110,0|8,1:2|0:0,0:0:0:0:
116,349,16650,6,0,P|166:328|219:340,1,110,4|0,1:2|1:2,0:0:0:0:
262,375,17100,1,8,0:0:0:0:
294,269,17400,2,0,L|297:214,1,55,0|0,1:2|1:2,0:0:0:0:
268,166,17700,1,8,0:0:0:0:
370,125,18000,2,0,L|425:122,1,55,0|0,1:2|1:2,0:0:0:0:
479,123,18300,2,0,L|482:68,1,55,8|0,0:0|0:0,0:0:0:0:
480,13,18600,2,0,P|429:-7|376:4,1,110,0|8,1:2|0:0,0:0:0:0:
336,41,19050,6,0,L|226:35,1,110,4|0,1:2|1:2,0:0:0:0:
177,60,19500,1,8,0:0:0:0:
67,46,19800,2,0,L|70:101,1,55,0|0,1:2|1:2,0:0:0:0:
104,143,20100,1,8,0:0:0:0:
28,222,20400,2,0,L|25:277,2,55,8|8|0,1:2|0:2|1:2,0:0:0:0:
133,254,21000,2,0,L|188:251,1,55,0|0,1:0|1:0,0:0:0:0:
237,274,21300,1,0,1:0:0:0:
286,297,21450,6,0,P|338:309|389:288,1,110,4|0,1:2|1:2,0:0:0:0:
420,243,21900,1,8,0:0:0:0:
330,178,22200,2,0,L|333:123,1,55,0|0,1:2|1:2,0:0:0:0:
368,80,22500,1,8,0:0:0:0:
270,28,22800,2,0,L|215:31,1,55,0|0,1:2|1:2,0:0:0:0:
176,70,23100,2,0,L|121:67,1,55,8|0,0:0|0:0,0:0:0:0:
67,56,23400,2,0,P|46:106|58:159,1,110,0|8,1:2|0:0,0:0:0:0:
106,186,23850,6,0,L|216:180,1,110,4|0,1:2|1:2,0:0:0:0:
265,202,24300,1,8,0:0:0:0:
352,135,24600,2,0,L|355:190,1,55,0|0,1:2|1:2,0:0:0:0:
345,244,24900,1,8,0:0:0:0:
425,319,25200,2,0,L|480:322,2,55,8|8|8,1:2|0:2|1:2,0:0:0:0:
325,365,25800,2,0,L|270:368,1,55,2|10,1:2|0:2,0:0:0:0:
229,331,26100,2,0,L|174:328,1,55,10|10,0:2|0:2,0:0:0:0:
122,346,26400,6,0,L|116:236,1,110,2|10,1:2|0:2,0:0:0:0:
86,189,26850,1,2,0:0:0:0:
86,189,27000,2,0,L|31:186,2,55,0|0|8,1:2|1:2|0:2,0:0:0:0:
152,101,27600,2,0,L|262:95,1,110,0|8,1:2|0:2,0:0:0:0:
302,132,28050,1,2,0:0:0:0:
302,132,28200,2,0,L|412:138,1,110,2|10,1:2|0:2,0:0:0:0:
506,193,28800,6,0,L|512:303,1,110,2|10,1:2|0:2,0:0:0:0:
500,356,29250,2,0,P|450:335|397:347,1,110,2|2,0:0|1:2,0:0:0:0:
351,377,29700,1,8,0:2:0:0:
351,377,29850,2,0,L|357:267,1,110,2|2,0:0|0:0,0:0:0:0:
326,221,30300,1,8,0:2:0:0:
252,303,30600,2,0,L|197:306,1,55,2|2,1:2|1:2,0:0:0:0:
158,267,30900,2,0,L|103:264,1,55,10|2,0:2|0:0,0:0:0:0:
52,285,31200,6,0,L|46:175,1,110,2|10,1:2|0:2,0:0:0:0:
82,133,31650,1,2,0:0:0:0:
82,133,31800,2,0,L|85:78,2,55,0|0|8,1:2|1:2|0:2,0:0:0:0:
188,104,32400,2,0,L|298:98,1,110,0|8,1:2|0:2,0:0:0:0:
341,64,32850,1,2,0:0:0:0:
341,64,33000,2,0,L|344:9,2,55,2|2|10,1:2|1:2|0:2,0:0:0:0:
416,143,33600,6,0,L|422:253,1,110,2|10,1:2|0:2,0:0:0:0:
407,305,34050,2,0,P|357:326|304:314,1,110,2|0,0:0|1:2,0:0:0:0:
272,268,34500,1,10,0:2:0:0:
272,268,34650,2,0,L|278:158,1,110,2|0,0:0|0:0,0:0:0:0:
252,109,35100,1,8,0:2:0:0:
143,127,35400,2,0,L|146:182,1,55,2|2,1:2|1:2,0:0:0:0:
181,224,35700,2,0,L|178:279,1,55,10|2,0:2|0:0,0:0:0:0:
172,333,36000,6,0,P|122:312|69:324,1,110,6|10,1:2|0:2,0:0:0:0:
27,359,36450,2,0,L|21:249,1,110,2|2,0:0|1:2,0:0:0:0:
56,207,36900,1,10,0:2:0:0:
56,207,37050,2,0,L|62:97,1,110,2|0,0:0|0:0,0:0:0:0:
41,46,37500,1,8,0:2:0:0:
150,38,37800,2,0,L|153:93,2,55,2|2|10,1:2|1:2|0:2,0:0:0:0:
246,91,38400,6,0,P|296:70|349:82,1,110,2|10,1:2|0:2,0:0:0:0:
364,134,38850,2,0,L|474:128,1,110,2|2,0:0|1:2,0:0:0:0:
506,172,39300,1,8,0:2:0:0:
438,258,39600,2,0,L|435:313,1,55,8|10,0:0|0:0,0:0:0:0:
332,351,40050,1,8,0:0:0:0:
332,351,40200,2,0,L|329:296,1,55,2|2,1:2|1:2,0:0:0:0:
297,251,40500,2,0,L|242:248,1,55,2|2,1:2|1:2,0:0:0:0:
199,283,40800,6,0,L|89:289,1,110,6|2,1:2|0:0,0:0:0:0:
34,290,41250,1,0,1:2:0:0:
34,290,41400,2,0,P|13:240|25:187,1,110,10|2,0:0|0:0,0:0:0:0:
105,112,42000,1,0,1:2:0:0:
105,112,42150,2,0,L|215:118,1,110,8|0,0:0|1:2,0:0:0:0:
269,125,42600,1,10,0:0:0:0:
351,52,42900,2,0,L|406:49,1,55,10|8,0:0|0:0,0:0:0:0:
460,43,43200,1,2,1:2:0:0:
418,144,43500,6,0,P|406:196|427:246,2,110,8|10|8,0:0|0:0|0:0,0:0:0:0:
509,187,44400,1,6,1:2:0:0:
101,354,45600,6,0,P|89:302|110:252,1,110,6|10,1:2|0:2,0:0:0:0:
156,220,46050,1,2,0:2:0:0:
156,220,46200,2,0,P|168:168|147:118,1,110,2|10,1:2|0:2,0:0:0:0:
57,53,46800,2,0,L|2:50,2,55,2|0|8,1:2|1:2|0:2,0:0:0:0:
164,31,47400,2,0,L|219:28,1,55,0|0,1:2|1:2,0:0:0:0:
266,56,47700,1,10,0:2:0:0:
313,83,47850,6,0,L|423:77,1,110,6|0,1:2|1:2,0:0:0:0:
469,47,48300,1,8,0:2:0:0:
486,155,48600,2,0,L|480:265,1,110,0|8,1:2|0:2,0:0:0:0:
381,215,49200,2,0,L|326:218,2,55,0|0|8,1:2|1:2|0:2,0:0:0:0:
323,308,49800,2,0,L|268:305,1,55,2|2,1:2|1:2,0:0:0:0:
227,341,50100,2,0,L|172:344,1,55,10|2,0:2|0:0,0:0:0:0:
123,370,50400,6,0,L|117:260,1,110,6|10,1:2|0:2,0:0:0:0:
82,217,50850,1,2,0:0:0:0:
82,217,51000,2,0,L|88:107,1,110,2|10,1:2|0:2,0:0:0:0:
148,15,51600,2,0,L|93:18,2,55,2|2|8,1:2|1:2|0:2,0:0:0:0:
189,50,52050,2,0,L|312:56,1,110,2|0,0:0|1:2,0:0:0:0:
343,88,52500,1,10,0:2:0:0:
398,85,52650,6,0,P|419:134|407:187,1,110,6|0,1:2|1:2,0:0:0:0:
362,219,53100,1,8,0:2:0:0:
427,307,53400,1,0,1:2:0:0:
427,307,53550,2,0,L|372:310,1,55,0|8,1:2|0:2,0:0:0:0:
334,349,53850,2,0,L|224:343,1,110,0|0,0:0|1:2,0:0:0:0:
181,377,54300,1,8,0:2:0:0:
92,311,54600,2,0,L|95:366,2,55,10|10|2,0:2|0:2|1:2,0:0:0:0:
10,236,55200,6,0,P|-2:183|19:133,1,110,6|10,1:2|0:2,0:0:0:0:
72,118,55650,1,2,0:2:0:0:
72,118,55800,2,0,P|83:65|62:15,1,110,2|10,1:2|0:2,0:0:0:0:
171,23,56400,2,0,L|226:26,2,55,2|0|8,1:2|1:2|0:2,0:0:0:0:
215,123,57000,2,0,L|270:120,1,55,0|0,1:2|1:2,0:0:0:0:
315,150,57300,1,10,0:2:0:0:
363,176,57450,6,0,L|473:170,1,110,6|0,1:2|1:2,0:0:0:0:
511,130,57900,1,8,0:2:0:0:
490,23,58200,2,0,L|380:17,1,110,0|8,1:2|0:2,0:0:0:0:
271,1,58800,2,0,L|274:56,2,55,0|0|8,1:2|1:2|0:2,0:0:0:0:
169,49,59400,2,0,L|166:104,1,55,2|2,1:2|1:2,0:0:0:0:
211,134,59700,2,0,L|214:189,1,55,10|2,0:2|0:0,0:0:0:0:
166,216,60000,6,0,L|160:326,1,110,6|10,1:2|0:2,0:0:0:0:
130,371,60450,1,2,0:0:0:0:
130,371,60600,2,0,L|240:365,1,110,2|10,1:2|0:2,0:0:0:0:
312,282,61200,2,0,L|315:227,2,55,2|2|8,1:2|1:2|0:2,0:0:0:0:
357,313,61650,2,0,P|409:324|459:303,1,110,2|0,0:0|1:2,0:0:0:0:
479,252,62100,1,10,0:2:0:0:
479,252,62250,6,0,L|485:142,1,110,6|0,1:2|1:2,0:0:0:0:
459,93,62700,1,8,0:2:0:0:
353,124,63000,2,0,L|350:69,2,55,0|0|8,1:2|1:2|0:2,0:0:0:0:
273,199,63600,2,0,L|270:254,1,55,8|8,1:2|0:2,0:0:0:0:
264,308,63900,2,0,L|209:311,1,55,2|8,1:2|0:0,0:0:0:0:
156,326,64200,2,0,L|153:271,2,55,2|10|0,1:2|0:2|0:0,0:0:0:0:
109,356,64650,6,0,P|56:367|6:346,1,110,6|2,1:2|1:2,0:0:0:0:
0,290,65100,1,10,0:0:0:0:
55,195,65400,2,0,L|110:192,2,55,0|0|8,1:2|1:2|0:0,0:0:0:0:
7,167,65850,2,0,P|-4:114|17:64,1,110,4|0,1:2|1:2,0:0:0:0:
67,41,66300,1,8,0:0:0:0:
174,64,66600,2,0,L|171:119,2,55,0|0|10,1:2|1:2|0:0,0:0:0:0:
219,32,67050,6,0,P|272:21|322:42,1,110,2|0,0:0|1:2,0:0:0:0:
336,95,67500,1,10,0:0:0:0:
438,54,67800,2,0,L|432:164,1,110,2|10,1:2|0:0,0:0:0:0:
425,218,68250,2,0,P|375:239|321:228,1,110,6|0,1:2|1:2,0:0:0:0:
296,179,68700,1,10,0:0:0:0:
215,254,69000,1,2,1:2:0:0:
215,254,69150,2,0,L|160:251,1,55,2|8,1:2|0:0,0:0:0:0:
114,282,69450,6,0,L|108:172,1,110,6|2,1:2|1:2,0:0:0:0:
140,127,69900,1,10,0:0:0:0:
54,57,70200,2,0,L|-1:54,2,55,0|0|8,1:2|1:2|0:0,0:0:0:0:
98,24,70650,2,0,L|208:18,1,110,4|0,1:2|1:2,0:0:0:0:
254,47,71100,1,8,0:0:0:0:
340,114,71400,2,0,L|395:117,2,55,0|0|10,1:2|1:2|0:0,0:0:0:0:
291,139,71850,6,0,P|312:188|301:242,1,110,2|0,0:0|1:2,0:0:0:0:
257,276,72300,1,10,0:0:0:0:
165,337,72600,1,2,1:2:0:0:
165,337,72750,2,0,L|110:340,1,55,2|8,1:2|0:0,0:0:0:0:
56,351,73050,2,0,L|62:241,1,110,6|2,1:2|1:2,0:0:0:0:
101,202,73500,1,10,0:0:0:0:
33,114,73800,2,0,B|134:106|78:157|200:148,1,165,0|10,1:0|0:0,0:0:0:0:
245,145,74400,6,0,P|234:91|255:41,1,110,4|10,1:2|0:0,0:0:0:0:
306,22,74850,2,0,L|416:16,1,110,2|0,0:0|1:2,0:0:0:0:
457,51,75300,2,0,L|454:106,1,55,10|2,0:0|0:0,0:0:0:0:
413,143,75600,2,0,L|419:253,1,110,0|8,1:2|0:0,0:0:0:0:
502,324,76200,1,2,1:2:0:0:
404,375,76500,2,0,L|349:378,1,55,10|2,0:0|0:0,0:0:0:0:
307,342,76800,6,0,L|197:336,1,110,2|10,1:2|0:0,0:0:0:0:
144,351,77250,2,0,P|122:301|133:247,1,110,2|2,0:0|1:2,0:0:0:0:
173,209,77700,1,8,0:0:0:0:
173,209,77850,2,0,L|167:99,1,110,2|2,0:0|1:2,0:0:0:0:
134,54,78300,1,8,0:0:0:0:
36,104,78600,2,0,L|33:159,1,55,2|2,1:2|1:2,0:0:0:0:
74,194,78900,2,0,L|77:249,1,55,10|2,0:0|0:0,0:0:0:0:
55,299,79200,6,0,P|108:309|158:288,1,110,6|10,1:2|0:0,0:0:0:0:
186,241,79650,1,2,0:0:0:0:
186,241,79800,2,0,L|189:186,2,55,0|0|8,1:2|1:2|0:0,0:0:0:0:
271,309,80400,2,0,L|274:364,2,55,0|0|8,1:2|1:2|0:0,0:0:0:0:
356,239,81000,2,0,L|359:184,1,55,0|0,1:2|1:2,0:0:0:0:
325,140,81300,1,10,0:0:0:0:
364,37,81600,6,0,P|310:26|260:47,1,110,6|10,1:2|0:0,0:0:0:0:
238,97,82050,2,0,P|184:107|134:86,1,110,2|0,0:0|1:2,0:0:0:0:
116,34,82500,1,10,0:0:0:0:
27,99,82800,6,0,L|24:154,1,55,10|0,0:0|1:2,0:0:0:0:
68,186,83100,2,0,L|71:241,1,55,8|0,0:0|1:2,0:0:0:0:
65,295,83400,2,0,L|10:292,2,55,10|0|8,0:0|1:2|0:0,0:0:0:0:
102,334,83850,6,0,L|212:328,1,110,6|0,1:2|1:2,0:0:0:0:
261,350,84300,1,8,0:0:0:0:
317,255,84600,2,0,L|262:252,2,55,0|0|8,1:2|1:2|0:0,0:0:0:0:
371,261,85050,2,0,P|381:207|360:157,1,110,4|0,1:2|1:2,0:0:0:0:
313,128,85500,2,0,L|423:122,2,110,8|0|8,0:0|1:2|0:0,0:0:0:0:
267,96,86250,6,0,L|157:90,1,110,4|0,1:2|1:2,0:0:0:0:
109,117,86700,1,8,0:0:0:0:
151,218,87000,2,0,L|96:221,2,55,0|0|8,1:2|1:2|0:0,0:0:0:0:
205,213,87450,2,0,P|194:266|215:316,1,110,4|0,1:2|1:2,0:0:0:0:
268,332,87900,2,0,L|323:335,1,55,8|0,0:0|0:0,0:0:0:0:
360,295,88200,2,0,L|415:292,2,55,0|0|8,1:2|1:2|0:0,0:0:0:0:
331,248,88650,6,0,L|337:138,1,110,4|0,1:2|1:2,0:0:0:0:
376,99,89100,1,8,0:0:0:0:
308,12,89400,2,0,L|363:15,2,55,0|0|8,1:2|1:2|0:0,0:0:0:0:
253,8,89850,2,0,P|263:61|242:111,1,110,4|0,1:2|1:2,0:0:0:0:
188,122,90300,2,0,L|194:232,2,110,8|0|8,0:0|1:2|0:0,0:0:0:0:
148,83,91050,6,0,L|38:77,1,110,4|0,1:2|1:2,0:0:0:0:
2,119,91500,1,8,0:0:0:0:
84,192,91800,2,0,L|139:189,2,55,0|0|8,1:2|1:2|0:0,0:0:0:0:
39,224,92250,2,0,P|28:277|49:327,1,110,4|0,1:2|1:2,0:0:0:0:
100,349,92700,1,8,0:0:0:0:
204,314,93000,2,0,L|207:259,2,55,8|0|8,0:0|1:2|0:0,0:0:0:0:
242,353,93450,6,0,P|292:332|345:342,1,110,4|0,1:2|1:2,0:0:0:0:
393,369,93900,1,8,0:0:0:0:
457,279,94200,2,0,L|512:282,2,55,0|0|8,1:2|1:2|0:0,0:0:0:0:
408,252,94650,2,0,L|402:142,1,110,4|0,1:2|1:2,0:0:0:0:
394,87,95100,2,0,P|444:66|497:76,2,110,8|0|8,0:0|1:2|0:0,0:0:0:0:
342,66,95850,6,0,P|288:76|238:55,1,110,4|0,1:2|1:2,0:0:0:0:
208,8,96300,1,8,0:0:0:0:
123,78,96600,2,0,L|68:81,2,55,0|0|8,1:2|1:2|0:0,0:0:0:0:
161,116,97050,2,0,L|155:226,1,110,4|0,1:2|1:2,0:0:0:0:
184,272,97500,2,0,L|239:269,1,55,8|0,0:0|0:0,0:0:0:0:
287,242,97800,2,0,L|290:187,2,55,0|0|8,1:2|1:2|0:0,0:0:0:0:
327,279,98250,6,0,P|380:289|430:268,1,110,4|0,1:2|1:2,0:0:0:0:
452,218,98700,1,8,0:0:0:0:
419,113,99000,2,0,L|474:116,2,55,0|0|8,1:2|1:2|0:0,0:0:0:0:
373,144,99450,2,0,L|263:150,1,110,4|0,1:2|1:2,0:0:0:0:
219,116,99900,2,0,L|164:113,1,55,8|0,0:0|0:0,0:0:0:0:
132,157,100200,2,0,L|77:160,2,55,8|8|8,1:2|1:2|0:0,0:0:0:0:
140,266,100800,6,0,L|137:321,1,55,2|2,0:0|0:0,0:0:0:0:
234,269,101250,2,0,L|231:324,1,55,2|2,0:0|0:0,0:0:0:0:
328,272,101700,2,0,L|325:327,1,55,2|2,0:0|0:0,0:0:0:0:
422,275,102150,2,0,L|419:330,2,55,2|2|2,0:0|0:0|0:0,0:0:0:0:
448,226,102600,2,0,P|476:220|503:223,2,55,10|8|8,0:0|0:0|0:0,0:0:0:0:
411,184,103050,5,4,0:0:0:0:
256,192,103200,12,0,109200,0:0:0:0:
