osu file format v14

[General]
AudioFilename: audio.mp3
AudioLeadIn: 0
PreviewTime: 43850
Countdown: 0
SampleSet: Soft
StackLeniency: 0.3
Mode: 0
LetterboxInBreaks: 0
WidescreenStoryboard: 1

[Editor]
Bookmarks: 74900,102050
DistanceSpacing: 1.3
BeatDivisor: 4
GridSize: 16
TimelineZoom: 1.5

[Metadata]
Title:STAY ONE
TitleUnicode:STAY ONE
Artist:THE ORAL CIGARETTES
ArtistUnicode:THE ORAL CIGARETTES
Creator:Stixy
Version:mnyui's Hard
Source:
Tags:japanese rock j-rock jrock short ver version cut edit toc kowari enerugi reform kujinn smoke mnyui pikaqours fixion
BeatmapID:2312963
BeatmapSetID:1105934

[Difficulty]
HPDrainRate:4
CircleSize:3.4
OverallDifficulty:7
ApproachRate:8
SliderMultiplier:1.4
SliderTickRate:1

[Events]
//Background and Video events
0,0,"bg.jpg",0,0
//Break Periods
//Storyboard Layer 0 (Background)
//Storyboard Layer 1 (Fail)
//Storyboard Layer 2 (Pass)
//Storyboard Layer 3 (Foreground)
//Storyboard Layer 4 (Overlay)
//Storyboard Sound Samples

[TimingPoints]
50,300,4,2,1,50,1,0
1100,-125,4,2,1,60,0,0
10700,-100,4,2,1,70,0,0
25250,-111.111111111111,4,2,1,60,0,0
39650,-125,4,2,1,50,0,0
42050,-99.9999999999999,4,2,1,50,0,0
44450,-90.9090909090909,4,2,1,80,0,0
82700,-100,4,2,1,80,0,0
82850,-100,4,2,1,70,0,0
99650,-100,4,2,1,51,0,0
102350,-100,4,2,1,51,0,0
102650,-100,4,2,1,49,0,0
102950,-100,4,2,1,47,0,0
103250,-100,4,2,1,45,0,0
103550,-100,4,2,1,43,0,0
103850,-100,4,2,1,41,0,0
104150,-100,4,2,1,39,0,0
104450,-100,4,2,1,37,0,0
104750,-100,4,2,1,35,0,0
105050,-100,4,2,1,33,0,0
105350,-100,4,2,1,31,0,0
105650,-100,4,2,1,29,0,0
105950,-100,4,2,1,27,0,0
106250,-100,4,2,1,25,0,0
106550,-100,4,2,1,23,0,0
106850,-100,4,2,1,21,0,0
107150,-100,4,2,1,19,0,0
107450,-100,4,2,1,17,0,0
107750,-100,4,2,1,15,0,0
108050,-100,4,2,1,13,0,0
108350,-100,4,2,1,11,0,0
108650,-100,4,2,1,9,0,0
108950,-100,4,2,1,7,0,0
109250,-100,4,2,1,5,0,0

[Colours]
Combo1 : 157,206,206
Combo2 : 155,155,255
Combo3 : 169,84,84
Combo4 : 255,172,89

[HitObjects]
44,104,50,5,8,0:2:0:0:
66,241,350,1,8,0:2:0:0:
159,135,650,1,8,0:2:0:0:
186,271,950,1,8,0:2:0:0:
186,271,1100,6,0,B|230:265|230:265|251:276|251:276|311:271,1,112,6|2,1:2|1:2,0:0:0:0:
378,252,1550,2,0,P|380:279|372:306,2,56,10|2|2,0:2|0:2|0:2,0:0:0:0:
317,193,2000,1,2,0:2:0:0:
397,171,2150,1,10,0:2:0:0:
397,171,2300,2,0,L|397:44,1,112,2|2,0:2|0:2,0:0:0:0:
319,92,2750,1,8,0:2:0:0:
334,9,2900,2,0,B|266:-1|297:46|218:29,1,112,2|2,0:2|0:2,0:0:0:0:
156,5,3350,1,10,0:2:0:0:
156,5,3500,6,0,B|142:38|142:38|155:130,1,112,6|2,1:2|1:2,0:0:0:0:
180,192,3950,2,0,P|205:181|223:160,2,56,10|2|2,0:2|0:2|0:2,0:0:0:0:
96,179,4400,1,2,0:2:0:0:
54,253,4550,1,10,0:2:0:0:
54,253,4700,2,0,L|72:374,1,112,2|2,0:2|0:2,0:0:0:0:
149,335,5150,1,10,0:2:0:0:
221,377,5300,1,2,0:2:0:0:
365,290,5600,1,2,0:2:0:0:
434,346,5750,1,10,0:2:0:0:
434,346,5900,6,0,P|415:306|425:231,1,112,6|2,1:2|1:2,0:0:0:0:
496,202,6350,2,0,P|505:243|499:264,2,56,10|2|2,0:2|0:2|0:2,0:0:0:0:
423,157,6800,1,2,0:2:0:0:
351,197,6950,1,10,0:2:0:0:
351,197,7100,2,0,P|290:163|238:183,1,112,2|2,0:2|0:2,0:0:0:0:
246,256,7550,1,8,0:2:0:0:
179,211,7700,2,0,B|169:173|169:173|175:144|175:144|164:90,1,112,2|2,0:2|0:2,0:0:0:0:
143,20,8150,1,10,0:2:0:0:
143,20,8300,6,0,B|171:52|171:52|249:40,1,112,6|2,1:2|1:2,0:0:0:0:
323,52,8750,2,0,P|321:24|310:-1,2,56,10|2|2,0:2|0:2|0:2,0:0:0:0:
271,119,9200,2,0,L|280:181,1,56,2|10,0:2|0:2,0:0:0:0:
296,256,9500,5,2,1:2:0:0:
460,220,9800,1,2,1:2:0:0:
296,256,10100,1,2,1:2:0:0:
460,220,10400,1,2,1:2:0:0:
294,348,10700,6,0,B|206:320|240:398|130:348,1,140,6|2,1:2|1:2,0:0:0:0:
64,383,11150,2,0,P|81:350|68:304,1,70,10|2,0:2|0:0,0:0:0:0:
15,242,11450,2,0,L|110:217,1,70,2|2,1:2|1:2,0:0:0:0:
182,205,11750,1,10,0:2:0:0:
182,205,11900,2,0,B|256:188|236:251|316:229,1,140,2|2,0:0|1:2,0:0:0:0:
402,189,12350,2,0,P|413:231|405:263,1,70,10|2,0:2|0:0,0:0:0:0:
494,313,12650,1,2,1:2:0:0:
494,313,12800,2,0,P|463:343|431:352,1,70,2|10,1:2|0:2,0:0:0:0:
344,320,13100,6,0,B|289:314|289:314|270:332|270:332|204:325,1,140,6|2,1:2|1:2,0:0:0:0:
152,248,13550,2,0,L|221:239,1,70,10|2,0:2|0:0,0:0:0:0:
297,175,13850,1,2,1:2:0:0:
297,175,14000,1,2,1:2:0:0:
381,224,14150,2,0,P|395:184|383:143,1,70,10|2,0:2|0:0,0:0:0:0:
472,103,14450,2,0,P|444:70|402:60,1,70,2|2,1:2|1:2,0:0:0:0:
323,79,14750,2,0,L|235:73,1,70,10|2,0:2|0:0,0:0:0:0:
158,99,15050,2,0,P|153:64|163:31,2,70,2|2|10,1:2|1:2|0:2,0:0:0:0:
103,180,15500,6,0,P|136:151|234:177,1,140,6|2,1:2|1:2,0:0:0:0:
295,234,15950,2,0,L|364:230,1,70,10|2,0:2|0:0,0:0:0:0:
453,187,16250,2,0,P|465:220|458:260,2,70,2|2|10,1:2|1:2|0:2,0:0:0:0:
473,90,16700,2,0,B|393:75|421:132|310:110,1,140,2|2,0:0|1:2,0:0:0:0:
248,76,17150,2,0,P|239:119|247:146,1,70,10|2,0:2|0:0,0:0:0:0:
320,207,17450,2,0,L|313:284,1,70,2|2,1:2|1:2,0:0:0:0:
226,231,17750,1,10,0:2:0:0:
183,319,17900,6,0,P|123:287|61:314,1,140,6|2,1:2|1:2,0:0:0:0:
131,245,18350,2,0,L|116:159,1,70,10|0,0:2|0:0,0:0:0:0:
54,101,18650,2,0,L|66:32,2,70,2|2|10,1:2|1:2|0:2,0:0:0:0:
245,142,19250,2,0,L|279:147,3,35,10|8|10|8,0:0|0:0|0:0|0:0,0:0:0:0:
325,165,19550,2,0,L|414:148,1,70,10|8,0:0|0:0,0:0:0:0:
472,93,19850,2,0,P|492:134|487:169,1,70,10|10,0:0|0:3,0:0:0:0:
433,236,20150,1,10,0:3:0:0:
462,329,20300,6,0,B|412:319|412:319|381:330|381:330|320:316,1,140,6|2,1:2|1:2,0:0:0:0:
232,347,20750,2,0,P|227:314|238:273,1,70,10|2,0:2|0:0,0:0:0:0:
168,207,21050,2,0,P|194:186|235:176,2,70,2|2|10,1:2|1:2|0:2,0:0:0:0:
113,288,21500,2,0,L|104:131,1,140,2|2,0:0|1:2,0:0:0:0:
47,68,21950,2,0,P|100:48|127:52,1,70,10|2,0:2|0:0,0:0:0:0:
202,98,22250,1,2,1:2:0:0:
202,98,22400,2,0,L|290:88,1,70,2|10,1:2|0:2,0:0:0:0:
360,49,22700,6,0,B|393:72|393:72|380:185,1,140,6|2,1:2|1:2,0:0:0:0:
411,264,23150,1,10,0:2:0:0:
317,253,23300,1,2,0:0:0:0:
317,253,23450,2,0,L|229:242,2,70,2|2|10,1:2|1:2|0:2,0:0:0:0:
358,342,23900,1,2,0:0:0:0:
358,342,24050,2,0,L|270:331,1,70,10|8,0:3|0:3,0:0:0:0:
192,312,24350,2,0,L|122:320,1,70,4|10,1:2|0:3,0:0:0:0:
43,377,24650,1,10,0:3:0:0:
43,377,24800,1,10,0:0:0:0:
37,283,24950,1,10,0:0:0:0:
37,283,25100,1,10,0:0:0:0:
110,223,25250,6,0,B|156:232|156:232|187:218|187:218|245:226,1,125.999996154785,6|10,1:2|0:2,0:0:0:0:
374,348,25850,2,0,P|365:311|376:278,1,62.9999980773926,0|0,1:2|1:2,0:0:0:0:
439,242,26150,2,0,L|427:89,1,125.999996154785,8|0,0:2|1:2,0:0:0:0:
278,13,26750,1,8,0:2:0:0:
219,70,26900,1,2,0:0:0:0:
219,70,27050,2,0,L|128:60,1,62.9999980773926,2|2,1:2|1:2,0:0:0:0:
88,16,27350,2,0,P|68:64|74:93,1,62.9999980773926,10|2,0:2|0:0,0:0:0:0:
67,156,27650,6,0,B|108:140|108:140|193:162,1,125.999996154785,2|10,1:2|0:2,0:0:0:0:
257,212,28100,1,2,0:0:0:0:
257,212,28250,2,0,L|332:199,1,62.9999980773926,0|2,1:2|1:2,0:0:0:0:
383,149,28550,2,0,P|407:199|404:221,1,62.9999980773926,8|2,0:2|0:0,0:0:0:0:
466,261,28850,2,0,P|401:245|353:274,1,125.999996154785,0|8,1:2|0:2,0:0:0:0:
286,320,29300,1,2,0:0:0:0:
286,320,29450,2,0,L|281:405,2,62.9999980773926,2|2|10,1:2|1:2|0:2,0:0:0:0:
249,246,29900,1,2,0:0:0:0:
181,292,30050,6,0,B|138:280|138:280|113:296|113:296|51:279,1,125.999996154785,2|10,1:2|0:2,0:0:0:0:
12,126,30650,2,0,L|93:119,1,62.9000011997223,0|0,1:2|1:2,0:0:0:0:
150,153,30950,2,0,B|214:126|208:187|296:157,1,125.999996154785,8|0,0:2|1:2,0:0:0:0:
408,74,31550,1,8,0:2:0:0:
476,128,31700,1,2,0:0:0:0:
476,128,31850,2,0,L|471:205,1,62.9999980773926,2|2,1:2|1:2,0:0:0:0:
478,272,32150,2,0,L|401:267,1,62.9999980773926,10|2,0:2|0:0,0:0:0:0:
365,333,32450,6,0,P|332:279|362:202,1,125.999996154785,2|10,1:2|0:2,0:0:0:0:
452,97,33050,1,2,1:2:0:0:
452,97,33200,1,2,1:2:0:0:
372,117,33350,2,0,L|300:104,1,62.9999980773926,10|2,0:2|0:0,0:0:0:0:
242,58,33650,2,0,B|219:85|219:85|240:197,1,125.999996154785,0|8,1:2|0:2,0:0:0:0:
306,225,34100,1,2,0:0:0:0:
306,225,34250,2,0,P|340:213|376:227,2,62.9999980773926,2|2|10,1:2|1:2|0:2,0:0:0:0:
230,257,34700,1,10,0:3:0:0:
241,338,34850,6,0,L|373:332,1,125.999996154785,6|10,1:2|0:0,0:0:0:0:
443,301,35300,2,0,P|453:335|446:370,2,62.9999980773926,2|0|2,0:0|1:0|1:2,0:0:0:0:
378,249,35750,1,10,0:2:0:0:
407,175,35900,1,2,0:2:0:0:
407,175,36050,2,0,L|253:170,1,125.999996154785,0|8,1:2|0:0,0:0:0:0:
155,74,36650,1,2,1:2:0:0:
155,74,36800,1,2,1:2:0:0:
88,121,36950,2,0,L|94:188,1,62.9999980773926,10|2,0:2|0:0,0:0:0:0:
48,251,37250,6,0,B|73:284|73:284|174:254,1,125.999996154785,2|10,1:2|0:0,0:0:0:0:
223,216,37700,2,0,L|295:226,1,62.9999980773926,2|0,0:0|1:0,0:0:0:0:
360,257,38000,2,0,L|370:185,1,62.9999980773926,2|8,1:2|0:0,0:0:0:0:
449,52,38450,1,8,0:0:0:0:
462,132,38600,1,10,0:0:0:0:
317,65,38900,1,8,0:0:0:0:
317,65,39050,2,0,L|312:158,1,62.9999980773926,10|10,0:3|0:3,0:0:0:0:
247,175,39350,2,0,P|218:137|190:133,1,62.9999980773926,10|10,0:3|0:3,0:0:0:0:
117,119,39650,5,6,1:2:0:0:
31,250,39950,1,2,0:0:0:0:
22,93,40250,1,10,0:0:0:0:
125,217,40550,1,2,0:0:0:0:
125,217,40700,2,0,L|115:295,1,56,2|0,0:0|1:0,0:0:0:0:
169,331,41000,1,8,0:0:0:0:
244,309,41150,2,0,L|305:302,1,56,2|0,0:0|1:0,0:0:0:0:
370,335,41450,2,0,P|378:289|370:264,1,56,10|0,0:0|0:0,0:0:0:0:
432,225,41750,2,0,L|470:236,3,28,10|8|8|8,0:0|0:0|0:0|0:0,0:0:0:0:
427,195,42050,6,0,L|283:204,1,140,6|8,1:2|0:0,0:0:0:0:
201,167,42500,1,8,0:0:0:0:
201,167,42650,1,10,0:0:0:0:
120,222,42800,2,0,P|152:253|193:265,1,70,8|10,0:0|0:0,0:0:0:0:
265,299,43100,1,8,0:0:0:0:
288,203,43250,5,6,1:2:0:0:
390,60,43850,2,0,L|460:75,2,70,2|2|2,0:0|0:0|0:0,0:0:0:0:
218,45,44450,6,0,B|230:120|205:209,1,154.000004699707,6|10,1:2|0:2,0:0:0:0:
118,243,44900,1,2,0:0:0:0:
203,295,45050,2,0,L|291:281,1,77.0000023498536,2|0,1:2|1:2,0:0:0:0:
379,260,45350,1,10,0:2:0:0:
379,260,45500,1,2,0:0:0:0:
435,342,45650,6,0,P|422:244|440:156,1,154.000004699707,2|8,1:2|0:2,0:0:0:0:
463,95,46100,2,0,P|416:77|367:86,1,77.0000023498536,2|0,0:0|1:2,0:0:0:0:
291,94,46400,1,0,1:2:0:0:
321,189,46550,1,10,0:2:0:0:
226,222,46700,6,0,P|189:186|89:202,1,154.000004699707,6|0,1:2|1:2,0:0:0:0:
26,271,47150,2,0,P|29:303|31:354,1,77.0000023498536,8|0,0:2|0:0,0:0:0:0:
118,295,47450,1,0,1:2:0:0:
118,295,47600,1,0,1:2:0:0:
180,373,47750,2,0,P|217:355|256:362,1,77.0000023498536,8|0,0:2|0:0,0:0:0:0:
322,288,48050,5,0,1:2:0:0:
322,288,48200,1,0,0:0:0:0:
386,364,48350,2,0,P|408:336|397:263,1,77.0000023498536,8|0,0:2|0:0,0:0:0:0:
508,264,48650,2,0,P|494:230|426:203,1,77.0000023498536,2|2,1:2|1:2,0:0:0:0:
477,107,48950,2,0,P|441:101|384:147,1,77.0000023498536,10|2,0:2|0:0,0:0:0:0:
352,202,49250,6,0,B|301:190|301:190|268:214|268:214|202:198,1,154.000004699707,6|10,1:2|0:2,0:0:0:0:
153,115,49700,1,2,0:0:0:0:
61,155,49850,2,0,P|52:120|60:71,1,77.0000023498536,2|0,1:2|1:2,0:0:0:0:
143,27,50150,1,10,0:2:0:0:
143,27,50300,1,2,0:0:0:0:
235,64,50450,6,0,P|271:72|322:51,1,77.0000023498536,2|2,1:2|1:2,0:0:0:0:
396,12,50750,1,8,0:2:0:0:
456,91,50900,2,0,P|443:143|460:273,1,154.000004699707,2|0,0:0|1:2,0:0:0:0:
499,329,51350,1,10,0:2:0:0:
399,320,51500,6,0,B|303:308|350:368|244:343,1,154.000004699707,6|0,1:2|1:2,0:0:0:0:
159,380,51950,2,0,P|147:335|163:298,1,77.0000023498536,8|0,0:2|0:0,0:0:0:0:
243,254,52250,1,0,1:2:0:0:
243,254,52400,1,0,1:2:0:0:
152,209,52550,2,0,P|115:219|90:248,1,77.0000023498536,8|0,0:2|0:0,0:0:0:0:
20,175,52850,1,0,1:2:0:0:
104,119,53000,1,0,1:2:0:0:
104,119,53150,2,0,L|97:27,1,77.0000023498536,8|0,0:2|0:0,0:0:0:0:
183,95,53450,2,0,L|221:92,3,38.5000011749268,10|8|10|8,0:2|0:2|0:2|0:2,0:0:0:0:
239,138,53750,2,0,L|277:135,3,38.5000011749268,10|8|10|8,0:3|0:3|0:3|0:3,0:0:0:0:
286,184,54050,6,0,B|328:162|328:162|370:206|440:183,1,154.000004699707,6|10,1:2|0:2,0:0:0:0:
476,99,54500,1,2,0:0:0:0:
512,188,54650,2,0,L|502:287,1,77.0000023498536,2|0,1:2|1:2,0:0:0:0:
445,345,54950,1,10,0:2:0:0:
445,345,55100,1,2,0:0:0:0:
382,266,55250,6,0,P|327:259|261:333,1,154.000004699707,2|8,1:2|0:2,0:0:0:0:
170,366,55700,2,0,P|154:319|111:294,1,77.0000023498536,2|0,0:0|1:2,0:0:0:0:
41,335,56000,1,0,1:2:0:0:
41,335,56150,1,10,0:2:0:0:
74,240,56300,6,0,B|93:135|38:179|50:91,1,154.000004699707,6|0,1:2|1:2,0:0:0:0:
149,106,56750,2,0,P|183:93|235:97,1,77.0000023498536,8|0,0:2|0:0,0:0:0:0:
291,173,57050,1,0,1:2:0:0:
291,173,57200,1,0,1:2:0:0:
370,112,57350,2,0,P|391:149|384:204,1,77.0000023498536,8|0,0:2|0:0,0:0:0:0:
437,277,57650,5,0,1:2:0:0:
437,277,57800,1,0,0:0:0:0:
337,285,57950,2,0,L|261:276,1,77.0000023498536,8|0,0:2|0:0,0:0:0:0:
181,338,58250,2,0,P|156:290|161:254,1,77.0000023498536,2|2,1:2|1:2,0:0:0:0:
61,238,58550,2,0,P|90:192|123:178,1,77.0000023498536,10|2,0:2|0:0,0:0:0:0:
188,120,58850,6,0,B|229:156|229:156|329:130,1,154.000004699707,6|10,1:2|0:2,0:0:0:0:
410,182,59300,1,2,0:0:0:0:
501,142,59450,2,0,L|508:63,1,77.0000023498536,2|0,1:2|1:2,0:0:0:0:
430,0,59750,1,10,0:2:0:0:
430,0,59900,1,2,0:0:0:0:
336,34,60050,6,0,P|301:47|249:35,1,77.0000023498536,2|2,1:2|1:2,0:0:0:0:
169,3,60350,1,8,0:2:0:0:
93,68,60500,2,0,L|115:221,1,154.000004699707,2|0,0:0|1:2,0:0:0:0:
214,237,60950,1,10,0:2:0:0:
158,320,61100,6,0,P|220:273|302:301,1,154.000004699707,6|0,1:2|1:2,0:0:0:0:
380,331,61550,2,0,P|390:292|421:267,1,77.0000023498536,8|0,0:2|0:0,0:0:0:0:
490,346,61850,1,0,1:2:0:0:
490,346,62000,1,0,1:2:0:0:
503,246,62150,2,0,L|496:160,1,77.0000023498536,8|0,0:2|0:0,0:0:0:0:
419,104,62450,6,0,L|424:65,3,38.5000011749268,8|8|8|8,0:2|0:2|0:2|0:2,0:0:0:0:
377,45,62750,2,0,L|299:51,1,77.0000023498536,2|8,1:2|0:2,0:0:0:0:
201,30,63050,2,0,L|124:24,2,77.0000023498536,10|10|8,0:2|0:3|0:3,0:0:0:0:
246,119,63500,6,0,P|223:187|232:289,1,154.000004699707,6|2,1:2|1:2,0:0:0:0:
251,365,63950,2,0,P|218:352|161:353,1,77.0000023498536,10|0,0:2|0:0,0:0:0:0:
92,294,64250,2,0,P|77:342|81:372,2,77.0000023498536,0|0|8,1:2|1:2|0:2,0:0:0:0:
12,231,64700,6,0,P|72:196|150:219,1,154.000004699707,4|0,1:2|1:2,0:0:0:0:
233,271,65150,2,0,L|325:261,1,77.0000023498536,8|0,0:2|0:0,0:0:0:0:
404,295,65450,2,0,L|394:203,1,77.0000023498536,0|0,1:2|1:2,0:0:0:0:
438,129,65750,1,10,0:2:0:0:
438,129,65900,6,0,B|354:93|369:157|284:129,1,154.000004699707,2|0,0:0|1:2,0:0:0:0:
195,94,66350,2,0,P|185:132|195:170,1,77.0000023498536,10|0,0:2|0:0,0:0:0:0:
120,235,66650,2,0,P|147:262|185:273,1,77.0000023498536,2|0,1:2|1:2,0:0:0:0:
279,241,66950,1,10,0:2:0:0:
344,316,67100,6,0,B|400:302|400:302|429:319|429:319|501:305,1,154.000004699707,6|0,1:2|1:2,0:0:0:0:
435,223,67550,2,0,L|441:137,1,77.0000023498536,10|0,0:2|0:0,0:0:0:0:
480,56,67850,1,2,1:2:0:0:
480,56,68000,2,0,P|442:44|399:56,1,77.0000023498536,2|8,1:2|0:2,0:0:0:0:
334,121,68300,6,0,B|298:153|298:153|180:126,1,154.000004699707,6|2,1:2|1:2,0:0:0:0:
120,61,68750,2,0,P|97:99|92:136,1,77.0000023498536,10|0,0:2|0:0,0:0:0:0:
47,220,69050,2,0,P|25:181|-4:158,2,77.0000023498536,0|0|8,1:2|1:2|0:2,0:0:0:0:
94,307,69500,6,0,B|153:292|153:292|180:307|180:307|264:286,1,154.000004699707,4|0,1:2|1:2,0:0:0:0:
319,229,69950,2,0,P|341:272|333:319,1,77.0000023498536,8|0,0:2|0:0,0:0:0:0:
427,348,70250,2,0,P|428:309|447:277,1,77.0000023498536,0|0,1:2|1:2,0:0:0:0:
482,185,70550,1,10,0:2:0:0:
482,185,70700,6,0,B|393:176|433:126|321:131,1,154.000004699707,2|0,0:0|0:0,0:0:0:0:
269,200,71150,2,0,P|245:160|247:121,1,77.0000023498536,10|0,0:2|0:0,0:0:0:0:
296,46,71450,1,2,1:2:0:0:
296,46,71600,2,0,L|388:39,1,77.0000023498536,2|8,1:2|0:2,0:0:0:0:
470,14,71900,6,0,B|489:111|489:111|439:168,1,154.000004699707,6|0,1:2|1:2,0:0:0:0:
495,243,72350,2,0,P|444:257|398:237,1,77.0000023498536,10|0,0:2|0:0,0:0:0:0:
338,196,72650,2,0,L|333:235,3,38.5000011749268,8|8|8|8,0:2|0:2|0:2|0:2,0:0:0:0:
289,260,72950,2,0,L|294:299,3,38.5000011749268,10|8|10|8,0:2|0:2|0:2|0:2,0:0:0:0:
253,329,73250,6,0,B|170:350|188:286|93:315,1,154.000004699707,4|10,1:2|0:2,0:0:0:0:
21,368,73700,2,0,P|5:325|12:277,1,77.0000023498536,2|0,0:0|1:2,0:0:0:0:
78,224,74000,1,0,1:2:0:0:
78,224,74150,1,10,0:2:0:0:
23,140,74300,1,2,0:0:0:0:
70,51,74450,6,0,B|126:39|126:39|168:60|168:60|234:46,1,154.000004699707,0|8,1:2|0:2,0:0:0:0:
309,6,74900,1,0,0:0:0:0:
309,6,75050,2,0,P|323:46|306:111,1,77.0000023498536,2|2,1:2|1:2,0:0:0:0:
239,138,75350,1,10,0:2:0:0:
239,138,75500,1,2,0:0:0:0:
247,237,75650,6,0,B|332:200|303:269|403:229,1,154.000004699707,2|10,1:2|0:2,0:0:0:0:
494,240,76100,2,0,P|493:201|474:169,1,77.0000023498536,2|0,0:0|1:2,0:0:0:0:
512,93,76400,2,0,P|478:74|440:74,1,77.0000023498536,2|8,1:2|0:2,0:0:0:0:
366,140,76700,2,0,L|282:124,1,77.0000023498536,2|0,0:0|1:2,0:0:0:0:
221,52,77000,6,0,P|190:110|228:199,1,154.000004699707,2|0,1:2|0:0,0:0:0:0:
318,215,77450,1,2,1:2:0:0:
318,215,77600,1,2,1:2:0:0:
253,291,77750,1,10,0:2:0:0:
253,291,77900,1,2,0:0:0:0:
314,369,78050,6,0,P|254:320|171:327,1,154.000004699707,6|10,1:2|0:2,0:0:0:0:
92,371,78500,2,0,P|77:326|85:289,1,77.0000023498536,2|0,0:0|1:2,0:0:0:0:
157,231,78800,1,0,1:2:0:0:
63,195,78950,2,0,L|55:97,1,77.0000023498536,8|0,0:2|0:0,0:0:0:0:
134,55,79250,1,0,1:2:0:0:
134,55,79400,1,0,1:2:0:0:
189,138,79550,2,0,L|290:115,1,77.0000023498536,8|0,0:2|0:0,0:0:0:0:
337,52,79850,1,0,1:2:0:0:
337,52,80000,1,0,1:2:0:0:
432,81,80150,2,0,L|424:163,1,77.0000023498536,10|0,0:2|0:0,0:0:0:0:
442,256,80450,6,0,B|382:247|382:247|357:216|357:216|295:210,1,154.000004699707,6|10,1:2|0:2,0:0:0:0:
226,145,80900,2,0,P|208:189|210:225,1,77.0000023498536,2|0,0:0|1:2,0:0:0:0:
228,321,81200,1,0,1:2:0:0:
228,321,81350,2,0,P|191:304|141:315,1,77.0000023498536,10|0,0:2|0:0,0:0:0:0:
71,359,81650,5,10,0:2:0:0:
71,359,81800,1,0,1:2:0:0:
59,264,81950,1,8,0:2:0:0:
59,264,82100,1,0,1:2:0:0:
152,223,82250,1,10,0:0:0:0:
152,223,82400,2,0,P|153:183|138:143,1,77.0000023498536,8|8,0:3|0:0,0:0:0:0:
101,67,82700,6,0,B|171:31|165:103|255:62,1,140,4|2,1:2|1:2,0:0:0:0:
322,24,83150,2,0,P|316:66|348:109,1,70,10|2,0:2|0:0,0:0:0:0:
424,86,83450,2,0,P|430:44|398:1,2,70,2|2|10,1:2|1:2|0:2,0:0:0:0:
380,174,83900,2,0,B|357:205|357:205|388:315,1,140,6|2,1:2|1:2,0:0:0:0:
310,366,84350,2,0,P|283:334|235:333,1,70,10|2,0:2|0:0,0:0:0:0:
169,376,84650,1,2,1:2:0:0:
169,376,84800,2,0,L|164:298,1,70,2|10,1:2|0:2,0:0:0:0:
122,217,85100,6,0,B|176:204|176:204|208:223|208:223|273:209,1,140,6|2,1:2|1:2,0:0:0:0:
337,266,85550,2,0,P|352:205|347:183,1,70,10|2,0:2|0:0,0:0:0:0:
287,125,85850,2,0,P|257:106|236:79,2,70,2|2|10,1:2|1:2|0:2,0:0:0:0:
384,107,86300,2,0,P|417:116|456:227,1,140,6|2,1:2|1:2,0:0:0:0:
499,295,86750,2,0,P|457:287|421:303,1,70,10|2,0:2|0:0,0:0:0:0:
361,364,87050,1,2,1:2:0:0:
336,269,87200,1,2,1:2:0:0:
336,269,87350,1,10,0:2:0:0:
261,332,87500,6,0,P|301:267|274:187,1,140,6|2,1:2|1:2,0:0:0:0:
202,252,87950,2,0,L|130:239,1,70,10|2,0:2|0:0,0:0:0:0:
45,194,88250,2,0,P|32:226|33:261,2,70,2|2|10,1:2|1:2|0:2,0:0:0:0:
75,100,88700,2,0,B|127:93|127:93|154:113|154:113|211:107,1,140,6|2,1:2|1:2,0:0:0:0:
285,47,89150,2,0,L|355:57,1,70,10|2,0:2|0:0,0:0:0:0:
435,113,89450,2,0,P|453:61|450:33,2,70,2|2|10,1:2|1:2|0:2,0:0:0:0:
396,203,89900,6,0,B|322:227|338:153|251:184,1,140,6|2,1:2|1:2,0:0:0:0:
174,140,90350,2,0,P|162:175|168:213,1,70,10|0,0:2|0:0,0:0:0:0:
242,268,90650,1,2,1:2:0:0:
242,268,90800,1,2,1:2:0:0:
182,345,90950,2,0,P|153:321|115:314,1,70,10|6,0:2|1:2,0:0:0:0:
30,349,91250,1,2,0:0:0:0:
30,349,91400,1,2,1:2:0:0:
53,253,91550,2,0,L|46:180,1,70,10|2,0:2|0:0,0:0:0:0:
79,90,91850,2,0,L|66:53,4,35,10|8|10|8|10,0:2|0:3|0:3|0:3|0:0,0:0:0:0:
142,164,92300,6,0,B|167:165|190:153|190:153|216:173|216:173|242:157|288:160,1,140,6|2,1:2|1:2,0:0:0:0:
349,217,92750,2,0,L|431:201,1,70,10|2,0:2|0:0,0:0:0:0:
497,147,93050,2,0,L|510:215,2,70,2|2|10,1:2|1:2|0:2,0:0:0:0:
446,63,93500,2,0,B|411:88|411:88|315:73,1,140,6|2,1:2|1:2,0:0:0:0:
226,31,93950,2,0,L|150:42,1,70,10|2,0:2|0:0,0:0:0:0:
68,83,94250,2,0,L|-21:71,2,70,2|2|10,1:2|1:2|0:2,0:0:0:0:
154,128,94700,6,0,B|192:115|192:115|186:230,1,140,6|2,1:2|1:2,0:0:0:0:
106,272,95150,2,0,P|157:309|191:312,1,70,10|2,0:2|0:0,0:0:0:0:
252,349,95450,2,0,P|258:286|244:255,2,70,2|2|10,1:2|1:2|0:2,0:0:0:0:
344,383,95900,2,0,P|360:322|342:234,1,140,6|2,1:2|1:2,0:0:0:0:
442,222,96350,2,0,P|419:182|382:162,1,70,10|2,0:2|0:0,0:0:0:0:
302,162,96650,1,2,1:2:0:0:
354,79,96800,1,2,1:2:0:0:
354,79,96950,1,10,0:2:0:0:
266,34,97100,6,0,B|217:34|217:34|189:58|189:58|121:55,1,140,6|2,1:2|1:2,0:0:0:0:
42,22,97550,2,0,P|34:63|45:93,1,70,10|2,0:2|0:0,0:0:0:0:
124,143,97850,2,0,P|157:151|182:176,2,70,2|2|10,1:2|1:2|0:2,0:0:0:0:
38,190,98300,6,0,B|1:184|1:184|32:310,1,140,6|2,1:2|1:2,0:0:0:0:
97,350,98750,2,0,P|128:314|159:312,1,70,10|2,0:2|0:0,0:0:0:0:
244,294,99050,1,2,1:2:0:0:
307,368,99200,1,10,0:0:0:0:
307,368,99350,1,2,1:2:0:0:
177,220,99650,5,2,0:0:0:0:
177,220,99800,1,2,0:0:0:0:
367,175,100100,5,2,0:0:0:0:
367,175,100250,1,2,0:0:0:0:
237,28,100550,5,2,0:0:0:0:
237,28,100700,1,2,0:0:0:0:
93,161,101000,6,0,L|13:151,2,70,2|2|2,0:0|0:0|0:0,0:0:0:0:
163,102,101450,1,10,0:0:0:0:
163,102,101600,1,10,0:0:0:0:
180,191,101750,1,8,0:0:0:0:
248,131,101900,5,2,1:2:0:0:
256,192,102050,12,0,109250,0:0:0:0:
