osu file format v14

[General]
AudioFilename: audio.mp3
AudioLeadIn: 0
PreviewTime: 43892
Countdown: 0
SampleSet: Soft
StackLeniency: 0.7
Mode: 0
LetterboxInBreaks: 0
WidescreenStoryboard: 1

[Editor]
Bookmarks: 10742,25292,44492,63542,82742,101942
DistanceSpacing: 1.2
BeatDivisor: 4
GridSize: 32
TimelineZoom: 2

[Metadata]
Title:STAY ONE
TitleUnicode:STAY ONE
Artist:THE ORAL CIGARETTES
ArtistUnicode:THE ORAL CIGARETTES
Creator:MoonLightOri
Version:Hard
Source:
Tags:jrock japanese rock punk fixion cut version ver dashyy- xahlt hakashii soue
BeatmapID:2259062
BeatmapSetID:1058409

[Difficulty]
HPDrainRate:4.4
CircleSize:3.6
OverallDifficulty:6
ApproachRate:8
SliderMultiplier:1.48
SliderTickRate:1

[Events]
//Background and Video events
0,0,"stayonebg.jpg",0,0
//Break Periods
//Storyboard Layer 0 (Background)
//Storyboard Layer 1 (Fail)
//Storyboard Layer 2 (Pass)
//Storyboard Layer 3 (Foreground)
//Storyboard Layer 4 (Overlay)
//Storyboard Sound Samples

[TimingPoints]
92,300,4,2,1,48,1,0
92,-105.263157894737,4,2,1,48,0,0
992,-105.263157894737,4,2,1,56,0,0
10742,-100,4,2,1,73,0,0
25292,-117.647058823529,4,2,1,62,0,0
25517,-117.647058823529,4,2,1,5,0,0
25592,-117.647058823529,4,2,1,62,0,0
27917,-117.647058823529,4,2,1,5,0,0
27992,-117.647058823529,4,2,1,62,0,0
30317,-117.647058823529,4,2,1,5,0,0
30392,-117.647058823529,4,2,1,62,0,0
39692,-117.647058823529,4,2,1,57,0,0
41792,-107.52688172043,4,2,1,60,0,0
42317,-107.52688172043,4,2,1,5,0,0
42392,-100,4,2,1,70,0,0
43892,-117.64705882353,4,2,1,60,0,0
44492,-100,4,2,1,78,0,1
82742,-100,4,2,1,71,0,0
99692,-125,4,2,1,71,0,0
101492,-100,4,2,1,71,0,0
102092,-100,4,2,1,5,0,0

[Colours]
Combo1 : 255,255,125
Combo2 : 192,192,192
Combo3 : 38,164,238

[HitObjects]
153,176,92,5,8,0:0:0:0:
72,149,392,1,8,0:0:0:0:
72,65,692,1,8,0:0:0:0:
153,39,992,1,8,0:0:0:0:
153,39,1142,6,0,B|240:60|210:4|307:28,1,140.599996245575,6|0,0:2|1:2,0:0:0:0:
372,36,1592,1,10,0:0:0:0:
422,103,2192,1,10,0:0:0:0:
388,180,2792,1,8,0:0:0:0:
420,256,3392,1,8,0:0:0:0:
420,256,3542,6,0,P|359:257|307:172,1,140.599996245575,6|2,0:0|1:2,0:0:0:0:
337,121,3992,1,10,0:0:0:0:
254,138,4592,1,10,0:0:0:0:
183,91,5192,1,8,0:0:0:0:
99,81,5792,1,10,0:0:0:0:
99,81,5942,6,0,B|81:127|81:127|107:228,1,140.599996245575,6|2,0:2|1:2,0:0:0:0:
128,295,6392,1,10,0:0:0:0:
209,271,6992,1,10,0:0:0:0:
240,192,7592,1,8,0:0:0:0:
298,131,8192,1,8,0:0:0:0:
298,131,8342,6,0,P|356:114|375:25,1,140.599996245575,6|2,0:0|1:2,0:0:0:0:
296,47,8792,2,0,B|249:84|249:84|262:245,1,210.899994368363,10|2,0:0|1:2,0:0:0:0:
294,315,9392,1,10,0:0:0:0:
294,315,9542,1,0,0:0:0:0:
344,382,9842,1,0,0:0:0:0:
423,355,10142,1,0,0:0:0:0:
423,271,10442,1,0,0:0:0:0:
294,315,10742,6,0,P|205:270|174:291,1,148,6|2,1:2|1:2,0:0:0:0:
113,348,11192,2,0,L|18:356,1,74,10|2,0:2|0:2,0:0:0:0:
5,272,11492,2,0,L|-2:184,2,74,2|2|10,1:2|0:2|0:2,0:0:0:0:
93,260,11942,2,0,B|143:275|143:275|259:227,1,148,2|2,0:2|0:2,0:0:0:0:
272,158,12392,2,0,L|266:84,1,74,8|2,0:2|0:2,0:0:0:0:
222,12,12692,1,2,1:2:0:0:
222,12,12842,2,0,P|182:5|121:17,1,74,2|10,1:2|0:2,0:0:0:0:
266,84,13142,6,0,B|371:81|312:36|417:28,1,148,6|2,1:2|1:2,0:0:0:0:
488,30,13592,1,10,0:2:0:0:
445,109,13742,1,2,0:2:0:0:
445,109,13892,2,0,L|455:188,1,74,2|2,1:2|0:2,0:0:0:0:
380,232,14192,2,0,L|370:305,1,74,10|2,0:2|0:2,0:0:0:0:
287,337,14492,2,0,P|251:347|214:346,2,74,2|2|10,1:2|0:2|0:2,0:0:0:0:
370,305,14942,1,2,0:2:0:0:
327,227,15092,2,0,P|286:216|229:225,1,74,2|2,1:2|1:2,0:0:0:0:
170,245,15392,1,10,0:2:0:0:
160,384,15542,6,0,B|127:353|127:353|142:215,1,148,6|2,1:2|1:2,0:0:0:0:
96,175,15992,2,0,P|67:161|21:163,1,74,10|2,0:2|0:2,0:0:0:0:
47,247,16292,2,0,L|37:331,2,74,2|2|10,1:2|0:2|0:2,0:0:0:0:
96,175,16742,2,0,P|140:131|241:144,1,148,2|2,0:2|0:2,0:0:0:0:
288,190,17192,1,10,0:2:0:0:
311,107,17342,1,2,0:2:0:0:
311,107,17492,2,0,L|321:13,1,74,2|2,1:2|1:2,0:0:0:0:
230,46,17792,1,8,0:2:0:0:
100,80,17942,6,0,B|124:124|124:124|268:134,1,148,6|2,1:2|1:2,0:0:0:0:
288,190,18392,2,0,P|298:227|281:288,1,74,10|2,0:2|0:2,0:0:0:0:
231,326,18692,2,0,L|140:334,1,74,2|2,1:2|0:2,0:0:0:0:
93,270,18992,1,10,0:2:0:0:
316,335,19292,6,0,L|319:286,3,37,10|8|10|8,0:2|0:2|0:2|0:2,0:0:0:0:
293,261,19592,2,0,L|286:188,1,74,10|0,0:2|0:2,0:0:0:0:
331,110,19892,2,0,P|365:98|417:101,1,74,2|2,1:2|1:2,0:0:0:0:
465,161,20192,1,10,0:2:0:0:
381,251,20342,6,0,B|296:238|337:196|251:182,1,148,4|2,1:2|1:2,0:0:0:0:
175,222,20792,2,0,L|167:309,1,74,10|2,0:2|0:2,0:0:0:0:
97,349,21092,2,0,P|56:340|13:291,2,74,2|2|10,1:2|0:2|0:2,0:0:0:0:
168,295,21542,2,0,P|224:271|317:301,1,148,2|2,0:2|0:2,0:0:0:0:
373,233,21992,2,0,P|414:227|458:188,1,74,10|2,0:2|0:2,0:0:0:0:
412,130,22292,1,2,1:2:0:0:
412,130,22442,2,0,L|404:39,1,74,2|10,1:2|0:2,0:0:0:0:
294,130,22742,6,0,B|299:183|299:183|331:226|331:226|335:298,1,148,6|2,1:2|1:2,0:0:0:0:
270,330,23192,1,10,0:2:0:0:
236,252,23342,1,2,0:2:0:0:
236,252,23492,2,0,L|136:261,1,74,2|2,1:2|0:2,0:0:0:0:
103,192,23792,2,0,P|90:158|93:100,1,74,10|2,0:2|0:2,0:0:0:0:
155,62,24092,2,0,L|255:71,1,74,10|10,0:0|0:0,0:0:0:0:
280,141,24392,2,0,L|353:134,1,74,10|2,0:0|0:0,0:0:0:0:
422,77,24692,1,2,1:2:0:0:
422,77,24842,1,2,1:2:0:0:
451,165,24992,1,10,0:2:0:0:
451,165,25142,1,2,0:2:0:0:
385,222,25292,6,0,B|348:241|348:241|271:231,1,94.3500017995835,2|0,1:2|0:0,0:0:0:0:
258,229,25592,1,10,0:2:0:0:
121,293,25892,2,0,P|118:261|129:221,1,62.9000011997223,0|0,0:0|1:0,0:0:0:0:
179,179,26192,2,0,L|307:171,1,125.800002399445,8|0,0:0|1:0,0:0:0:0:
298,28,26792,2,0,L|226:32,1,62.9000011997223,8|2,0:0|1:2,0:0:0:0:
169,64,27092,1,2,0:0:0:0:
169,64,27242,1,0,1:0:0:0:
228,111,27392,2,0,P|238:142|240:186,1,62.9000011997223,10|0,0:0|0:0,0:0:0:0:
283,235,27692,6,0,B|251:249|251:249|171:238,1,94.3500017995835,2|0,1:2|0:0,0:0:0:0:
163,216,27992,2,0,L|84:223,1,62.9000011997223,10|2,0:0|1:2,0:0:0:0:
53,281,28292,1,0,0:0:0:0:
53,281,28442,1,2,1:2:0:0:
105,334,28592,2,0,P|140:334|187:318,1,62.9000011997223,8|2,2:0|0:0,0:0:0:0:
236,293,28892,2,0,P|171:264|169:199,1,125.800002399445,0|8,1:0|0:0,0:0:0:0:
209,155,29342,1,2,1:2:0:0:
209,155,29492,2,0,L|293:147,2,62.9000011997223,2|2|10,0:0|1:2|0:0,0:0:0:0:
162,215,29942,1,2,0:2:0:0:
102,168,30092,6,0,B|87:135|87:135|96:57,1,94.3500017995835,2|0,1:2|0:0,0:0:0:0:
101,40,30392,1,10,0:0:0:0:
244,85,30692,2,0,L|325:78,1,62.9000011997223,0|0,0:0|1:0,0:0:0:0:
338,11,30992,2,0,B|318:80|372:59|345:131,1,125.800002399445,8|0,0:0|1:0,0:0:0:0:
294,268,31592,2,0,L|289:205,1,62.9000011997223,8|2,0:0|1:2,0:0:0:0:
221,185,31892,1,2,0:0:0:0:
221,185,32042,1,2,1:2:0:0:
169,239,32192,2,0,P|165:275|173:306,1,62.9000011997223,10|2,0:0|0:2,0:0:0:0:
214,362,32492,6,0,L|311:353,1,94.3500017995835,2|0,1:2|0:0,0:0:0:0:
341,334,32792,2,0,L|404:339,1,62.9000011997223,10|0,0:2|1:2,0:0:0:0:
475,374,33092,1,0,0:0:0:0:
475,374,33242,1,0,1:0:0:0:
495,301,33392,2,0,P|493:266|470:222,1,62.9000011997223,10|2,0:2|0:0,0:0:0:0:
461,167,33692,2,0,B|422:187|422:187|338:175,1,125.800002399445,0|8,1:0|0:0,0:0:0:0:
285,122,34142,1,2,1:2:0:0:
247,187,34292,2,0,P|245:223|259:265,2,62.9000011997223,2|2|8,0:0|1:2|0:0,0:0:0:0:
285,122,34742,1,2,0:2:0:0:
243,59,34892,6,0,L|113:49,1,125.800002399445,2|10,1:2|0:2,0:0:0:0:
50,85,35342,1,2,1:2:0:0:
50,85,35492,2,0,P|40:118|43:148,1,62.9000011997223,0|2,0:0|1:2,0:0:0:0:
25,220,35792,2,0,P|107:193|117:137,1,125.800002399445,10|2,0:0|1:2,0:0:0:0:
168,105,36242,1,0,1:0:0:0:
203,171,36392,2,0,L|211:248,1,62.9000011997223,8|0,0:0|1:0,0:0:0:0:
159,289,36692,1,2,0:2:0:0:
159,289,36842,1,2,1:2:0:0:
218,335,36992,2,0,P|253:333|284:323,1,62.9000011997223,10|2,0:0|0:2,0:0:0:0:
348,354,37292,6,0,B|326:323|326:323|334:224,1,125.800002399445,2|10,1:2|0:0,0:0:0:0:
386,181,37742,1,2,1:2:0:0:
386,181,37892,2,0,P|353:164|310:162,1,62.9000011997223,0|2,0:0|1:2,0:0:0:0:
263,201,38192,1,8,0:0:0:0:
186,70,38492,5,8,0:0:0:0:
171,144,38642,1,10,0:2:0:0:
300,66,38942,1,0,1:0:0:0:
300,66,39092,2,0,L|383:57,1,62.9000011997223,10|2,1:2|0:0,0:0:0:0:
426,19,39392,2,0,P|437:52|433:86,1,62.9000011997223,10|2,1:2|0:0,0:0:0:0:
395,144,39692,6,0,P|382:210|416:268,2,125.800002399445,2|2|10,1:2|0:2|0:2,0:0:0:0:
283,246,40592,2,0,P|253:268|208:265,1,62.9000011997223,2|2,1:2|0:2,0:0:0:0:
168,232,40892,1,0,1:0:0:0:
168,232,41042,1,0,1:0:0:0:
229,188,41192,2,0,L|220:124,1,62.9000011997223,2|0,0:2|1:0,0:0:0:0:
167,72,41492,2,0,P|135:61|80:63,1,62.9000011997223,10|0,0:2|0:0,0:0:0:0:
51,120,41792,2,0,L|48:159,3,34.4100010763626,10|8|8|8,0:0|0:0|0:0|0:0,0:0:0:0:
73,187,42092,6,0,L|84:328,1,137.640004305451,10|10,0:0|0:0,0:0:0:0:
166,289,42542,1,0,1:0:0:0:
239,347,42692,1,10,0:0:0:0:
239,347,42842,1,0,1:0:0:0:
329,331,42992,1,8,0:0:0:0:
329,331,43142,1,0,1:0:0:0:
362,248,43292,5,10,0:0:0:0:
362,248,43892,2,0,L|426:244,2,62.9000011997223,2|2|2,0:0|0:0|0:0,0:0:0:0:
319,185,44342,1,2,0:0:0:0:
251,277,44492,6,0,B|175:283|208:244|120:239,1,111,6|0,1:2|0:0,0:0:0:0:
103,246,44792,1,10,0:2:0:0:
35,304,44942,1,2,1:2:0:0:
17,217,45092,2,0,L|30:115,1,74,2|0,1:2|0:0,0:0:0:0:
87,79,45392,1,10,0:0:0:0:
87,79,45542,1,2,1:2:0:0:
141,148,45692,6,0,B|166:178|166:178|246:171,1,111,2|0,0:2|0:0,0:0:0:0:
282,167,45992,1,10,0:2:0:0:
352,113,46142,2,0,P|368:149|364:199,1,74,2|0,0:2|1:0,0:0:0:0:
312,251,46442,1,0,1:0:0:0:
398,270,46592,1,10,0:0:0:0:
312,360,46742,6,0,P|226:345|211:261,1,148,6|0,0:2|0:0,0:0:0:0:
148,226,47192,2,0,L|71:235,1,74,8|0,0:0|0:0,0:0:0:0:
9,172,47492,1,0,1:0:0:0:
9,172,47642,1,0,1:0:0:0:
74,112,47792,2,0,P|112:102|147:103,1,74,8|0,0:0|0:0,0:0:0:0:
217,158,48092,5,0,1:0:0:0:
217,158,48242,1,0,1:0:0:0:
271,228,48392,2,0,P|306:237|343:236,1,74,8|0,0:0|0:0,0:0:0:0:
404,170,48692,2,0,L|396:80,2,74,2|2|10,0:0|1:2|0:0,0:0:0:0:
452,244,49142,1,2,1:2:0:0:
373,320,49292,6,0,B|339:338|339:338|239:325,1,111,6|0,1:2|0:0,0:0:0:0:
222,324,49592,1,10,0:0:0:0:
173,249,49742,1,2,1:2:0:0:
260,234,49892,2,0,L|343:227,1,74,2|0,1:2|0:0,0:0:0:0:
397,166,50192,1,10,0:0:0:0:
397,166,50342,1,2,1:2:0:0:
329,107,50492,6,0,L|255:100,1,74,2|2,0:2|1:2,0:0:0:0:
191,162,50792,1,8,0:0:0:0:
132,228,50942,2,0,P|105:190|114:135,1,74,2|0,0:2|1:0,0:0:0:0:
140,83,51242,1,0,1:0:0:0:
51,93,51392,1,10,0:2:0:0:
137,0,51542,6,0,P|215:32|224:97,1,148,6|0,0:2|0:0,0:0:0:0:
280,159,51992,2,0,P|305:128|311:71,1,74,8|0,0:0|0:0,0:0:0:0:
387,45,52292,1,0,1:0:0:0:
387,45,52442,1,0,1:0:0:0:
449,108,52592,2,0,L|460:196,1,74,8|0,0:0|0:0,0:0:0:0:
409,256,52892,5,0,1:0:0:0:
409,256,53042,1,0,1:0:0:0:
339,201,53192,2,0,L|243:191,1,74,8|0,0:0|0:0,0:0:0:0:
203,129,53492,2,0,L|164:134,3,37,10|8|10|8,0:2|0:0|0:2|0:0,0:0:0:0:
127,110,53792,2,0,L|90:105,3,37,10|8|10|8,0:2|0:0|0:2|0:0,0:0:0:0:
62,140,54092,6,0,B|44:172|44:172|62:276,1,111,6|0,1:2|0:0,0:0:0:0:
68,288,54392,1,10,0:2:0:0:
136,231,54542,1,2,1:2:0:0:
162,315,54692,2,0,L|251:305,1,74,2|0,1:2|0:0,0:0:0:0:
299,245,54992,1,10,0:2:0:0:
299,245,55142,1,2,1:2:0:0:
375,290,55292,6,0,P|389:234|360:174,1,111,2|0,0:0|0:0,0:0:0:0:
337,155,55592,1,10,0:2:0:0:
382,78,55742,2,0,L|455:69,1,74,0|0,0:0|1:0,0:0:0:0:
512,138,56042,1,0,1:0:0:0:
453,205,56192,1,10,0:2:0:0:
337,155,56342,6,0,B|295:242|368:222|324:317,1,148,6|0,0:2|0:0,0:0:0:0:
249,265,56792,2,0,L|157:256,1,74,8|0,0:0|0:0,0:0:0:0:
124,192,57092,1,0,1:0:0:0:
124,192,57242,1,0,1:0:0:0:
87,110,57392,2,0,P|49:130|32:177,1,74,8|0,0:0|0:0,0:0:0:0:
52,243,57692,5,0,1:0:0:0:
52,243,57842,1,0,1:0:0:0:
124,192,57992,2,0,L|197:185,1,74,8|0,0:0|0:0,0:0:0:0:
253,115,58292,2,0,P|256:73|240:25,2,74,2|2|10,0:0|1:2|0:0,0:0:0:0:
198,185,58742,1,2,1:2:0:0:
298,266,58892,6,0,P|361:264|404:216,1,111,6|0,1:2|0:0,0:0:0:0:
418,196,59192,1,10,0:2:0:0:
472,266,59342,1,2,1:2:0:0:
502,182,59492,2,0,L|493:93,1,74,2|0,1:2|0:0,0:0:0:0:
433,43,59792,1,10,0:0:0:0:
433,43,59942,1,2,1:2:0:0:
384,117,60092,6,0,P|349:130|299:127,1,74,2|2,0:0|1:2,0:0:0:0:
247,68,60392,1,8,0:0:0:0:
205,146,60542,2,0,L|211:236,1,74,2|0,0:2|1:0,0:0:0:0:
245,301,60842,1,0,1:0:0:0:
302,233,60992,1,10,0:0:0:0:
368,339,61142,6,0,B|417:339|417:339|461:320|461:320|512:320,1,148,6|0,0:2|0:0,0:0:0:0:
486,234,61592,2,0,P|450:212|395:205,1,74,8|0,0:0|0:0,0:0:0:0:
346,255,61892,1,0,1:0:0:0:
346,255,62042,1,0,1:0:0:0:
295,181,62192,2,0,P|280:140|284:92,1,74,8|0,0:0|0:0,0:0:0:0:
343,46,62492,6,0,L|384:40,3,37,8|8|8|8,0:0|0:0|0:0|0:0,0:0:0:0:
412,71,62792,2,0,L|509:83,1,74,10|0,0:2|1:0,0:0:0:0:
439,157,63092,1,10,0:0:0:0:
439,157,63242,1,0,1:0:0:0:
486,234,63392,1,8,0:0:0:0:
394,321,63542,6,0,B|302:311|352:366|237:362,1,148,6|2,1:2|1:2,0:0:0:0:
201,292,63992,2,0,L|191:198,1,74,10|0,0:2|0:0,0:0:0:0:
248,152,64292,2,0,P|284:155|318:170,2,74,2|2|10,1:2|1:2|0:2,0:0:0:0:
179,96,64742,2,0,P|146:111|85:111,1,74,2|0,1:2|0:0,0:0:0:0:
27,79,65042,1,2,1:2:0:0:
35,167,65192,2,0,L|44:255,1,74,10|0,0:0|0:0,0:0:0:0:
88,316,65492,2,0,P|45:331|0:316,2,74,2|2|10,1:2|1:2|0:0,0:0:0:0:
199,258,65942,6,0,P|266:255|339:327,1,148,6|0,1:2|1:0,0:0:0:0:
402,350,66392,2,0,L|412:257,1,74,10|0,0:2|2:0,0:0:0:0:
353,207,66692,2,0,L|345:133,1,74,2|0,1:2|1:0,0:0:0:0:
285,67,66992,1,10,0:2:0:0:
210,119,67142,2,0,B|184:156|184:156|201:272,1,148,2|0,1:2|1:0,0:0:0:0:
260,322,67592,2,0,P|297:300|348:294,1,74,10|0,0:2|0:0,0:0:0:0:
407,331,67892,1,2,1:2:0:0:
398,242,68042,2,0,L|389:156,1,74,0|10,1:0|0:0,0:0:0:0:
275,218,68342,6,0,P|200:221|139:165,1,148,6|2,1:2|1:2,0:0:0:0:
79,117,68792,2,0,P|62:154|61:200,1,74,10|0,0:2|0:0,0:0:0:0:
110,260,69092,2,0,P|126:297|128:343,2,74,2|2|10,1:2|1:2|0:2,0:0:0:0:
145,177,69542,2,0,P|166:161|225:148,1,74,2|0,1:2|0:0,0:0:0:0:
280,204,69842,1,2,1:2:0:0:
203,248,69992,2,0,L|209:321,1,74,10|0,0:0|0:0,0:0:0:0:
279,377,70292,2,0,P|320:380|364:359,2,74,2|2|10,1:2|1:2|0:2,0:0:0:0:
175,304,70742,6,0,B|91:303|126:353|39:350,1,148,6|0,1:2|1:0,0:0:0:0:
8,266,71192,2,0,L|22:168,1,74,10|0,0:0|0:0,0:0:0:0:
64,115,71492,1,2,1:2:0:0:
118,194,71642,2,0,P|161:166|205:163,1,74,2|8,1:2|0:0,0:0:0:0:
262,200,71942,2,0,P|306:222|427:208,1,148,2|2,1:2|1:2,0:0:0:0:
474,166,72392,2,0,P|488:203|485:254,1,74,10|0,0:0|0:0,0:0:0:0:
441,312,72692,2,0,L|392:320,3,37,8|8|8|8,0:0|0:0|0:0|0:0,0:0:0:0:
372,286,72992,2,0,L|335:280,3,37,10|8|10|8,0:2|0:0|0:0|0:0,0:0:0:0:
296,301,73292,6,0,P|261:257|162:275,1,148,6|10,1:2|0:0,0:0:0:0:
98,213,73742,2,0,L|89:122,1,74,2|0,1:2|1:0,0:0:0:0:
151,73,74042,1,0,0:0:0:0:
213,136,74192,2,0,P|249:147|310:142,1,74,10|2,0:2|1:2,0:0:0:0:
361,102,74492,2,0,P|339:141|363:239,1,148,2|8,1:2|0:0,0:0:0:0:
297,299,74942,1,0,0:0:0:0:
297,299,75092,2,0,L|192:309,1,74,2|0,1:2|0:0,0:0:0:0:
158,244,75392,1,10,0:2:0:0:
99,310,75542,1,2,1:2:0:0:
35,201,75692,6,0,B|64:166|64:166|185:156,1,148,6|10,1:2|0:2,0:0:0:0:
241,205,76142,2,0,P|257:242|258:302,1,74,2|0,1:2|1:0,0:0:0:0:
206,345,76442,1,2,0:0:0:0:
206,345,76592,1,10,0:0:0:0:
294,349,76742,2,0,L|367:338,1,74,2|0,1:2|0:0,0:0:0:0:
411,261,77042,2,0,B|431:222|431:222|414:90,1,148,2|0,1:2|0:0,0:0:0:0:
347,63,77492,1,2,1:2:0:0:
347,63,77642,1,2,1:2:0:0:
280,122,77792,2,0,L|196:128,1,74,10|2,0:0|0:0,0:0:0:0:
113,213,78092,6,0,L|276:202,1,148,6|10,1:2|0:2,0:0:0:0:
332,256,78542,2,0,P|338:293|321:347,1,74,2|0,1:2|1:0,0:0:0:0:
253,289,78842,1,0,0:0:0:0:
189,351,78992,2,0,L|109:343,1,74,8|0,0:0|1:0,0:0:0:0:
65,270,79292,2,0,L|57:177,2,74,0|0|8,1:2|0:0|0:0,0:0:0:0:
115,343,79742,1,0,0:0:0:0:
152,262,79892,2,0,L|144:169,2,74,0|0|10,1:0|0:0|0:2,0:0:0:0:
373,129,80492,6,0,B|290:123|334:178|236:175,1,148,6|10,1:2|0:0,0:0:0:0:
176,112,80942,2,0,P|149:156|156:201,1,74,2|0,1:2|1:0,0:0:0:0:
198,251,81242,1,0,0:0:0:0:
145,322,81392,2,0,L|71:330,1,74,10|0,0:2|0:0,0:0:0:0:
24,261,81692,5,10,0:0:0:0:
24,261,81842,1,0,1:0:0:0:
56,180,81992,1,8,0:0:0:0:
56,180,82142,1,0,1:0:0:0:
122,120,82292,2,0,L|111:42,2,74,10|0|0,0:0|1:0|1:0,0:0:0:0:
245,56,82742,6,0,B|272:88|272:88|388:77,1,148,6|2,1:2|1:2,0:0:0:0:
450,26,83192,2,0,P|465:60|456:120,1,74,10|2,0:0|0:0,0:0:0:0:
400,157,83492,2,0,L|407:246,2,74,2|2|10,1:2|0:2|0:2,0:0:0:0:
313,175,83942,2,0,B|286:143|286:143|170:154,1,148,2|2,1:2|1:2,0:0:0:0:
123,222,84392,2,0,P|111:255|124:313,1,74,10|2,0:2|0:2,0:0:0:0:
179,354,84692,1,2,1:2:0:0:
179,354,84842,2,0,L|271:345,1,74,2|10,0:2|0:2,0:0:0:0:
346,244,85142,6,0,L|183:260,1,148,6|2,1:2|1:2,0:0:0:0:
123,222,85592,2,0,P|104:176|109:131,1,74,10|2,0:2|0:2,0:0:0:0:
159,82,85892,1,2,1:2:0:0:
159,82,86042,1,2,0:2:0:0:
223,143,86192,1,10,0:2:0:0:
263,64,86342,2,0,L|349:56,1,74,2|0,1:2|0:0,0:0:0:0:
419,90,86642,1,2,1:2:0:0:
363,159,86792,2,0,P|350:196|361:252,1,74,10|2,0:2|0:2,0:0:0:0:
418,297,87092,1,2,1:2:0:0:
418,297,87242,1,2,0:2:0:0:
339,339,87392,1,10,0:2:0:0:
264,241,87542,6,0,B|173:241|223:287|105:289,1,148,6|2,1:2|1:2,0:0:0:0:
68,220,87992,2,0,P|52:182|56:125,1,74,10|2,0:2|0:2,0:0:0:0:
98,75,88292,2,0,P|114:37|110:-20,2,74,2|2|10,1:2|0:2|0:2,0:0:0:0:
50,149,88742,2,0,B|91:175|91:175|210:167,1,148,2|2,1:2|1:2,0:0:0:0:
244,97,89192,2,0,P|270:124|279:176,1,74,10|2,0:2|0:2,0:0:0:0:
247,240,89492,1,2,1:2:0:0:
247,240,89642,2,0,L|336:231,1,74,2|10,0:2|0:2,0:0:0:0:
395,130,89942,6,0,P|449:196|440:274,1,148,6|2,1:2|1:2,0:0:0:0:
380,312,90392,2,0,L|306:319,1,74,10|2,0:2|0:2,0:0:0:0:
249,250,90692,1,2,1:2:0:0:
249,250,90842,1,2,0:2:0:0:
187,314,90992,2,0,P|161:276|164:222,1,74,10|2,0:2|0:2,0:0:0:0:
199,172,91292,1,2,1:2:0:0:
199,172,91442,1,2,0:2:0:0:
248,98,91592,2,0,P|267:52|248:5,1,74,10|2,0:2|0:2,0:0:0:0:
175,49,91892,2,0,L|125:54,4,37,10|8|10|8|10,0:0|0:0|0:0|0:0|0:0,0:0:0:0:
98,94,92342,6,0,B|119:131|119:131|102:267,1,148,6|2,1:2|1:2,0:0:0:0:
45,301,92792,2,0,P|83:325|137:318,1,74,10|2,0:2|0:2,0:0:0:0:
186,278,93092,2,0,P|215:256|252:252,2,74,2|2|10,1:2|0:2|0:2,0:0:0:0:
247,342,93542,2,0,B|335:349|297:297|385:305,1,148,2|2,0:2|1:2,0:0:0:0:
465,341,93992,2,0,L|474:244,1,74,10|2,0:2|0:2,0:0:0:0:
434,192,94292,1,2,1:2:0:0:
434,192,94442,2,0,P|403:174|341:178,1,74,2|10,0:2|0:2,0:0:0:0:
258,236,94742,6,0,P|202:264|99:236,1,148,6|2,1:2|1:2,0:0:0:0:
53,192,95192,2,0,L|70:93,1,74,10|2,0:2|0:2,0:0:0:0:
124,52,95492,1,2,1:2:0:0:
124,52,95642,1,2,0:2:0:0:
179,120,95792,1,10,0:2:0:0:
244,59,95942,2,0,L|331:50,1,74,2|2,1:2|0:2,0:0:0:0:
405,40,96242,1,2,1:2:0:0:
360,116,96392,2,0,P|350:157|358:202,1,74,10|2,0:2|0:2,0:0:0:0:
428,245,96692,1,2,1:2:0:0:
428,245,96842,1,2,0:2:0:0:
444,157,96992,1,10,0:2:0:0:
347,272,97142,6,0,B|312:303|312:303|200:286,1,148,6|2,1:2|1:2,0:0:0:0:
155,218,97592,2,0,L|146:138,1,74,10|2,0:2|0:2,0:0:0:0:
110,62,97892,2,0,P|70:46|15:49,2,74,2|2|10,1:2|0:2|0:2,0:0:0:0:
198,66,98342,2,0,B|298:61|245:14|350:9,1,148,2|2,1:2|1:2,0:0:0:0:
407,54,98792,2,0,L|414:140,1,74,10|2,0:2|0:2,0:0:0:0:
349,190,99092,1,2,1:2:0:0:
349,190,99242,1,2,0:2:0:0:
422,240,99392,1,2,0:2:0:0:
261,315,99692,6,0,P|225:319|184:303,1,59.2,2|2,1:2|0:2,0:0:0:0:
201,167,100142,2,0,P|222:196|229:239,1,59.2,2|2,1:2|0:2,0:0:0:0:
103,292,100592,2,0,P|117:258|151:231,1,59.2,2|2,1:2|0:2,0:0:0:0:
112,101,101042,6,0,L|118:169,2,59.2,2|2|2,1:2|0:2|1:2,0:0:0:0:
153,22,101492,1,10,0:2:0:0:
203,94,101642,1,2,1:2:0:0:
246,16,101792,1,10,0:2:0:0:
296,88,101942,5,2,1:2:0:0:
256,192,102092,12,0,109292,0:0:0:0:
