osu file format v14

[General]
AudioFilename: audio.mp3
AudioLeadIn: 0
PreviewTime: 43892
Countdown: 0
SampleSet: Soft
StackLeniency: 0.7
Mode: 0
LetterboxInBreaks: 0
WidescreenStoryboard: 1

[Editor]
Bookmarks: 10742,25292,44492,63542,82742,101942
DistanceSpacing: 0.9
BeatDivisor: 4
GridSize: 32
TimelineZoom: 2.2

[Metadata]
Title:STAY ONE
TitleUnicode:STAY ONE
Artist:THE ORAL CIGARETTES
ArtistUnicode:THE ORAL CIGARETTES
Creator:MoonLightOri
Version:Extra
Source:
Tags:jrock japanese rock punk fixion cut version ver dashyy- xahlt hakashii soue
BeatmapID:2216762
BeatmapSetID:1058409

[Difficulty]
HPDrainRate:5.4
CircleSize:3.8
OverallDifficulty:9.2
ApproachRate:9.4
SliderMultiplier:1.9
SliderTickRate:1

[Events]
//Background and Video events
0,0,"stayonebg.jpg",0,0
//Break Periods
//Storyboard Layer 0 (Background)
//Storyboard Layer 1 (Fail)
//Storyboard Layer 2 (Pass)
//Storyboard Layer 3 (Foreground)
//Storyboard Layer 4 (Overlay)
//Storyboard Sound Samples

[TimingPoints]
92,300,4,2,1,48,1,0
92,-142.857142857143,4,2,1,48,0,0
992,-142.857142857143,4,2,1,56,0,0
10742,-100,4,2,1,73,0,0
25292,-133.333333333333,4,2,1,62,0,0
39692,-153.846153846154,4,2,1,57,0,0
41792,-125,4,2,1,60,0,0
42317,-125,4,2,1,5,0,0
42392,-125,4,2,1,70,0,0
43892,-133.333333333333,4,2,1,60,0,0
44492,-100,4,2,1,78,0,1
82742,-107.52688172043,4,2,1,71,0,0
102092,-117.647058823529,4,2,1,5,0,0

[Colours]
Combo1 : 255,255,125
Combo2 : 192,192,192
Combo3 : 38,164,238

[HitObjects]
393,80,92,5,8,0:0:0:0:
393,80,392,1,8,0:0:0:0:
393,80,692,1,8,0:0:0:0:
393,80,992,1,8,0:0:0:0:
452,230,1142,6,0,B|361:215|409:281|292:260,1,132.999995941162,6|0,0:2|1:2,0:0:0:0:
223,127,1592,2,0,P|280:136|327:164,1,66.4999979705811,10|2,0:0|0:2,0:0:0:0:
197,238,1892,2,0,P|161:250|123:254,1,66.4999979705811,2|2,1:2|1:2,0:0:0:0:
11,122,2192,1,10,0:0:0:0:
65,311,2342,6,0,L|81:126,1,132.999995941162,2|2,1:2|1:2,0:0:0:0:
179,28,2792,1,8,0:0:0:0:
296,143,2942,2,0,P|255:136|214:123,1,66.4999979705811,2|0,0:0|1:0,0:0:0:0:
367,232,3242,2,0,P|403:221|440:214,1,66.4999979705811,2|8,1:2|0:0,1:0:0:0:
253,267,3542,6,0,P|196:281|223:367,1,132.999995941162,6|2,0:0|1:2,0:0:0:0:
367,232,3992,2,0,P|357:288|357:333,1,66.4999979705811,10|2,0:0|0:0,0:0:0:0:
448,181,4292,1,2,1:2:0:0:
296,143,4442,1,2,1:2:0:0:
436,277,4592,2,0,P|473:274|510:265,1,66.4999979705811,10|2,0:0|1:2,0:0:0:0:
395,109,4892,6,0,P|376:147|370:193,1,66.4999979705811,2|2,1:2|1:2,0:0:0:0:
328,334,5192,1,8,0:0:0:0:
231,246,5342,2,0,P|170:265|147:267,1,66.4999979705811,2|0,0:0|1:0,0:0:0:0:
39,204,5642,1,2,0:0:0:0:
111,343,5792,1,10,0:0:0:0:
205,177,5942,6,0,P|279:185|295:283,1,132.999995941162,6|2,0:2|1:2,0:0:0:0:
115,180,6392,2,0,P|122:141|139:102,1,66.4999979705811,10|2,0:0|0:0,0:0:0:0:
158,266,6692,2,0,P|122:279|84:284,1,66.4999979705811,2|2,1:2|1:2,1:0:0:0:
14,161,6992,1,10,0:0:0:0:
0,328,7142,6,0,L|15:147,1,132.999995941162,2|2,1:2|1:2,0:0:0:0:
68,25,7592,1,8,0:0:0:0:
174,127,7742,2,0,P|137:146|91:157,1,66.4999979705811,2|0,0:0|1:0,0:0:0:0:
35,41,8042,2,0,P|71:51|105:69,1,66.4999979705811,2|8,1:2|0:0,1:0:0:0:
218,231,8342,6,0,B|212:164|267:189|253:108,1,132.999995941162,6|2,0:0|1:2,0:0:0:0:
318,254,8792,2,0,P|350:248|381:236,1,66.4999979705811,10|2,0:0|0:0,0:0:0:0:
348,109,9092,1,2,1:2:0:0:
218,231,9242,1,2,1:2:0:0:
185,51,9392,1,10,0:0:0:0:
22,154,9542,5,10,0:0:0:0:
118,137,9842,1,10,0:0:0:0:
101,39,10142,1,10,0:0:0:0:
4,57,10442,1,10,0:0:0:0:
40,266,10742,6,0,B|166:251|86:331|243:311,1,190,6|2,1:2|1:2,0:2:0:0:
302,132,11192,2,0,P|292:190|275:224,1,95,10|2,0:2|0:2,0:2:0:0:
182,72,11492,1,2,1:2:0:0:
348,41,11642,1,2,0:2:0:0:
148,197,11792,2,0,P|106:191|61:161,1,95,10|2,0:2|0:2,0:2:0:0:
150,304,12092,5,2,1:2:0:0:
131,122,12242,1,2,0:2:0:0:
301,317,12392,1,8,0:2:0:0:
78,264,12542,1,2,0:2:0:0:
348,160,12692,1,2,1:2:0:0:
219,361,12842,1,2,1:2:0:0:
131,122,12992,1,10,0:2:0:0:
353,379,13142,6,0,P|380:296|284:239,1,190,6|2,1:2|1:2,0:2:0:0:
131,255,13592,2,0,P|165:279|230:294,1,95,10|2,0:2|0:2,0:2:0:0:
131,122,13892,1,2,1:2:0:0:
13,258,14042,1,2,0:2:0:0:
241,140,14192,2,0,P|239:90|205:26,1,95,10|2,0:2|0:2,0:2:0:0:
330,205,14492,5,2,1:2:0:0:
131,122,14642,1,2,0:2:0:0:
379,70,14792,1,10,0:2:0:0:
207,202,14942,1,2,0:2:0:0:
443,226,15092,1,2,1:2:0:0:
301,35,15242,1,2,1:2:0:0:
232,283,15392,1,10,0:2:0:0:
465,59,15542,6,0,P|430:140|321:135,1,190,6|2,1:2|1:2,0:2:0:0:
182,32,15992,2,0,P|232:19|308:28,1,95,10|2,0:2|0:2,0:2:0:0:
162,173,16292,1,2,1:2:0:0:
83,9,16442,1,2,0:2:0:0:
262,207,16592,2,0,P|237:247|178:267,1,95,10|2,0:2|0:2,0:2:0:0:
359,121,16892,5,2,1:2:0:0:
412,292,17042,1,2,0:2:0:0:
237,93,17192,1,10,0:2:0:0:
170,273,17342,1,2,0:2:0:0:
359,121,17492,1,2,1:2:0:0:
115,74,17642,1,2,1:2:0:0:
328,239,17792,1,8,0:2:0:0:
248,16,17942,6,0,B|256:142|188:68|189:210,1,190,6|2,1:2|1:2,0:2:0:0:
102,35,18392,2,0,P|68:20|-23:10,1,95,10|2,0:2|0:2,0:2:0:0:
86,164,18692,1,2,1:2:0:0:
218,41,18842,1,2,0:2:0:0:
295,250,18992,1,10,0:2:0:0:
172,122,19142,1,2,0:2:0:0:
376,206,19292,5,10,0:2:0:0:
384,249,19367,1,8,0:2:0:0:
370,292,19442,1,10,0:2:0:0:
339,324,19517,1,8,0:2:0:0:
297,338,19592,1,10,0:2:0:0:
202,182,19742,1,0,0:2:0:0:
449,292,19892,1,2,1:2:0:0:
326,133,20042,1,2,1:2:0:0:
215,277,20192,1,10,0:2:0:0:
32,118,20342,6,0,B|155:125|72:184|214:183,1,190,4|2,1:2|1:2,0:2:0:0:
332,9,20792,2,0,P|281:15|218:53,1,95,10|2,0:2|0:2,0:2:0:0:
378,148,21092,1,2,1:2:0:0:
458,25,21242,1,2,0:2:0:0:
276,191,21392,2,0,P|309:232|380:254,1,95,10|2,0:2|0:2,0:2:0:0:
173,114,21692,5,2,1:2:0:0:
120,294,21842,1,2,0:2:0:0:
305,161,21992,1,10,0:2:0:0:
115,189,22142,1,2,0:2:0:0:
297,319,22292,1,2,1:2:0:0:
173,114,22442,1,2,1:2:0:0:
73,320,22592,1,10,0:2:0:0:
273,163,22742,6,0,P|239:242|133:235,1,190,6|2,1:2|1:2,0:2:0:0:
60,83,23192,2,0,P|103:82|156:98,1,95,10|2,0:2|0:2,0:2:0:0:
13,164,23492,1,2,1:2:0:0:
125,9,23642,1,2,0:2:0:0:
207,201,23792,2,0,P|215:233|210:308,1,95,10|2,0:2|0:2,0:2:0:0:
435,102,24092,5,10,0:0:0:0:
390,87,24167,1,8,0:0:0:0:
344,95,24242,1,10,0:0:0:0:
307,124,24317,1,8,0:0:0:0:
288,167,24392,2,0,P|254:197|179:188,1,95,10|2,0:0|0:0,0:0:0:0:
10,137,24692,1,2,1:2:0:0:
179,279,24842,1,2,1:2:0:0:
111,56,24992,1,10,0:2:0:0:
0,248,25142,1,2,0:2:0:0:
212,84,25292,6,0,P|246:71|281:65,1,71.2500027179719,2|0,1:2|0:0,0:0:0:0:
448,92,25592,1,10,0:2:0:0:
384,16,25742,2,0,P|370:50|368:116,1,71.2500027179719,2|0,1:2|0:0,1:0:0:0:
408,174,26042,1,0,1:0:0:0:
280,234,26192,2,0,P|278:198|268:164,1,71.2500027179719,8|0,0:0|0:0,0:0:0:0:
95,135,26492,6,0,P|159:79|252:115,1,142.500005435944,0|8,1:0|0:0,0:0:0:0:
179,174,26942,1,2,1:2:0:0:
91,247,27092,2,0,P|55:242|22:230,1,71.2500027179719,2|0,0:0|1:0,0:0:0:0:
181,290,27392,2,0,P|191:237|180:197,1,71.2500027179719,10|0,0:0|0:0,0:0:0:0:
99,323,27692,6,0,P|149:371|233:354,1,142.500005435944,2|10,1:2|0:0,0:0:0:0:
245,262,28142,2,0,P|208:273|151:320,1,71.2500027179719,2|0,1:2|0:0,0:0:0:0:
293,347,28442,1,2,1:2:0:0:
351,237,28592,2,0,P|388:248|444:295,1,71.2500027179719,8|2,2:0|0:0,0:0:0:0:
269,171,28892,6,0,P|253:118|267:57,1,71.2500027179719,0|2,1:0|0:0,0:0:0:0:
412,158,29192,1,8,0:0:0:0:
362,43,29342,1,2,1:2:0:0:
227,108,29492,1,2,0:0:0:0:
275,11,29642,1,2,1:2:0:0:
301,188,29792,1,10,0:0:0:0:
384,71,29942,1,2,0:2:0:0:
201,30,30092,6,0,P|154:54|157:163,1,142.500005435944,2|10,1:2|0:0,0:0:0:0:
233,208,30542,2,0,P|273:193|338:185,1,71.2500027179719,2|0,1:2|0:0,0:0:0:0:
416,204,30842,1,0,1:0:0:0:
362,43,30992,2,0,P|373:78|373:144,1,71.2500027179719,8|0,0:0|0:0,0:0:0:0:
361,288,31292,6,0,P|326:268|202:311,1,142.500005435944,0|8,1:0|0:0,0:0:0:0:
118,334,31742,2,0,P|121:298|130:264,1,71.2500027179719,2|2,1:2|0:0,0:0:0:0:
135,165,32042,1,2,1:2:0:0:
27,285,32192,2,0,P|23:249|14:215,1,71.2500027179719,10|2,0:0|0:2,0:0:0:0:
122,87,32492,6,0,B|215:84|166:130|256:128,1,142.500005435944,2|10,1:2|0:2,0:0:0:0:
365,74,32942,2,0,P|341:56|294:44,1,71.2500027179719,0|0,1:2|0:0,0:0:0:0:
253,128,33242,1,0,1:0:0:0:
387,232,33392,2,0,L|396:109,1,71.2500027179719,10|2,0:2|0:0,0:0:0:0:
299,308,33692,6,0,P|270:274|175:286,1,142.500005435944,0|8,1:0|0:0,0:0:0:0:
94,187,34142,1,2,1:2:0:0:
109,331,34292,1,2,0:0:0:0:
235,162,34442,1,2,1:2:0:0:
226,349,34592,1,8,0:0:0:0:
76,217,34742,1,2,0:2:0:0:
317,131,34892,6,0,P|327:173|334:252,1,71.2500027179719,2|0,1:2|1:0,0:0:0:0:
206,42,35192,1,10,0:2:0:0:
129,160,35342,2,0,P|164:158|199:150,1,71.2500027179719,2|0,1:2|0:0,0:0:0:0:
323,47,35642,1,2,1:2:0:0:
414,235,35792,1,10,0:0:0:0:
298,165,35942,1,2,1:2:0:0:
471,42,36092,6,0,P|461:89|458:151,1,71.2500027179719,2|0,1:2|1:0,0:0:0:0:
306,19,36392,2,0,P|279:6|188:12,1,71.2500027179719,8|0,0:0|1:0,0:0:0:0:
110,128,36692,1,2,0:2:0:0:
249,83,36842,1,2,1:2:0:0:
53,10,36992,1,10,0:0:0:0:
99,161,37142,1,2,0:2:0:0:
306,19,37292,6,0,P|349:24|406:46,1,71.2500027179719,2|0,1:2|1:0,0:0:0:0:
230,166,37592,1,10,0:0:0:0:
349,202,37742,2,0,P|336:124|320:85,1,71.2500027179719,2|0,1:2|0:0,0:0:0:0:
268,247,38042,1,2,1:2:0:0:
427,112,38192,1,8,0:0:0:0:
451,279,38342,1,2,0:2:0:0:
247,80,38492,5,8,0:0:0:0:
149,329,38642,1,10,0:2:0:0:
43,122,38942,5,0,1:0:0:0:
208,195,39092,1,10,1:2:0:0:
156,36,39242,1,2,0:0:0:0:
65,233,39392,1,10,1:2:0:0:
153,125,39542,1,2,0:0:0:0:
249,280,39692,6,0,P|276:288|338:294,1,61.7499971733095,2|0,1:2|1:0,0:0:0:0:
403,197,39992,2,0,P|372:201|342:210,1,61.7499971733095,2|0,0:2|1:0,0:0:0:0:
501,252,40292,2,0,L|487:96,1,123.499994346619,10|2,0:2|1:2,0:0:0:0:
479,0,40742,1,2,0:2:0:0:
365,97,40892,6,0,P|340:109|268:122,1,61.7499971733095,0|0,1:0|1:0,0:0:0:0:
403,197,41192,1,2,0:2:0:0:
222,175,41342,1,0,1:0:0:0:
222,175,41492,2,0,P|230:206|232:235,1,61.7499971733095,10|0,0:2|0:0,0:0:0:0:
105,111,41792,1,10,0:0:0:0:
113,74,41867,1,8,0:0:0:0:
138,46,41942,1,8,0:0:0:0:
174,33,42017,1,8,0:0:0:0:
211,39,42092,6,8,P|245:56|335:54,1,114,10|0,0:0|0:0,0:0:0:0:
351,46,42392,1,10,0:0:0:0:
236,261,42542,5,0,1:0:0:0:
489,128,42692,1,10,0:0:0:0:
182,108,42842,5,0,1:0:0:0:
455,287,42992,1,8,0:0:0:0:
267,11,43142,5,0,1:0:0:0:
72,318,43292,1,10,0:0:0:0:
108,24,43892,6,0,P|99:60|99:119,1,71.2500027179719,2|2,0:0|0:0,0:0:0:0:
187,138,44192,2,0,P|196:174|196:233,1,71.2500027179719,2|2,0:0|0:0,0:0:0:0:
72,318,44492,6,0,P|136:369|219:324,1,142.5,6|0,1:2|0:0,0:0:0:0:
214,327,44792,1,10,0:2:0:0:
38,204,44942,1,2,1:2:0:0:
276,86,45092,2,0,P|280:134|260:191,1,95,2|0,1:2|0:0,1:0:0:0:
94,43,45392,1,10,0:0:0:0:
38,204,45542,1,2,1:2:0:0:
259,4,45692,6,0,P|299:5|362:75,1,95,2|0,0:2|1:0,0:0:0:0:
94,43,45992,1,10,0:2:0:0:
188,219,46142,2,0,P|168:175|160:129,1,95,2|0,0:2|1:0,1:0:0:0:
372,119,46442,1,0,1:0:0:0:
204,313,46592,1,10,0:0:0:0:
276,86,46742,6,0,B|253:213|325:152|298:281,1,190,6|0,0:2|0:0,0:0:0:0:
115,80,47192,2,0,P|69:61|19:59,1,95,8|0,0:0|0:0,0:0:0:0:
151,179,47492,1,0,1:0:0:0:
222,0,47642,1,0,1:0:0:0:
42,173,47792,2,0,L|53:300,1,95,8|0,0:0|0:0,0:0:0:0:
281,117,48092,6,0,P|236:100|189:91,1,95,0|0,1:0|1:0,1:0:0:0:
365,243,48392,2,0,P|411:234|456:218,1,95,8|0,0:0|0:0,0:0:0:0:
365,62,48692,1,2,0:0:0:0:
261,214,48842,1,2,1:2:0:0:
488,297,48992,1,10,0:0:0:0:
360,157,49142,1,2,1:2:0:0:
190,318,49292,6,0,P|142:277|171:168,1,142.5,6|0,1:2|0:0,0:0:0:0:
163,172,49592,1,10,0:0:0:0:
365,243,49742,1,2,1:2:0:0:
247,47,49892,2,0,P|279:123|280:165,1,95,2|0,1:2|0:0,0:0:0:0:
72,1,50192,1,10,0:0:0:0:
37,187,50342,1,2,1:2:0:0:
247,47,50492,5,2,0:2:0:0:
19,87,50642,1,2,1:2:0:0:
232,235,50792,1,8,0:0:0:0:
176,0,50942,2,0,P|160:22|151:100,1,95,2|0,0:2|1:0,0:0:0:0:
232,235,51242,1,0,1:0:0:0:
359,59,51392,1,10,0:2:0:0:
496,277,51542,6,0,B|431:282|431:282|373:256|373:256|306:262,1,190,6|0,0:2|0:0,0:0:0:0:
133,122,51992,2,0,P|174:86|239:64,1,95,8|0,0:0|0:0,0:0:0:0:
148,231,52292,1,0,1:0:0:0:
44,56,52442,1,0,1:0:0:0:
61,319,52592,2,0,L|52:183,1,95,8|0,0:0|0:0,0:0:0:0:
260,166,52892,5,0,1:0:0:0:
150,337,53042,1,0,1:0:0:0:
99,116,53192,1,8,0:0:0:0:
249,273,53342,1,0,0:0:0:0:
356,64,53492,1,10,0:2:0:0:
356,64,53567,1,8,0:0:0:0:
356,64,53642,2,8,L|285:105,1,47.5,10|8,0:2|0:0,0:0:0:0:
152,227,53792,2,0,L|198:236,1,47.5,10|8,0:2|0:0,0:0:0:0:
410,291,53942,2,0,L|400:244,1,47.5,10|8,0:2|0:0,0:0:0:0:
195,34,54092,6,0,P|138:8|54:80,1,142.5,6|0,1:2|0:0,0:0:0:0:
49,79,54392,1,10,0:2:0:0:
266,161,54542,1,2,1:2:0:0:
64,301,54692,2,0,P|45:255|43:207,1,95,2|0,1:2|0:0,0:0:0:0:
234,368,54992,1,10,0:2:0:0:
155,195,55142,1,2,1:2:0:0:
386,221,55292,6,0,P|344:249|260:258,1,95,2|0,0:0|1:0,1:0:0:0:
135,86,55592,1,10,0:2:0:0:
148,289,55742,2,0,L|155:191,1,95,0|0,0:0|1:0,0:0:0:0:
289,32,56042,1,0,1:0:0:0:
48,141,56192,1,10,0:2:0:0:
313,124,56342,6,0,B|191:142|256:68|127:87,1,190,6|0,0:2|0:0,0:0:0:0:
298,260,56792,2,0,P|345:248|386:220,1,95,8|0,0:0|0:0,0:0:0:0:
259,15,57092,1,0,1:0:0:0:
153,194,57242,1,0,1:0:0:0:
386,53,57392,2,0,L|509:41,1,95,8|0,0:0|0:0,0:0:0:0:
232,211,57692,6,0,P|213:256|222:322,1,95,0|0,1:0|1:0,1:0:0:0:
134,85,57992,2,0,P|91:107|63:145,1,95,8|0,0:0|0:0,0:0:0:0:
259,15,58292,1,2,0:0:0:0:
232,211,58442,1,2,1:2:0:0:
15,53,58592,1,10,0:0:0:0:
79,234,58742,1,2,1:2:0:0:
307,143,58892,6,4,B|333:186|333:186|321:320,1,142.5,6|0,1:2|0:0,0:0:0:0:
320,321,59192,1,10,0:2:0:0:
153,194,59342,1,2,1:2:0:0:
374,89,59492,2,0,P|329:63|277:66,1,95,2|0,1:2|0:0,0:0:0:0:
439,288,59792,1,10,0:0:0:0:
478,109,59942,1,2,1:2:0:0:
232,210,60092,5,2,0:0:0:0:
182,5,60242,1,2,1:2:0:0:
395,172,60392,1,8,0:0:0:0:
159,132,60542,2,0,P|203:102|271:108,1,95,2|0,0:2|1:0,1:0:0:0:
116,268,60842,1,0,1:0:0:0:
24,69,60992,1,10,0:0:0:0:
21,339,61142,6,4,B|27:269|27:269|8:204|8:204|16:113,1,190,6|0,0:2|0:0,0:0:0:0:
252,65,61592,2,0,P|229:49|133:44,1,95,8|0,0:0|0:0,0:0:0:0:
141,244,61892,1,0,1:0:0:0:
325,126,62042,1,0,1:0:0:0:
54,46,62192,2,8,L|63:159,1,95,8|0,0:0|0:0,0:0:0:0:
222,317,62492,5,8,0:0:0:0:
247,277,62567,1,8,0:0:0:0:
287,252,62642,1,8,0:0:0:0:
334,248,62717,1,8,0:0:0:0:
378,265,62792,1,10,0:2:0:0:
279,43,62942,1,0,1:0:0:0:
93,288,63092,1,10,0:0:0:0:
389,158,63242,1,0,1:0:0:0:
85,46,63392,1,8,0:0:0:0:
311,324,63542,6,0,P|292:263|191:302,1,190,6|2,1:2|1:2,0:0:0:0:
418,152,63992,2,0,L|408:259,1,95,10|0,0:2|0:0,0:0:0:0:
280,72,64292,1,2,1:2:0:0:
310,240,64442,1,2,1:2:0:0:
147,68,64592,1,10,0:2:0:0:
21,272,64742,6,0,P|116:275|125:197,1,190,2|2,1:2|1:2,0:0:0:0:
0,25,65192,2,8,L|8:122,1,95,10|0,0:0|0:0,0:0:0:0:
211,167,65492,1,2,1:2:0:0:
100,7,65642,1,2,1:2:0:0:
54,248,65792,1,10,0:0:0:0:
280,72,65942,6,0,L|90:88,1,190,6|0,1:2|1:0,0:0:0:0:
331,134,66392,2,0,P|356:94|354:47,1,95,10|0,0:2|2:0,0:0:0:0:
231,196,66692,1,2,1:2:0:0:
129,10,66842,1,0,1:0:0:0:
84,231,66992,1,10,0:2:0:0:
287,44,67142,6,0,P|352:120|314:232,1,190,2|0,1:2|1:0,0:0:0:0:
125,358,67592,2,0,L|219:349,1,95,10|0,0:2|0:0,0:0:0:0:
421,263,67892,1,2,1:2:0:0:
236,142,68042,1,0,1:0:0:0:
351,358,68192,1,10,0:0:0:0:
511,144,68342,6,0,B|392:136|461:211|316:202,1,190,6|2,1:2|1:2,0:0:0:0:
190,0,68792,2,0,P|236:17|269:52,1,95,10|0,0:2|0:0,1:0:0:0:
68,181,69092,1,2,1:2:0:0:
267,149,69242,1,2,1:2:0:0:
30,47,69392,1,10,0:2:0:0:
164,283,69542,6,4,B|158:213|158:213|177:148|177:148|169:57,1,190,2|2,1:2|1:2,0:0:0:0:
394,183,69992,2,0,P|368:232|291:254,1,95,10|0,0:0|0:0,0:0:0:0:
172,96,70292,1,2,1:2:0:0:
70,248,70442,1,2,1:2:0:0:
312,171,70592,1,10,0:2:0:0:
52,33,70742,6,0,L|69:235,1,190,6|0,1:2|1:0,0:0:0:0:
274,42,71192,2,0,P|317:25|390:22,1,95,10|0,0:0|0:0,0:0:0:0:
230,193,71492,1,2,1:2:0:0:
106,32,71642,1,2,1:2:0:0:
44,263,71792,1,8,0:0:0:0:
322,143,71942,6,8,B|269:114|269:114|133:126,1,190,2|2,1:2|1:2,0:0:0:0:
365,224,72392,2,8,P|404:187|402:103,1,95,10|0,0:0|0:0,0:0:0:0:
167,352,72692,1,8,0:0:0:0:
160,306,72767,1,8,0:0:0:0:
165,259,72842,1,8,0:0:0:0:
191,219,72917,1,8,0:0:0:0:
230,193,72992,1,10,0:2:0:0:
268,165,73067,1,8,0:0:0:0:
290,123,73142,1,10,0:0:0:0:
295,76,73217,1,8,0:0:0:0:
289,29,73292,6,0,P|258:7|155:26,1,142.5,6|0,1:2|0:0,0:0:0:0:
136,56,73592,1,10,0:0:0:0:
13,223,73742,2,0,L|3:99,1,95,2|0,1:2|1:0,1:0:0:0:
174,190,74042,1,0,0:0:0:0:
1,378,74192,1,10,0:2:0:0:
92,192,74342,1,2,1:2:0:0:
273,359,74492,6,0,L|110:373,1,142.5,2|0,1:2|0:0,0:0:0:0:
95,384,74792,2,0,L|-32:372,1,95,8|0,0:0|0:0,0:0:0:0:
135,211,75092,1,2,1:2:0:0:
273,359,75242,1,0,0:0:0:0:
347,124,75392,1,10,0:2:0:0:
209,281,75542,1,2,1:2:0:0:
212,26,75692,6,0,P|187:82|196:192,1,142.5,6|0,1:2|0:0,0:0:0:0:
208,199,75992,1,10,0:2:0:0:
326,39,76142,2,0,L|438:29,1,95,2|0,1:2|1:0,1:0:0:0:
349,205,76442,1,2,0:0:0:0:
212,26,76592,1,10,0:0:0:0:
47,205,76742,6,0,P|89:183|135:173,1,95,2|0,1:2|0:0,0:0:0:0:
286,313,77042,1,2,1:2:0:0:
358,72,77192,2,0,P|355:119|342:164,1,95,8|0,0:0|0:0,0:0:0:0:
211,26,77492,1,2,1:2:0:0:
242,201,77642,1,2,1:2:0:0:
88,0,77792,1,10,0:0:0:0:
38,173,77942,1,2,0:0:0:0:
304,21,78092,6,0,P|258:8|190:93,1,142.5,6|0,1:2|0:0,0:0:0:0:
190,107,78392,1,10,0:2:0:0:
46,267,78542,2,0,L|37:172,1,95,2|0,1:2|1:0,1:0:0:0:
155,309,78842,1,0,0:0:0:0:
300,125,78992,2,0,P|352:126|414:167,1,95,8|0,0:0|1:0,0:0:0:0:
155,309,79292,5,0,1:2:0:0:
126,89,79442,1,0,0:0:0:0:
325,230,79592,2,0,L|316:324,1,95,8|0,0:0|0:0,0:0:0:0:
331,102,79892,1,0,1:0:0:0:
131,206,80042,1,0,0:0:0:0:
313,11,80192,2,0,P|331:54|330:101,1,95,10|0,0:2|0:0,0:0:0:0:
132,340,80492,6,0,L|273:327,1,142.5,6|0,1:2|0:0,0:0:0:0:
316,324,80792,1,10,0:0:0:0:
464,132,80942,2,0,L|474:256,1,95,2|0,1:2|1:0,1:0:0:0:
377,44,81242,1,0,0:0:0:0:
233,210,81392,2,8,P|280:226|331:229,1,95,10|0,0:2|0:0,0:0:0:0:
106,141,81692,5,10,0:0:0:0:
470,169,81842,1,0,1:0:0:0:
119,297,81992,5,8,0:0:0:0:
406,66,82142,1,0,1:0:0:0:
292,379,82292,5,10,0:0:0:0:
124,51,82442,1,0,1:0:0:0:
0,384,82592,1,0,1:0:0:0:
381,158,82742,6,0,B|281:155|334:216|197:210,1,176.700005527268,6|2,1:2|1:2,0:0:0:0:
100,79,83192,2,0,P|136:58|191:49,1,88.3500027636338,10|2,0:0|0:0,0:0:0:0:
67,191,83492,1,2,1:2:0:0:
232,122,83642,1,2,0:2:0:0:
20,18,83792,1,10,0:2:0:0:
160,240,83942,6,0,L|144:58,1,176.700005527268,2|2,1:2|1:2,0:2:0:0:
37,226,84392,2,0,L|28:317,1,88.3500027636338,10|2,0:2|0:2,0:2:0:0:
152,141,84692,1,2,1:2:0:0:
216,307,84842,1,2,0:2:0:0:
53,136,84992,1,10,0:2:0:0:
279,203,85142,6,0,B|383:205|335:254|443:253,1,176.700005527268,6|2,1:2|1:2,0:2:0:0:
250,303,85592,2,0,L|131:312,1,88.3500027636338,10|2,0:2|0:2,0:2:0:0:
86,131,85892,1,2,1:2:0:0:
252,219,86042,1,2,0:2:0:0:
29,234,86192,1,10,0:2:0:0:
190,60,86342,6,0,P|174:125|95:126,1,132.525004145451,2|0,1:2|0:2,0:2:0:0:
86,131,86642,1,2,1:2:0:0:
252,219,86792,2,0,P|287:179|298:147,1,88.3500027636338,10|2,0:2|0:2,0:2:0:0:
169,19,87092,1,2,1:2:0:0:
118,171,87242,1,2,0:2:0:0:
279,57,87392,1,10,0:2:0:0:
430,208,87542,6,0,B|437:148|437:148|414:32,1,176.700005527268,6|2,1:2|1:2,0:2:0:0:
252,141,87992,2,0,L|353:149,1,88.3500027636338,10|2,0:2|0:2,0:2:0:0:
147,190,88292,1,2,1:2:0:0:
279,57,88442,1,2,0:2:0:0:
337,257,88592,1,10,0:2:0:0:
147,100,88742,6,0,P|75:132|70:236,1,176.700005527268,2|2,1:2|1:2,0:2:0:0:
240,271,89192,2,0,P|207:287|130:281,1,88.3500027636338,10|2,0:2|0:2,0:2:0:0:
347,327,89492,1,2,1:2:0:0:
260,170,89642,1,2,0:2:0:0:
452,253,89792,1,10,0:2:0:0:
413,53,89942,6,0,P|345:79|345:136,1,132.525004145451,6|0,1:2|0:2,0:2:0:0:
369,151,90242,1,2,1:2:0:0:
217,36,90392,2,8,L|225:137,1,88.3500027636338,10|2,0:2|0:2,0:2:0:0:
119,262,90692,1,2,1:2:0:0:
290,219,90842,1,2,0:2:0:0:
109,97,90992,2,0,L|101:187,1,88.3500027636338,10|2,0:2|0:2,0:2:0:0:
298,342,91292,5,2,1:2:0:0:
260,170,91442,1,2,0:2:0:0:
93,316,91592,2,0,L|190:324,1,88.3500027636338,10|2,0:2|0:2,0:2:0:0:
348,148,91892,1,10,0:0:0:0:
330,112,91967,1,8,0:0:0:0:
298,88,92042,1,10,0:0:0:0:
258,80,92117,1,8,0:0:0:0:
220,92,92192,1,10,0:0:0:0:
62,25,92342,6,0,B|56:82|56:82|73:140|73:140|67:202,1,176.700005527268,6|2,1:2|1:2,0:2:0:0:
215,297,92792,2,0,P|189:276|122:266,1,88.3500027636338,10|2,0:2|0:2,0:2:0:0:
0,384,93092,1,2,1:2:0:0:
44,216,93242,1,2,0:2:0:0:
186,376,93392,1,10,0:2:0:0:
313,181,93542,6,0,L|296:359,1,176.700005527268,2|2,0:2|1:2,0:2:0:0:
169,206,93992,2,0,L|159:94,1,88.3500027636338,10|2,0:2|0:2,0:2:0:0:
344,164,94292,1,2,1:2:0:0:
219,278,94442,1,2,0:2:0:0:
276,85,94592,1,10,0:2:0:0:
485,184,94742,6,0,B|384:184|436:251|311:249,1,176.700005527268,6|2,1:2|1:2,0:2:0:0:
239,72,95192,2,0,L|248:177,1,88.3500027636338,10|2,0:2|0:2,0:2:0:0:
329,2,95492,1,2,1:2:0:0:
461,116,95642,1,2,0:2:0:0:
247,161,95792,1,10,0:2:0:0:
475,266,95942,6,0,P|431:266|392:284,1,88.3500027636338,2|2,1:2|0:2,0:2:0:0:
264,368,96242,1,2,1:2:0:0:
247,161,96392,2,0,P|251:209|275:253,1,88.3500027636338,10|2,0:2|0:2,0:2:0:0:
150,129,96692,1,2,1:2:0:0:
28,234,96842,1,2,0:2:0:0:
21,56,96992,1,10,0:2:0:0:
158,266,97142,6,0,P|115:206|27:235,1,176.700005527268,6|2,1:2|1:2,0:2:0:0:
182,106,97592,2,0,L|278:97,1,88.3500027636338,10|2,0:2|0:2,0:2:0:0:
80,37,97892,1,2,1:2:0:0:
163,188,98042,1,2,0:2:0:0:
274,12,98192,1,10,0:2:0:0:
432,169,98342,6,0,P|386:238|304:218,1,176.700005527268,2|2,1:2|1:2,0:2:0:0:
173,73,98792,2,0,P|196:109|196:164,1,88.3500027636338,10|2,0:2|0:2,0:2:0:0:
57,287,99092,1,2,1:2:0:0:
120,134,99242,1,2,0:2:0:0:
229,326,99392,2,0,L|331:334,1,88.3500027636338,2|2,0:2|0:2,0:2:0:0:
355,147,99692,5,2,1:2:0:0:
57,226,99842,1,2,0:2:0:0:
57,226,100142,5,2,1:2:0:0:
374,315,100292,1,2,0:2:0:0:
374,315,100592,5,2,1:2:0:0:
177,30,100742,1,2,0:2:0:0:
115,245,101042,5,2,1:2:0:0:
361,140,101192,1,2,0:2:0:0:
270,357,101342,1,2,1:2:0:0:
150,92,101492,1,10,0:2:0:0:
388,280,101642,1,2,1:2:0:0:
82,252,101792,1,10,0:2:0:0:
441,108,101942,1,2,1:2:0:0:
256,192,102092,12,0,109292,0:0:0:0:
