osu file format v14

[General]
AudioFilename: audio.mp3
AudioLeadIn: 0
PreviewTime: 43775
Countdown: 0
SampleSet: Normal
StackLeniency: 0.7
Mode: 3
LetterboxInBreaks: 0
SpecialStyle: 0
WidescreenStoryboard: 1

[Editor]
DistanceSpacing: 1
BeatDivisor: 4
GridSize: 32
TimelineZoom: 2.799999

[Metadata]
Title:STAY ONE (Cut Ver.)
TitleUnicode:STAY ONE (Cut Ver.)
Artist:THE ORAL CIGARETTES
ArtistUnicode:THE ORAL CIGARETTES
Creator:Kuree
Version:Sayaka's Hard
Source:
Tags:FIXION japanese rock jrock j-rock a-sketch みふる takuya yamanaka 山中拓也 short version toc LuxSayaka Pairoxd
BeatmapID:3034613
BeatmapSetID:1479205

[Difficulty]
HPDrainRate:8
CircleSize:4
OverallDifficulty:8
ApproachRate:5
SliderMultiplier:1.4
SliderTickRate:1

[Events]
//Background and Video events
0,0,"stay_one.jpeg",0,0
//Break Periods
//Storyboard Layer 0 (Background)
//Storyboard Layer 1 (Fail)
//Storyboard Layer 2 (Pass)
//Storyboard Layer 3 (Foreground)
//Storyboard Layer 4 (Overlay)
//Storyboard Sound Samples

[TimingPoints]
50,300,4,1,1,70,1,0
44450,-100,4,1,1,70,0,1
82700,-100,4,1,1,70,0,0

[HitObjects]
320,192,50,5,8,0:0:0:0:
448,192,50,1,0,0:0:0:0:
320,192,350,1,8,0:0:0:0:
448,192,350,1,0,0:0:0:0:
320,192,650,1,8,0:0:0:0:
448,192,650,1,0,0:0:0:0:
320,192,950,1,8,0:0:0:0:
448,192,950,1,0,0:0:0:0:
64,192,1100,128,4,1400:0:0:0:0:
192,192,1100,1,2,0:0:0:0:
320,192,1100,1,0,0:0:0:0:
448,192,1400,1,2,0:0:0:0:
192,192,1550,128,8,1700:0:0:0:0:
320,192,1550,1,0,0:0:0:0:
64,192,1700,128,0,1850:0:0:0:0:
448,192,1850,128,0,2000:0:0:0:0:
320,192,2000,128,0,2150:0:0:0:0:
64,192,2150,1,8,0:0:0:0:
192,192,2150,128,0,2300:0:0:0:0:
320,192,2300,128,0,2450:0:0:0:0:
64,192,2450,128,0,2600:0:0:0:0:
448,192,2600,128,0,2750:0:0:0:0:
64,192,2750,1,8,0:0:0:0:
192,192,2750,1,0,0:0:0:0:
320,192,2900,128,0,3200:0:0:0:0:
192,192,3200,128,0,3350:0:0:0:0:
320,192,3350,1,8,0:0:0:0:
448,192,3350,1,0,0:0:0:0:
64,192,3500,128,2,3800:0:0:0:0:
192,192,3500,1,4,0:0:0:0:
448,192,3500,1,0,0:0:0:0:
320,192,3800,1,2,0:0:0:0:
192,192,3950,1,8,0:0:0:0:
448,192,3950,128,0,4100:0:0:0:0:
64,192,4100,128,0,4250:0:0:0:0:
192,192,4250,128,0,4400:0:0:0:0:
320,192,4400,128,0,4550:0:0:0:0:
64,192,4550,1,8,0:0:0:0:
448,192,4550,128,0,4700:0:0:0:0:
192,192,4700,128,0,4850:0:0:0:0:
320,192,4850,128,0,5000:0:0:0:0:
64,192,5000,128,0,5150:0:0:0:0:
192,192,5150,1,8,0:0:0:0:
448,192,5150,1,0,0:0:0:0:
320,192,5300,128,0,5600:0:0:0:0:
192,192,5600,128,0,5750:0:0:0:0:
64,192,5750,1,8,0:0:0:0:
448,192,5750,1,0,0:0:0:0:
64,192,5900,1,2,0:0:0:0:
192,192,5900,1,4,0:0:0:0:
320,192,5900,128,0,6200:0:0:0:0:
64,192,6200,1,2,0:0:0:0:
320,192,6350,1,8,0:0:0:0:
448,192,6350,128,0,6500:0:0:0:0:
192,192,6500,128,0,6650:0:0:0:0:
64,192,6650,128,0,6800:0:0:0:0:
448,192,6800,128,0,6950:0:0:0:0:
192,192,6950,1,8,0:0:0:0:
320,192,6950,128,0,7100:0:0:0:0:
64,192,7100,128,0,7250:0:0:0:0:
448,192,7250,128,0,7400:0:0:0:0:
192,192,7400,128,0,7550:0:0:0:0:
320,192,7550,1,8,0:0:0:0:
448,192,7550,1,0,0:0:0:0:
64,192,7700,128,0,8000:0:0:0:0:
192,192,8000,128,0,8150:0:0:0:0:
320,192,8150,1,8,0:0:0:0:
448,192,8150,1,0,0:0:0:0:
64,192,8300,1,2,0:0:0:0:
192,192,8300,1,4,0:0:0:0:
448,192,8300,128,0,8600:0:0:0:0:
320,192,8600,1,2,0:0:0:0:
192,192,8750,128,8,8900:0:0:0:0:
448,192,8750,1,0,0:0:0:0:
64,192,8900,128,0,9050:0:0:0:0:
320,192,9050,128,0,9200:0:0:0:0:
448,192,9200,128,0,9350:0:0:0:0:
64,192,9350,1,8,0:0:0:0:
192,192,9350,1,0,0:0:0:0:
320,192,9500,1,2,0:0:0:0:
448,192,9500,1,0,0:0:0:0:
320,192,9800,1,2,0:0:0:0:
448,192,9800,1,0,0:0:0:0:
64,192,10100,1,2,0:0:0:0:
192,192,10100,1,0,0:0:0:0:
64,192,10400,1,2,0:0:0:0:
192,192,10400,1,0,0:0:0:0:
64,192,10700,1,2,0:0:0:0:
320,192,10700,128,4,11000:0:0:0:0:
448,192,10700,1,0,0:0:0:0:
192,192,11000,1,2,0:0:0:0:
320,192,11150,1,8,0:0:0:0:
448,192,11150,1,0,0:0:0:0:
64,192,11300,1,0,0:0:0:0:
320,192,11450,1,2,0:0:0:0:
448,192,11450,1,0,0:0:0:0:
64,192,11600,1,2,0:0:0:0:
192,192,11600,1,0,0:0:0:0:
64,192,11750,1,8,0:0:0:0:
448,192,11750,1,0,0:0:0:0:
192,192,11900,1,0,0:0:0:0:
320,192,12050,1,2,0:0:0:0:
448,192,12050,1,0,0:0:0:0:
64,192,12200,1,2,0:0:0:0:
192,192,12200,1,0,0:0:0:0:
64,192,12350,1,8,0:0:0:0:
448,192,12350,1,0,0:0:0:0:
320,192,12500,1,0,0:0:0:0:
192,192,12650,1,2,0:0:0:0:
448,192,12650,1,0,0:0:0:0:
64,192,12800,1,2,0:0:0:0:
320,192,12800,1,0,0:0:0:0:
64,192,12950,1,8,0:0:0:0:
192,192,12950,1,0,0:0:0:0:
64,192,13100,128,2,13400:0:0:0:0:
320,192,13100,1,4,0:0:0:0:
448,192,13100,1,0,0:0:0:0:
192,192,13400,1,2,0:0:0:0:
320,192,13550,1,8,0:0:0:0:
448,192,13550,1,0,0:0:0:0:
64,192,13700,1,0,0:0:0:0:
192,192,13850,1,2,0:0:0:0:
320,192,13850,1,0,0:0:0:0:
64,192,14000,1,2,0:0:0:0:
448,192,14000,1,0,0:0:0:0:
192,192,14150,1,8,0:0:0:0:
448,192,14150,1,0,0:0:0:0:
320,192,14300,1,0,0:0:0:0:
64,192,14450,1,2,0:0:0:0:
192,192,14450,1,0,0:0:0:0:
320,192,14600,1,2,0:0:0:0:
448,192,14600,1,0,0:0:0:0:
64,192,14750,1,8,0:0:0:0:
448,192,14750,1,0,0:0:0:0:
192,192,14900,1,0,0:0:0:0:
64,192,15050,1,2,0:0:0:0:
320,192,15050,1,0,0:0:0:0:
192,192,15200,1,2,0:0:0:0:
448,192,15200,1,0,0:0:0:0:
320,192,15350,1,8,0:0:0:0:
448,192,15350,1,0,0:0:0:0:
64,192,15500,1,2,0:0:0:0:
192,192,15500,1,4,0:0:0:0:
448,192,15500,128,0,15800:0:0:0:0:
320,192,15800,1,2,0:0:0:0:
64,192,15950,1,8,0:0:0:0:
192,192,15950,1,0,0:0:0:0:
320,192,16100,1,0,0:0:0:0:
192,192,16250,1,2,0:0:0:0:
448,192,16250,1,0,0:0:0:0:
64,192,16400,1,2,0:0:0:0:
320,192,16400,1,0,0:0:0:0:
192,192,16550,1,8,0:0:0:0:
320,192,16550,1,0,0:0:0:0:
448,192,16700,1,0,0:0:0:0:
64,192,16850,1,2,0:0:0:0:
192,192,16850,1,0,0:0:0:0:
320,192,17000,1,2,0:0:0:0:
448,192,17000,1,0,0:0:0:0:
64,192,17150,1,8,0:0:0:0:
448,192,17150,1,0,0:0:0:0:
192,192,17300,1,0,0:0:0:0:
320,192,17450,1,2,0:0:0:0:
448,192,17450,1,0,0:0:0:0:
192,192,17600,1,2,0:0:0:0:
320,192,17600,1,0,0:0:0:0:
64,192,17750,1,8,0:0:0:0:
448,192,17750,1,0,0:0:0:0:
64,192,17900,1,2,0:0:0:0:
192,192,17900,128,4,18200:0:0:0:0:
320,192,17900,1,0,0:0:0:0:
448,192,18200,1,2,0:0:0:0:
64,192,18350,1,8,0:0:0:0:
192,192,18350,1,0,0:0:0:0:
320,192,18500,1,0,0:0:0:0:
64,192,18650,1,2,0:0:0:0:
448,192,18650,1,0,0:0:0:0:
192,192,18800,1,2,0:0:0:0:
320,192,18800,1,0,0:0:0:0:
64,192,18950,1,8,0:0:0:0:
192,192,18950,1,0,0:0:0:0:
320,192,19100,1,0,0:0:0:0:
64,192,19250,1,8,0:0:0:0:
448,192,19250,1,2,0:0:0:0:
192,192,19325,1,8,0:0:0:0:
448,192,19400,1,8,0:0:0:0:
320,192,19475,1,8,0:0:0:0:
64,192,19550,1,2,0:0:0:0:
192,192,19550,1,0,0:0:0:0:
320,192,19700,1,8,0:0:0:0:
448,192,19700,1,0,0:0:0:0:
192,192,19850,1,8,0:0:0:0:
320,192,19850,1,0,0:0:0:0:
64,192,20000,1,0,0:0:0:70:tom02.wav
448,192,20000,1,0,0:0:0:0:
64,192,20150,1,0,0:0:0:70:tom03.wav
320,192,20150,1,0,0:0:0:0:
192,192,20300,1,4,0:0:0:0:
320,192,20300,1,2,0:0:0:0:
448,192,20300,128,0,20600:0:0:0:0:
64,192,20600,1,2,0:0:0:0:
192,192,20750,1,8,0:0:0:0:
448,192,20750,1,0,0:0:0:0:
320,192,20900,1,0,0:0:0:0:
64,192,21050,1,2,0:0:0:0:
192,192,21050,1,0,0:0:0:0:
320,192,21200,1,2,0:0:0:0:
448,192,21200,1,0,0:0:0:0:
64,192,21350,1,8,0:0:0:0:
448,192,21350,1,0,0:0:0:0:
192,192,21500,1,0,0:0:0:0:
320,192,21650,1,2,0:0:0:0:
448,192,21650,1,0,0:0:0:0:
64,192,21800,1,2,0:0:0:0:
192,192,21800,1,0,0:0:0:0:
192,192,21950,1,8,0:0:0:0:
448,192,21950,1,0,0:0:0:0:
320,192,22100,1,0,0:0:0:0:
64,192,22250,1,2,0:0:0:0:
192,192,22250,1,0,0:0:0:0:
320,192,22400,1,2,0:0:0:0:
448,192,22400,1,0,0:0:0:0:
64,192,22550,1,8,0:0:0:0:
320,192,22550,1,0,0:0:0:0:
64,192,22700,1,2,0:0:0:0:
192,192,22700,1,4,0:0:0:0:
448,192,22700,128,0,23000:0:0:0:0:
320,192,23000,1,2,0:0:0:0:
64,192,23150,1,8,0:0:0:0:
192,192,23150,1,0,0:0:0:0:
448,192,23300,1,0,0:0:0:0:
192,192,23450,1,2,0:0:0:0:
320,192,23450,1,0,0:0:0:0:
64,192,23600,1,2,0:0:0:0:
448,192,23600,1,0,0:0:0:0:
192,192,23750,1,8,0:0:0:0:
448,192,23750,1,0,0:0:0:0:
320,192,23900,1,0,0:0:0:0:
64,192,24050,1,8,0:0:0:0:
448,192,24050,1,0,0:0:0:0:
192,192,24200,1,0,0:0:0:70:tom01.wav
320,192,24275,1,0,0:0:0:70:tom02.wav
64,192,24350,128,2,24500:0:0:0:0:
448,192,24350,1,0,0:0:0:0:
192,192,24500,128,0,24650:0:0:0:0:
64,192,24650,1,8,0:0:0:0:
448,192,24650,128,0,24800:0:0:0:0:
192,192,24800,1,8,0:0:0:0:
320,192,24800,128,0,24950:0:0:0:0:
64,192,24950,128,8,25100:0:0:0:0:
448,192,24950,1,0,0:0:0:0:
192,192,25100,128,8,25250:0:0:0:0:
320,192,25100,1,0,0:0:0:0:
64,192,25250,1,2,0:0:0:0:
320,192,25250,1,4,0:0:0:0:
448,192,25250,128,0,25400:0:0:0:0:
192,192,25550,1,8,0:0:0:0:
320,192,25550,1,0,0:0:0:0:
64,192,25700,128,0,25850:0:0:0:0:
448,192,25850,1,2,0:0:0:0:
448,192,26000,1,2,0:0:0:0:
64,192,26150,1,8,0:0:0:0:
192,192,26150,128,0,26300:0:0:0:0:
320,192,26450,1,2,0:0:0:0:
448,192,26450,1,0,0:0:0:0:
64,192,26750,1,8,0:0:0:0:
448,192,26750,1,0,0:0:0:0:
320,192,26900,1,0,0:0:0:0:
192,192,27050,1,2,0:0:0:0:
192,192,27200,1,2,0:0:0:0:
320,192,27350,1,8,0:0:0:0:
448,192,27350,1,0,0:0:0:0:
192,192,27650,128,2,27950:0:0:0:0:
320,192,27650,1,0,0:0:0:0:
64,192,27950,1,8,0:0:0:0:
320,192,28100,128,0,28250:0:0:0:0:
448,192,28250,1,2,0:0:0:0:
448,192,28400,1,2,0:0:0:0:
64,192,28550,128,8,28700:0:0:0:0:
192,192,28550,1,0,0:0:0:0:
320,192,28700,1,0,0:0:0:0:
192,192,28850,1,2,0:0:0:0:
448,192,28850,1,0,0:0:0:0:
64,192,29150,1,8,0:0:0:0:
192,192,29150,1,0,0:0:0:0:
320,192,29450,1,2,0:0:0:0:
320,192,29600,1,2,0:0:0:0:
64,192,29750,128,8,29900:0:0:0:0:
448,192,29750,1,0,0:0:0:0:
320,192,29900,1,0,0:0:0:0:
192,192,30050,1,2,0:0:0:0:
448,192,30050,128,0,30200:0:0:0:0:
64,192,30350,1,8,0:0:0:0:
320,192,30350,1,0,0:0:0:0:
192,192,30500,128,0,30650:0:0:0:0:
448,192,30650,1,2,0:0:0:0:
320,192,30800,1,2,0:0:0:0:
64,192,30950,128,8,31100:0:0:0:0:
192,192,30950,1,0,0:0:0:0:
320,192,31250,1,2,0:0:0:0:
448,192,31250,1,0,0:0:0:0:
192,192,31550,128,8,31700:0:0:0:0:
448,192,31550,1,0,0:0:0:0:
320,192,31700,1,0,0:0:0:0:
64,192,31850,1,2,0:0:0:0:
64,192,32000,1,2,0:0:0:0:
320,192,32150,1,8,0:0:0:0:
448,192,32150,128,0,32300:0:0:0:0:
64,192,32450,128,2,32600:0:0:0:0:
192,192,32450,1,0,0:0:0:0:
320,192,32750,1,8,0:0:0:0:
448,192,32750,1,0,0:0:0:0:
192,192,32900,128,0,33050:0:0:0:0:
64,192,33050,1,2,0:0:0:0:
320,192,33200,1,2,0:0:0:0:
64,192,33350,1,8,0:0:0:0:
448,192,33350,128,0,33500:0:0:0:0:
192,192,33650,1,2,0:0:0:0:
320,192,33650,1,0,0:0:0:0:
64,192,33950,128,8,34100:0:0:0:0:
320,192,33950,1,0,0:0:0:0:
192,192,34100,1,0,0:0:0:0:
448,192,34250,1,2,0:0:0:0:
320,192,34400,1,2,0:0:0:0:
64,192,34550,1,8,0:0:0:0:
192,192,34550,1,0,0:0:0:0:
320,192,34700,1,0,0:0:0:70:tom01.wav
192,192,34775,1,0,0:0:0:70:tom02.wav
64,192,34850,1,2,0:0:0:0:
320,192,34850,1,4,0:0:0:0:
448,192,34850,128,0,35150:0:0:0:0:
192,192,35150,1,8,0:0:0:0:
320,192,35150,1,0,0:0:0:0:
64,192,35300,128,0,35450:0:0:0:0:
192,192,35450,1,2,0:0:0:0:
192,192,35600,1,2,0:0:0:0:
320,192,35750,128,8,35900:0:0:0:0:
448,192,35750,1,0,0:0:0:0:
64,192,35900,1,0,0:0:0:0:
192,192,36050,1,2,0:0:0:0:
320,192,36050,1,0,0:0:0:0:
64,192,36350,1,8,0:0:0:0:
448,192,36350,1,0,0:0:0:0:
192,192,36650,1,2,0:0:0:0:
320,192,36800,1,2,0:0:0:0:
192,192,36950,1,8,0:0:0:0:
448,192,36950,1,0,0:0:0:0:
64,192,37100,1,0,0:0:0:0:
320,192,37250,1,2,0:0:0:0:
448,192,37250,128,0,37400:0:0:0:0:
64,192,37550,1,8,0:0:0:0:
320,192,37550,1,0,0:0:0:0:
192,192,37700,128,0,37850:0:0:0:0:
448,192,37850,1,2,0:0:0:0:
320,192,38000,1,2,0:0:0:0:
64,192,38150,1,8,0:0:0:0:
192,192,38150,1,0,0:0:0:0:
320,192,38300,128,0,38450:0:0:0:0:
192,192,38450,1,8,0:0:0:0:
448,192,38450,1,2,0:0:0:0:
64,192,38600,1,8,0:0:0:0:
320,192,38600,1,0,0:0:0:0:
192,192,38900,1,8,0:0:0:0:
320,192,38900,1,0,0:0:0:0:
64,192,39050,1,0,0:0:0:70:tom01.wav
448,192,39050,1,0,0:0:0:0:
64,192,39200,1,0,0:0:0:70:tom02.wav
192,192,39200,1,0,0:0:0:0:
320,192,39350,1,0,0:0:0:70:tom03.wav
448,192,39350,1,0,0:0:0:0:
64,192,39500,1,0,0:0:0:70:tom04.wav
192,192,39500,1,0,0:0:0:0:
64,192,39650,128,2,39950:0:0:0:0:
320,192,39650,1,4,0:0:0:0:
448,192,39650,1,0,0:0:0:0:
192,192,39950,1,0,0:0:0:0:
320,192,40100,1,2,0:0:0:0:
192,192,40250,128,8,40550:0:0:0:0:
448,192,40250,1,0,0:0:0:0:
64,192,40550,128,0,40700:0:0:0:0:
320,192,40700,128,0,40850:0:0:0:0:
192,192,40850,1,2,0:0:0:0:
448,192,40850,1,0,0:0:0:0:
64,192,41000,1,8,0:0:0:0:
320,192,41000,1,0,0:0:0:0:
192,192,41150,128,0,41300:0:0:0:0:
320,192,41300,1,2,0:0:0:0:
64,192,41450,1,8,0:0:0:0:
448,192,41450,128,0,41750:0:0:0:0:
64,192,41750,1,8,0:0:0:0:
192,192,41825,1,8,0:0:0:0:
320,192,41900,1,8,0:0:0:0:
448,192,41975,1,8,0:0:0:0:
64,192,42050,128,2,42350:0:0:0:0:
192,192,42050,1,4,0:0:0:0:
320,192,42050,1,0,0:0:0:0:
320,192,42350,1,2,0:0:0:0:
448,192,42350,1,0,0:0:0:0:
64,192,42500,1,8,0:0:0:0:
192,192,42500,1,0,0:0:0:0:
64,192,42650,1,8,0:0:0:0:
448,192,42650,1,2,0:0:0:0:
192,192,42800,1,8,0:0:0:0:
320,192,42800,1,0,0:0:0:0:
64,192,42950,1,8,0:0:0:0:
320,192,42950,1,2,0:0:0:0:
192,192,43100,1,8,0:0:0:0:
448,192,43100,1,0,0:0:0:0:
64,192,43250,128,8,43550:0:0:0:0:
320,192,43250,1,4,0:0:0:0:
448,192,43250,1,0,0:0:0:0:
448,192,43850,128,0,44000:0:0:0:0:
320,192,44000,128,0,44150:0:0:0:0:
192,192,44150,128,0,44300:0:0:0:0:
64,192,44300,128,0,44450:0:0:0:0:
192,192,44450,1,2,0:0:0:0:
320,192,44450,1,4,0:0:0:0:
448,192,44450,128,0,44750:0:0:0:0:
64,192,44750,1,8,0:0:0:0:
192,192,44750,1,0,0:0:0:0:
320,192,44900,1,0,0:0:0:0:
64,192,45050,1,2,0:0:0:0:
448,192,45050,1,0,0:0:0:0:
192,192,45200,1,2,0:0:0:0:
320,192,45200,1,0,0:0:0:0:
64,192,45350,1,8,0:0:0:0:
192,192,45350,1,0,0:0:0:0:
448,192,45500,1,0,0:0:0:0:
192,192,45650,1,2,0:0:0:0:
320,192,45650,1,0,0:0:0:0:
64,192,45800,1,0,0:0:0:0:
320,192,45950,1,8,0:0:0:0:
448,192,45950,1,0,0:0:0:0:
192,192,46100,1,0,0:0:0:0:
64,192,46250,1,2,0:0:0:0:
320,192,46250,1,0,0:0:0:0:
192,192,46400,1,2,0:0:0:0:
448,192,46400,1,0,0:0:0:0:
192,192,46550,1,8,0:0:0:0:
320,192,46550,1,0,0:0:0:0:
64,192,46700,128,2,47000:0:0:0:0:
448,192,46700,1,4,0:0:0:0:
192,192,47000,1,2,0:0:0:0:
320,192,47150,1,8,0:0:0:0:
448,192,47150,1,0,0:0:0:0:
192,192,47300,1,0,0:0:0:0:
64,192,47450,1,2,0:0:0:0:
448,192,47450,1,0,0:0:0:0:
192,192,47600,1,2,0:0:0:0:
320,192,47600,1,0,0:0:0:0:
192,192,47750,1,8,0:0:0:0:
448,192,47750,1,0,0:0:0:0:
64,192,47900,1,0,0:0:0:0:
320,192,48050,1,2,0:0:0:0:
448,192,48050,1,0,0:0:0:0:
192,192,48200,1,2,0:0:0:0:
320,192,48200,1,0,0:0:0:0:
64,192,48350,1,8,0:0:0:0:
192,192,48350,1,0,0:0:0:0:
320,192,48500,1,0,0:0:0:0:
192,192,48650,1,2,0:0:0:0:
448,192,48650,128,0,48800:0:0:0:0:
64,192,48800,128,2,48950:0:0:0:0:
320,192,48800,1,0,0:0:0:0:
192,192,48950,128,8,49100:0:0:0:0:
448,192,48950,1,0,0:0:0:0:
320,192,49100,128,0,49250:0:0:0:0:
64,192,49250,1,2,0:0:0:0:
192,192,49250,1,4,0:0:0:0:
448,192,49250,128,0,49550:0:0:0:0:
192,192,49550,1,8,0:0:0:0:
320,192,49550,1,0,0:0:0:0:
64,192,49700,1,0,0:0:0:0:
320,192,49850,1,2,0:0:0:0:
448,192,49850,1,0,0:0:0:0:
64,192,50000,1,2,0:0:0:0:
192,192,50000,1,0,0:0:0:0:
64,192,50150,1,8,0:0:0:0:
448,192,50150,1,0,0:0:0:0:
320,192,50300,1,0,0:0:0:0:
192,192,50450,1,2,0:0:0:0:
448,192,50450,1,0,0:0:0:0:
64,192,50600,1,2,0:0:0:0:
320,192,50600,1,0,0:0:0:0:
192,192,50750,1,8,0:0:0:0:
320,192,50750,1,0,0:0:0:0:
448,192,50900,1,0,0:0:0:0:
64,192,51050,1,2,0:0:0:0:
320,192,51050,1,0,0:0:0:0:
192,192,51200,1,2,0:0:0:0:
448,192,51200,1,0,0:0:0:0:
64,192,51350,1,8,0:0:0:0:
448,192,51350,1,0,0:0:0:0:
192,192,51500,1,2,0:0:0:0:
320,192,51500,128,4,51800:0:0:0:0:
448,192,51800,1,2,0:0:0:0:
64,192,51950,1,8,0:0:0:0:
192,192,51950,1,0,0:0:0:0:
320,192,52100,1,0,0:0:0:0:
64,192,52250,1,2,0:0:0:0:
448,192,52250,1,0,0:0:0:0:
64,192,52400,1,2,0:0:0:0:
320,192,52400,1,0,0:0:0:0:
192,192,52550,1,8,0:0:0:0:
320,192,52550,1,0,0:0:0:0:
448,192,52700,1,0,0:0:0:0:
64,192,52850,1,2,0:0:0:0:
192,192,52850,1,0,0:0:0:0:
192,192,53000,1,2,0:0:0:0:
320,192,53000,1,0,0:0:0:0:
320,192,53150,1,8,0:0:0:0:
448,192,53150,1,0,0:0:0:0:
192,192,53300,1,0,0:0:0:0:
64,192,53450,1,8,0:0:0:0:
448,192,53450,1,0,0:0:0:0:
320,192,53525,1,8,0:0:0:0:
192,192,53600,1,8,0:0:0:0:
64,192,53675,1,8,0:0:0:0:
320,192,53750,1,2,0:0:0:0:
448,192,53750,1,0,0:0:0:70:tom01.wav
192,192,53825,1,0,0:0:0:70:tom02.wav
64,192,53900,1,0,0:0:0:70:tom03.wav
320,192,53975,1,0,0:0:0:70:tom04.wav
64,192,54050,128,2,54350:0:0:0:0:
192,192,54050,1,4,0:0:0:0:
448,192,54050,1,0,0:0:0:0:
320,192,54350,1,8,0:0:0:0:
448,192,54350,1,0,0:0:0:0:
192,192,54500,1,0,0:0:0:0:
64,192,54650,1,2,0:0:0:0:
320,192,54650,1,0,0:0:0:0:
192,192,54800,1,2,0:0:0:0:
448,192,54800,1,0,0:0:0:0:
192,192,54950,1,8,0:0:0:0:
320,192,54950,1,0,0:0:0:0:
64,192,55100,1,0,0:0:0:0:
320,192,55250,1,2,0:0:0:0:
448,192,55250,1,0,0:0:0:0:
64,192,55400,1,2,0:0:0:0:
192,192,55400,1,0,0:0:0:0:
64,192,55550,1,8,0:0:0:0:
448,192,55550,1,0,0:0:0:0:
192,192,55700,1,0,0:0:0:0:
320,192,55850,1,2,0:0:0:0:
448,192,55850,1,0,0:0:0:0:
64,192,56000,1,2,0:0:0:0:
192,192,56000,1,0,0:0:0:0:
192,192,56150,1,8,0:0:0:0:
320,192,56150,1,0,0:0:0:0:
64,192,56300,1,2,0:0:0:0:
448,192,56300,128,4,56600:0:0:0:0:
192,192,56600,1,2,0:0:0:0:
320,192,56600,1,0,0:0:0:0:
64,192,56750,1,8,0:0:0:0:
192,192,56750,1,0,0:0:0:0:
448,192,56900,1,0,0:0:0:0:
192,192,57050,1,2,0:0:0:0:
320,192,57050,1,0,0:0:0:0:
64,192,57200,1,2,0:0:0:0:
448,192,57200,1,0,0:0:0:0:
64,192,57350,1,8,0:0:0:0:
192,192,57350,1,0,0:0:0:0:
320,192,57500,1,0,0:0:0:0:
192,192,57650,1,2,0:0:0:0:
448,192,57650,1,0,0:0:0:0:
64,192,57800,1,2,0:0:0:0:
320,192,57800,1,0,0:0:0:0:
192,192,57950,1,8,0:0:0:0:
320,192,57950,1,0,0:0:0:0:
448,192,58100,1,0,0:0:0:0:
64,192,58250,1,2,0:0:0:0:
192,192,58250,128,0,58400:0:0:0:0:
320,192,58400,1,2,0:0:0:0:
448,192,58400,128,0,58550:0:0:0:0:
64,192,58550,128,8,58700:0:0:0:0:
192,192,58550,1,0,0:0:0:0:
320,192,58700,128,0,58850:0:0:0:0:
64,192,58850,1,2,0:0:0:0:
192,192,58850,1,4,0:0:0:0:
448,192,58850,128,0,59150:0:0:0:0:
64,192,59150,1,8,0:0:0:0:
192,192,59150,1,0,0:0:0:0:
320,192,59300,1,0,0:0:0:0:
192,192,59450,1,2,0:0:0:0:
448,192,59450,1,0,0:0:0:0:
64,192,59600,1,2,0:0:0:0:
320,192,59600,1,0,0:0:0:0:
192,192,59750,1,8,0:0:0:0:
448,192,59750,1,0,0:0:0:0:
64,192,59900,1,0,0:0:0:0:
192,192,60050,1,2,0:0:0:0:
320,192,60050,1,0,0:0:0:0:
64,192,60200,1,2,0:0:0:0:
448,192,60200,1,0,0:0:0:0:
320,192,60350,1,8,0:0:0:0:
448,192,60350,1,0,0:0:0:0:
192,192,60500,1,0,0:0:0:0:
64,192,60650,1,2,0:0:0:0:
448,192,60650,1,0,0:0:0:0:
192,192,60800,1,2,0:0:0:0:
320,192,60800,1,0,0:0:0:0:
64,192,60950,1,8,0:0:0:0:
320,192,60950,1,0,0:0:0:0:
192,192,61100,1,2,0:0:0:0:
448,192,61100,128,4,61400:0:0:0:0:
64,192,61400,1,2,0:0:0:0:
192,192,61550,1,8,0:0:0:0:
320,192,61550,1,0,0:0:0:0:
448,192,61700,1,0,0:0:0:0:
64,192,61850,1,2,0:0:0:0:
192,192,61850,1,0,0:0:0:0:
320,192,62000,1,2,0:0:0:0:
448,192,62000,1,0,0:0:0:0:
64,192,62150,1,8,0:0:0:0:
448,192,62150,1,0,0:0:0:0:
192,192,62300,1,0,0:0:0:0:
64,192,62450,1,8,0:0:0:0:
448,192,62450,1,0,0:0:0:0:
320,192,62525,1,8,0:0:0:0:
192,192,62600,1,8,0:0:0:0:
64,192,62675,1,8,0:0:0:0:
320,192,62750,1,8,0:0:0:0:
448,192,62750,1,2,0:0:0:0:
64,192,62900,1,8,0:0:0:0:
192,192,62900,1,0,0:0:0:0:
320,192,63050,1,8,0:0:0:0:
448,192,63050,1,2,0:0:0:0:
64,192,63200,1,0,0:0:0:70:tom02.wav
320,192,63200,1,0,0:0:0:0:
192,192,63350,1,0,0:0:0:70:tom03.wav
448,192,63350,1,0,0:0:0:0:
64,192,63500,128,2,63650:0:0:0:0:
320,192,63500,1,4,0:0:0:0:
448,192,63500,1,0,0:0:0:0:
192,192,63650,1,0,0:0:0:0:
320,192,63800,128,2,63950:0:0:0:0:
448,192,63800,1,0,0:0:0:0:
64,192,63950,1,8,0:0:0:0:
192,192,63950,128,0,64250:0:0:0:0:
320,192,64250,1,2,0:0:0:0:
448,192,64250,1,0,0:0:0:0:
64,192,64400,1,2,0:0:0:0:
448,192,64400,1,0,0:0:0:0:
192,192,64550,1,8,0:0:0:0:
320,192,64550,1,0,0:0:0:0:
64,192,64700,1,2,0:0:0:0:
320,192,64700,1,4,0:0:0:0:
192,192,64850,1,0,0:0:0:0:
320,192,65000,1,2,0:0:0:0:
448,192,65000,1,0,0:0:0:0:
64,192,65150,1,8,0:0:0:0:
192,192,65150,1,0,0:0:0:0:
448,192,65300,1,0,0:0:0:0:
192,192,65450,1,2,0:0:0:0:
320,192,65450,1,0,0:0:0:0:
64,192,65600,1,2,0:0:0:0:
448,192,65600,1,0,0:0:0:0:
192,192,65750,1,8,0:0:0:0:
448,192,65750,128,0,65900:0:0:0:0:
320,192,65900,128,0,66050:0:0:0:0:
64,192,66050,1,2,0:0:0:0:
192,192,66050,1,0,0:0:0:0:
320,192,66200,1,2,0:0:0:0:
448,192,66200,1,0,0:0:0:0:
64,192,66350,128,8,66650:0:0:0:0:
448,192,66350,1,0,0:0:0:0:
192,192,66650,1,0,0:0:0:0:
448,192,66650,128,2,66950:0:0:0:0:
320,192,66800,1,2,0:0:0:0:
64,192,66950,1,8,0:0:0:0:
192,192,66950,128,0,67100:0:0:0:0:
320,192,67100,128,4,67400:0:0:0:0:
448,192,67100,1,2,0:0:0:0:
192,192,67400,1,2,0:0:0:0:
64,192,67400,1,0,0:0:0:0:
64,192,67550,1,8,0:0:0:0:
448,192,67550,1,0,0:0:0:0:
320,192,67700,1,0,0:0:0:0:
64,192,67850,1,2,0:0:0:0:
192,192,67850,1,0,0:0:0:0:
320,192,68000,1,2,0:0:0:0:
448,192,68000,1,0,0:0:0:0:
64,192,68150,1,8,0:0:0:0:
448,192,68150,1,0,0:0:0:0:
192,192,68300,128,2,68450:0:0:0:0:
320,192,68300,128,4,68450:0:0:0:0:
320,192,68600,1,2,0:0:0:0:
448,192,68600,128,0,68750:0:0:0:0:
64,192,68750,128,8,69050:0:0:0:0:
192,192,68750,1,0,0:0:0:0:
320,192,69050,1,2,0:0:0:0:
448,192,69050,1,0,0:0:0:0:
64,192,69200,1,2,0:0:0:0:
192,192,69200,1,0,0:0:0:0:
64,192,69350,1,8,0:0:0:0:
448,192,69350,1,0,0:0:0:0:
192,192,69500,1,2,0:0:0:0:
320,192,69500,1,4,0:0:0:0:
64,192,69650,1,0,0:0:0:0:
320,192,69800,1,2,0:0:0:0:
448,192,69800,1,0,0:0:0:0:
64,192,69950,1,8,0:0:0:0:
192,192,69950,1,0,0:0:0:0:
320,192,70100,1,0,0:0:0:0:
192,192,70250,1,2,0:0:0:0:
448,192,70250,1,0,0:0:0:0:
64,192,70400,1,2,0:0:0:0:
320,192,70400,1,0,0:0:0:0:
320,192,70550,1,8,0:0:0:0:
448,192,70550,128,0,70700:0:0:0:0:
192,192,70700,128,0,70850:0:0:0:0:
64,192,70850,1,2,0:0:0:0:
448,192,70850,1,0,0:0:0:0:
320,192,71000,1,0,0:0:0:0:
192,192,71150,128,8,71450:0:0:0:0:
448,192,71150,1,0,0:0:0:0:
64,192,71450,128,2,71600:0:0:0:0:
320,192,71450,1,0,0:0:0:0:
320,192,71600,1,2,0:0:0:0:
448,192,71600,128,0,71750:0:0:0:0:
64,192,71750,1,8,0:0:0:0:
192,192,71750,1,0,0:0:0:0:
320,192,71900,1,2,0:0:0:0:
448,192,71900,128,4,72200:0:0:0:0:
64,192,72200,1,2,0:0:0:0:
192,192,72200,1,0,0:0:0:0:
320,192,72350,128,8,72650:0:0:0:0:
448,192,72350,1,0,0:0:0:0:
64,192,72650,1,2,0:0:0:0:
192,192,72650,1,0,0:0:0:0:
448,192,72725,1,8,0:0:0:0:
320,192,72800,1,8,0:0:0:0:
192,192,72875,1,8,0:0:0:0:
448,192,72950,1,2,0:0:0:0:
64,192,73025,1,8,0:0:0:0:
192,192,73100,1,8,0:0:0:0:
320,192,73175,1,8,0:0:0:0:
64,192,73250,1,2,0:0:0:0:
448,192,73250,1,4,0:0:0:0:
192,192,73400,1,0,0:0:0:0:
320,192,73550,1,8,0:0:0:0:
448,192,73550,128,0,73700:0:0:0:0:
192,192,73700,128,0,73850:0:0:0:0:
64,192,73850,1,2,0:0:0:0:
448,192,73850,1,0,0:0:0:0:
192,192,74000,1,2,0:0:0:0:
320,192,74000,1,0,0:0:0:0:
64,192,74150,128,8,74300:0:0:0:0:
448,192,74150,1,0,0:0:0:0:
192,192,74300,128,0,74450:0:0:0:0:
320,192,74450,1,2,0:0:0:0:
448,192,74450,1,0,0:0:0:0:
192,192,74600,1,0,0:0:0:0:
64,192,74750,1,8,0:0:0:0:
448,192,74750,1,0,0:0:0:0:
320,192,74900,1,0,0:0:0:0:
64,192,75050,1,2,0:0:0:0:
192,192,75050,1,0,0:0:0:0:
320,192,75200,1,2,0:0:0:0:
448,192,75200,1,0,0:0:0:0:
64,192,75350,128,8,75500:0:0:0:0:
448,192,75350,1,0,0:0:0:0:
192,192,75500,128,0,75650:0:0:0:0:
320,192,75650,1,2,0:0:0:0:
448,192,75650,128,0,75800:0:0:0:0:
64,192,75800,1,0,0:0:0:0:
320,192,75950,128,8,76100:0:0:0:0:
448,192,75950,1,0,0:0:0:0:
192,192,76100,128,0,76250:0:0:0:0:
320,192,76250,1,2,0:0:0:0:
448,192,76250,1,0,0:0:0:0:
64,192,76400,1,2,0:0:0:0:
192,192,76400,128,0,76550:0:0:0:0:
320,192,76550,1,8,0:0:0:0:
448,192,76550,1,0,0:0:0:0:
64,192,76700,128,0,76850:0:0:0:0:
192,192,76850,1,2,0:0:0:0:
320,192,76850,1,0,0:0:0:0:
320,192,77000,1,2,0:0:0:0:
448,192,77000,128,0,77150:0:0:0:0:
64,192,77150,1,8,0:0:0:0:
192,192,77150,1,0,0:0:0:0:
320,192,77300,1,0,0:0:0:0:
192,192,77450,128,2,77600:0:0:0:0:
448,192,77450,1,0,0:0:0:0:
64,192,77600,1,2,0:0:0:0:
320,192,77600,128,0,77750:0:0:0:0:
64,192,77750,128,8,77900:0:0:0:0:
448,192,77750,1,0,0:0:0:0:
192,192,77900,128,0,78050:0:0:0:0:
64,192,78050,1,2,0:0:0:0:
320,192,78050,1,4,0:0:0:0:
448,192,78050,128,0,78200:0:0:0:0:
64,192,78350,128,8,78500:0:0:0:0:
192,192,78350,1,0,0:0:0:0:
320,192,78500,128,0,78650:0:0:0:0:
192,192,78650,1,2,0:0:0:0:
448,192,78650,1,0,0:0:0:0:
64,192,78800,1,2,0:0:0:0:
320,192,78800,1,0,0:0:0:0:
192,192,78950,1,8,0:0:0:0:
320,192,78950,1,0,0:0:0:0:
448,192,79100,1,0,0:0:0:0:
64,192,79250,1,2,0:0:0:0:
192,192,79250,1,0,0:0:0:0:
192,192,79400,1,2,0:0:0:0:
320,192,79400,1,0,0:0:0:0:
320,192,79550,1,8,0:0:0:0:
448,192,79550,1,0,0:0:0:0:
192,192,79700,1,0,0:0:0:0:
64,192,79850,1,2,0:0:0:0:
448,192,79850,1,0,0:0:0:0:
192,192,80000,1,2,0:0:0:0:
320,192,80000,1,0,0:0:0:0:
64,192,80150,128,8,80300:0:0:0:0:
192,192,80150,1,0,0:0:0:0:
448,192,80300,1,0,0:0:0:0:
64,192,80450,1,2,0:0:0:0:
192,192,80450,1,4,0:0:0:0:
320,192,80450,128,0,80600:0:0:0:0:
64,192,80750,128,8,80900:0:0:0:0:
448,192,80750,1,0,0:0:0:0:
192,192,80900,128,0,81050:0:0:0:0:
320,192,81050,1,2,0:0:0:0:
448,192,81050,1,0,0:0:0:0:
64,192,81200,1,2,0:0:0:0:
192,192,81200,1,0,0:0:0:0:
64,192,81350,1,8,0:0:0:0:
448,192,81350,128,0,81650:0:0:0:0:
192,192,81650,1,8,0:0:0:0:
320,192,81650,1,0,0:0:0:0:
64,192,81800,1,2,0:0:0:0:
192,192,81800,1,0,0:0:0:0:
320,192,81950,1,8,0:0:0:0:
448,192,81950,1,0,0:0:0:0:
192,192,82100,1,2,0:0:0:0:
320,192,82100,1,0,0:0:0:0:
64,192,82250,1,8,0:0:0:0:
448,192,82250,1,0,0:0:0:70:tom01.wav
192,192,82325,1,0,0:0:0:70:tom02.wav
320,192,82400,1,0,0:0:0:70:tom03.wav
192,192,82550,1,8,0:0:0:0:
448,192,82550,1,0,0:0:0:0:
64,192,82700,128,2,83000:0:0:0:0:
320,192,82700,1,4,0:0:0:0:
448,192,82700,1,0,0:0:0:0:
192,192,83000,1,2,0:0:0:0:
320,192,83150,1,8,0:0:0:0:
448,192,83150,1,0,0:0:0:0:
64,192,83300,1,0,0:0:0:0:
192,192,83450,1,2,0:0:0:0:
320,192,83450,1,0,0:0:0:0:
64,192,83600,1,2,0:0:0:0:
448,192,83600,1,0,0:0:0:0:
64,192,83750,1,8,0:0:0:0:
320,192,83750,1,0,0:0:0:0:
192,192,83900,1,2,0:0:0:0:
448,192,83900,128,4,84200:0:0:0:0:
320,192,84200,1,2,0:0:0:0:
64,192,84350,1,8,0:0:0:0:
192,192,84350,1,0,0:0:0:0:
320,192,84500,1,0,0:0:0:0:
64,192,84650,1,2,0:0:0:0:
448,192,84650,1,0,0:0:0:0:
192,192,84800,1,2,0:0:0:0:
320,192,84800,1,0,0:0:0:0:
320,192,84950,1,8,0:0:0:0:
448,192,84950,1,0,0:0:0:0:
64,192,85100,1,2,0:0:0:0:
192,192,85100,128,4,85400:0:0:0:0:
320,192,85400,1,2,0:0:0:0:
192,192,85550,1,8,0:0:0:0:
448,192,85550,1,0,0:0:0:0:
64,192,85700,1,0,0:0:0:0:
320,192,85850,1,2,0:0:0:0:
448,192,85850,1,0,0:0:0:0:
64,192,86000,1,2,0:0:0:0:
192,192,86000,1,0,0:0:0:0:
64,192,86150,1,8,0:0:0:0:
448,192,86150,1,0,0:0:0:0:
320,192,86300,128,2,86600:0:0:0:0:
448,192,86300,1,4,0:0:0:0:
192,192,86600,1,2,0:0:0:0:
64,192,86750,1,8,0:0:0:0:
320,192,86750,1,0,0:0:0:0:
448,192,86900,1,0,0:0:0:0:
192,192,87050,1,2,0:0:0:0:
320,192,87050,1,0,0:0:0:0:
64,192,87200,1,2,0:0:0:0:
320,192,87200,1,0,0:0:0:0:
192,192,87350,1,8,0:0:0:0:
448,192,87350,1,0,0:0:0:0:
64,192,87500,128,4,87800:0:0:0:0:
192,192,87500,1,2,0:0:0:0:
448,192,87800,1,2,0:0:0:0:
192,192,87950,1,8,0:0:0:0:
320,192,87950,1,0,0:0:0:0:
64,192,88100,1,0,0:0:0:0:
320,192,88250,1,2,0:0:0:0:
448,192,88250,1,0,0:0:0:0:
64,192,88400,1,2,0:0:0:0:
192,192,88400,1,0,0:0:0:0:
64,192,88550,1,8,0:0:0:0:
448,192,88550,1,0,0:0:0:0:
192,192,88700,128,2,89000:0:0:0:0:
448,192,88700,1,4,0:0:0:0:
320,192,89000,1,2,0:0:0:0:
64,192,89150,1,8,0:0:0:0:
192,192,89150,1,0,0:0:0:0:
320,192,89300,1,0,0:0:0:0:
64,192,89450,1,2,0:0:0:0:
448,192,89450,1,0,0:0:0:0:
192,192,89600,1,2,0:0:0:0:
320,192,89600,1,0,0:0:0:0:
64,192,89750,1,8,0:0:0:0:
320,192,89750,1,0,0:0:0:0:
192,192,89900,1,4,0:0:0:0:
448,192,89900,128,2,90200:0:0:0:0:
320,192,90200,1,2,0:0:0:0:
64,192,90350,1,8,0:0:0:0:
192,192,90350,1,0,0:0:0:0:
448,192,90500,1,0,0:0:0:0:
192,192,90650,1,2,0:0:0:0:
320,192,90650,1,0,0:0:0:0:
64,192,90800,1,2,0:0:0:0:
448,192,90800,1,0,0:0:0:0:
64,192,90950,1,8,0:0:0:0:
320,192,90950,1,0,0:0:0:0:
192,192,91100,1,2,0:0:0:0:
320,192,91100,1,4,0:0:0:0:
448,192,91250,1,0,0:0:0:0:
64,192,91400,1,2,0:0:0:0:
192,192,91400,1,0,0:0:0:0:
320,192,91550,1,8,0:0:0:0:
448,192,91550,1,0,0:0:0:0:
192,192,91700,1,0,0:0:0:0:
64,192,91850,1,8,0:0:0:0:
448,192,91850,1,0,0:0:0:70:tom01.wav
192,192,91925,1,0,0:0:0:70:tom02.wav
320,192,92000,1,0,0:0:0:70:tom03.wav
448,192,92075,1,0,0:0:0:70:tom04.wav
64,192,92150,1,8,0:0:0:0:
192,192,92150,1,0,0:0:0:0:
64,192,92300,1,2,0:0:0:0:
320,192,92300,128,4,92600:0:0:0:0:
448,192,92300,1,0,0:0:0:0:
192,192,92600,1,2,0:0:0:0:
64,192,92750,1,8,0:0:0:0:
448,192,92750,1,0,0:0:0:0:
320,192,92900,1,0,0:0:0:0:
64,192,93050,1,2,0:0:0:0:
192,192,93050,1,0,0:0:0:0:
320,192,93200,1,2,0:0:0:0:
448,192,93200,1,0,0:0:0:0:
64,192,93350,1,8,0:0:0:0:
448,192,93350,1,0,0:0:0:0:
192,192,93500,128,2,93800:0:0:0:0:
320,192,93500,1,4,0:0:0:0:
64,192,93800,1,2,0:0:0:0:
320,192,93950,1,8,0:0:0:0:
448,192,93950,1,0,0:0:0:0:
192,192,94100,1,0,0:0:0:0:
64,192,94250,1,2,0:0:0:0:
448,192,94250,1,0,0:0:0:0:
192,192,94400,1,2,0:0:0:0:
320,192,94400,1,0,0:0:0:0:
64,192,94550,1,8,0:0:0:0:
320,192,94550,1,0,0:0:0:0:
192,192,94700,1,4,0:0:0:0:
448,192,94700,128,2,95000:0:0:0:0:
320,192,95000,1,2,0:0:0:0:
64,192,95150,1,8,0:0:0:0:
192,192,95150,1,0,0:0:0:0:
448,192,95300,1,0,0:0:0:0:
64,192,95450,1,2,0:0:0:0:
320,192,95450,1,0,0:0:0:0:
192,192,95600,1,2,0:0:0:0:
448,192,95600,1,0,0:0:0:0:
192,192,95750,1,8,0:0:0:0:
320,192,95750,1,0,0:0:0:0:
64,192,95900,1,2,0:0:0:0:
448,192,95900,1,4,0:0:0:0:
320,192,96050,1,0,0:0:0:0:
64,192,96200,1,2,0:0:0:0:
192,192,96200,1,0,0:0:0:0:
320,192,96350,1,8,0:0:0:0:
448,192,96350,1,0,0:0:0:0:
192,192,96500,1,0,0:0:0:0:
64,192,96650,1,2,0:0:0:0:
320,192,96650,1,0,0:0:0:0:
192,192,96800,1,2,0:0:0:0:
448,192,96800,1,0,0:0:0:0:
320,192,96950,1,8,0:0:0:0:
448,192,96950,1,0,0:0:0:0:
64,192,97100,128,4,97400:0:0:0:0:
192,192,97100,1,2,0:0:0:0:
320,192,97400,1,2,0:0:0:0:
192,192,97550,1,8,0:0:0:0:
448,192,97550,1,0,0:0:0:0:
64,192,97700,1,0,0:0:0:0:
192,192,97850,1,2,0:0:0:0:
320,192,97850,1,0,0:0:0:0:
320,192,98000,1,2,0:0:0:0:
448,192,98000,1,0,0:0:0:0:
64,192,98150,1,8,0:0:0:0:
192,192,98150,1,0,0:0:0:0:
320,192,98300,1,2,0:0:0:0:
448,192,98300,128,4,98600:0:0:0:0:
192,192,98600,1,2,0:0:0:0:
64,192,98750,1,8,0:0:0:0:
448,192,98750,1,0,0:0:0:0:
320,192,98900,1,0,0:0:0:0:
64,192,99050,1,2,0:0:0:0:
192,192,99050,1,0,0:0:0:0:
320,192,99200,1,8,0:0:0:0:
448,192,99200,1,0,0:0:0:0:
64,192,99350,1,2,0:0:0:0:
192,192,99350,1,0,0:0:0:0:
448,192,99500,1,0,0:0:0:0:
64,192,99650,128,0,99725:0:0:0:0:
64,192,99800,128,0,99875:0:0:0:0:
64,192,100100,128,0,100175:0:0:0:0:
64,192,100250,128,0,100325:0:0:0:0:
64,192,100550,128,0,100625:0:0:0:0:
64,192,100700,128,0,100775:0:0:0:0:
192,192,101000,128,0,101150:0:0:0:0:
448,192,101150,128,0,101300:0:0:0:0:
320,192,101300,128,0,101450:0:0:0:0:
64,192,101450,1,8,0:0:0:0:
192,192,101450,1,0,0:0:0:0:
320,192,101600,1,8,0:0:0:0:
448,192,101600,1,0,0:0:0:0:
64,192,101750,1,8,0:0:0:0:
192,192,101750,1,0,0:0:0:0:
64,192,101900,1,2,0:0:0:0:
320,192,101900,128,4,108050:0:0:0:0:
448,192,101900,128,0,109250:0:0:0:0:
