osu file format v14

[General]
AudioFilename: audio.mp3
AudioLeadIn: 0
PreviewTime: 101456
Countdown: 0
SampleSet: Soft
StackLeniency: 0.5
Mode: 0
LetterboxInBreaks: 0
WidescreenStoryboard: 1

[Editor]
Bookmarks: 159,7207,14276,28394,42511,67217,74276,88394,137806,155453,162511,176629,190647,218882,233100,237070,332043
DistanceSpacing: 1
BeatDivisor: 12
GridSize: 8
TimelineZoom: 3.000001

[Metadata]
Title:S-LOW
TitleUnicode:S-LOW
Artist:THE ORAL CIGARETTES
ArtistUnicode:THE ORAL CIGARETTES
Creator:ShiiTsuin
Version:COLOUR
Source:
Tags:DIP-BAP rock japanese
BeatmapID:2261351
BeatmapSetID:1075753

[Difficulty]
HPDrainRate:5
CircleSize:4.2
OverallDifficulty:9
ApproachRate:9.1
SliderMultiplier:2
SliderTickRate:1

[Events]
//Background and Video events
0,0,"77559996_p0.jpg",0,0
//Break Periods
2,247317,259944
//Storyboard Layer 0 (Background)
//Storyboard Layer 1 (Fail)
//Storyboard Layer 2 (Pass)
//Storyboard Layer 3 (Foreground)
//Storyboard Layer 4 (Overlay)
//Storyboard Sound Samples

[TimingPoints]
59,882.352941176471,2,2,1,57,1,0
59,-50,2,2,1,57,0,0
12411,-83.3333333333333,2,2,1,40,0,0
14176,-45.4545454545455,2,2,1,66,0,0
20647,-45.4545454545455,2,2,3,68,0,0
20941,-45.4545454545455,2,2,2,68,0,0
21235,-45.4545454545455,2,2,1,68,0,0
27411,-45.4545454545455,2,2,4,68,0,0
27706,-45.4545454545455,2,2,3,72,0,0
28000,-45.4545454545455,2,2,2,70,0,0
28294,-45.4545454545455,2,2,1,66,0,0
34764,-45.4545454545455,2,2,3,72,0,0
35058,-45.4545454545455,2,2,2,70,0,0
35353,-45.4545454545455,2,2,1,68,0,0
41529,-45.4545454545455,2,2,4,68,0,0
41823,-45.4545454545455,2,2,3,68,0,0
42117,-45.4545454545455,2,2,2,68,0,0
42411,-71.4285714285714,2,2,1,49,0,0
47706,-71.4285714285714,2,2,4,68,0,0
47926,-71.4285714285714,2,2,4,5,0,0
48000,-83.3333333333333,2,2,3,60,0,0
48220,-83.3333333333333,2,2,3,5,0,0
48294,-100,2,2,2,52,0,0
48514,-66.6666666666667,2,2,2,5,0,0
48588,-66.6666666666667,2,2,1,68,0,0
49029,-83.3333333333333,2,2,1,37,0,0
49470,-58.8235294117647,2,2,1,53,0,0
67117,-69.4444444444444,2,2,1,53,0,0
73588,-69.4444444444444,2,2,3,60,0,0
73882,-69.4444444444444,2,2,2,60,0,0
74176,-55.5555555555556,2,2,1,52,0,0
87706,-55.5555555555556,2,2,3,68,0,0
88000,-55.5555555555556,2,2,2,68,0,0
88294,-55.5555555555556,2,2,1,60,0,0
98882,-55.5555555555556,2,2,1,68,0,0
101750,-55.5555555555556,2,2,1,5,0,0
101823,-45.4545454545455,2,2,1,68,0,0
102044,-45.4545454545455,2,2,1,5,0,0
102117,-38.4615384615385,2,2,1,68,0,0
102338,-38.4615384615385,2,2,1,5,0,0
102411,-33.3333333333333,2,2,1,71,0,1
115647,-50,2,2,1,68,0,1
115867,-50,2,2,1,5,0,1
115941,-38.4615384615385,2,2,1,68,0,1
116161,-38.4615384615385,2,2,1,5,0,1
116235,-33.3333333333333,2,2,1,68,0,1
116456,-33.3333333333333,2,2,1,5,0,1
116529,-33.3333333333333,2,2,1,68,0,1
128882,-28.5714285714286,2,2,1,68,0,1
129764,-31.25,2,2,1,68,0,1
130058,-31.25,2,2,3,68,0,1
130353,-31.25,2,2,2,68,0,1
130647,-45.4545454545455,2,2,1,48,0,0
135941,-55.5555555555556,2,2,2,68,0,0
136161,-55.5555555555556,2,2,2,5,0,0
136235,-71.4285714285714,2,2,2,68,0,0
136456,-71.4285714285714,2,2,2,5,0,0
136529,-100,2,2,2,68,0,0
136750,-100,2,2,2,5,0,0
136823,-100,2,2,1,68,0,0
137264,-83.3333333333333,2,2,1,48,0,0
137706,-55.5555555555556,2,2,1,54,0,0
151235,-55.5555555555556,2,2,3,68,0,0
151529,-55.5555555555556,2,2,2,68,0,0
151823,-55.5555555555556,2,2,1,50,0,0
155353,-71.4285714285714,2,2,1,54,0,0
161823,-71.4285714285714,2,2,4,60,0,0
162117,-71.4285714285714,2,2,3,60,0,0
162411,-55.5555555555556,2,2,1,58,0,0
175941,-55.5555555555556,2,2,3,68,0,0
176235,-55.5555555555556,2,2,2,68,0,0
176529,-55.5555555555556,2,2,1,68,0,0
188882,-55.5555555555556,2,2,4,68,0,0
189176,-55.5555555555556,2,2,3,68,0,0
189470,-55.5555555555556,2,2,2,68,0,0
189764,-55.5555555555556,2,2,1,68,0,0
189985,-55.5555555555556,2,2,1,5,0,0
190058,-41.6666666666667,2,2,1,68,0,0
190279,-41.6666666666667,2,2,1,5,0,0
190353,-33.3333333333333,2,2,1,68,0,0
190573,-33.3333333333333,2,2,1,5,0,0
190647,-31.25,2,2,1,68,0,1
203882,-45.4545454545455,2,2,1,68,0,1
204103,-45.4545454545455,2,2,1,5,0,1
204176,-37.037037037037,2,2,1,68,0,1
204397,-37.037037037037,2,2,1,5,0,1
204470,-31.25,2,2,1,68,0,1
204691,-31.25,2,2,1,5,0,1
204764,-31.25,2,2,1,68,0,1
218294,-31.25,2,2,3,68,0,1
218588,-31.25,2,2,2,68,0,1
218882,-31.25,2,2,1,68,0,0
222411,-27.7777777777778,2,2,1,68,0,1
245647,-27.7777777777778,2,2,4,68,0,1
245941,-27.7777777777778,2,2,3,68,0,1
246235,-27.7777777777778,2,2,1,68,0,1
246529,-27.7777777777778,2,2,3,68,0,1
246823,-27.7777777777778,2,2,2,68,0,1
247117,-27.7777777777778,2,2,1,48,0,0
260528,1019.54120645709,2,2,1,68,1,0
260528,-41.6666666666667,2,2,1,68,0,0
260782,-50,2,2,1,5,0,0
260867,882.352941176471,2,2,1,68,1,0
260867,-38.4615384615385,2,2,1,68,0,0
261088,-38.4615384615385,2,2,1,5,0,0
261161,-31.25,2,2,1,68,0,0
261382,-31.25,2,2,1,5,0,0
261455,882.352941176471,2,2,1,68,1,1
261455,-31.25,2,2,1,68,0,1
274984,-31.25,2,2,3,68,0,1
275278,-31.25,2,2,2,68,0,1
275572,-31.25,2,2,1,75,0,1
288807,-45.4545454545455,2,2,1,68,0,1
289028,-45.4545454545455,2,2,1,5,0,1
289102,-38.4615384615385,2,2,1,68,0,1
289322,-38.4615384615385,2,2,1,5,0,1
289396,-33.3333333333333,2,2,1,68,0,1
289616,-33.3333333333333,2,2,1,5,0,1
289690,-31.25,2,2,1,68,0,1
302043,-26.3157894736842,2,2,1,68,0,1
302925,-31.25,2,2,1,68,0,1
303219,-31.25,2,2,3,68,0,1
303513,-31.25,2,2,2,68,0,1
303807,-45.4545454545455,2,2,1,61,0,0
310278,-45.4545454545455,2,2,3,68,0,0
310572,-45.4545454545455,2,2,2,68,0,0
310866,-45.4545454545455,2,2,1,61,0,0
317043,-45.4545454545455,2,2,4,68,0,0
317337,-45.4545454545455,2,2,3,68,0,0
317631,-45.4545454545455,2,2,2,68,0,0
317925,-45.4545454545455,2,2,1,60,0,0
324396,-45.4545454545455,2,2,3,68,0,0
324690,-45.4545454545455,2,2,2,68,0,0
324984,-45.4545454545455,2,2,1,60,0,0
330278,-45.4545454545455,2,2,1,71,0,0
331160,-45.4545454545455,2,2,4,68,0,0
331455,-45.4545454545455,2,2,3,68,0,0
331749,-45.4545454545455,2,2,2,68,0,0
332043,-55.5555555555556,2,2,1,51,0,0
341749,-55.5555555555556,2,2,3,68,0,0
341969,-55.5555555555556,2,2,3,5,0,0
342043,-71.4285714285714,2,2,2,68,0,0
342263,-71.4285714285714,2,2,2,5,0,0
342337,-71.4285714285714,2,2,1,72,0,0

[Colours]
Combo1 : 133,22,233
Combo2 : 220,78,120
Combo3 : 205,29,73
Combo4 : 75,155,243

[HitObjects]
24,0,59,6,0,L|13:156,1,133.333333333333,6|0,3:2|0:0,0:0:0:0:
90,235,500,2,0,L|83:152,1,66.6666666666667,8|0,3:0|3:0,0:0:0:0:
7,372,941,2,0,P|44:364|87:365,1,66.6666666666667,10|0,3:0|0:0,0:0:0:0:
139,314,1235,2,0,P|176:322|219:321,1,66.6666666666667,2|0,3:0|0:0,0:0:0:0:
488,0,1823,6,0,L|499:156,1,133.333333333333,6|0,3:2|0:0,0:0:0:0:
422,235,2264,2,0,L|429:152,1,66.6666666666667,8|0,3:0|3:0,0:0:0:0:
505,372,2705,2,0,P|468:364|425:365,1,66.6666666666667,10|0,3:0|0:0,0:0:0:0:
373,313,2999,2,0,P|336:321|293:320,1,66.6666666666667,2|0,3:0|0:0,0:0:0:0:
61,32,3588,6,0,L|217:21,1,133.333333333333,6|0,3:2|0:0,0:0:0:0:
296,98,4029,2,0,L|213:91,1,66.6666666666667,8|0,3:0|3:0,0:0:0:0:
433,15,4470,2,0,P|425:52|426:95,1,66.6666666666667,10|0,3:0|0:0,0:0:0:0:
375,147,4764,2,0,P|383:184|382:227,1,66.6666666666667,2|0,3:0|0:0,0:0:0:0:
60,346,5353,6,0,L|216:357,1,133.333333333333,6|0,3:2|0:0,0:0:0:0:
295,280,5794,2,0,L|212:287,1,66.6666666666667,8|0,3:0|3:0,0:0:0:0:
432,363,6235,2,0,P|424:326|425:283,1,66.6666666666667,10|0,3:0|0:0,0:0:0:0:
374,231,6529,2,0,P|382:194|381:151,1,66.6666666666667,2|0,3:0|0:0,0:0:0:0:
49,360,7117,6,0,L|34:209,1,133.333333333333,6|0,3:2|0:0,0:0:0:0:
31,365,7558,1,10,3:0:0:0:
121,323,7706,1,0,3:0:0:0:
286,378,8000,2,0,L|278:312,1,66.6666666666667,10|0,3:0|0:0,0:0:0:0:
193,264,8294,2,0,L|197:197,1,66.6666666666667,2|0,3:0|0:0,0:0:0:0:
463,24,8882,6,0,L|478:175,1,133.333333333333,6|0,3:2|0:0,0:0:0:0:
481,19,9323,1,10,3:0:0:0:
391,61,9471,1,0,3:0:0:0:
225,5,9764,2,0,L|234:72,1,66.6666666666667,10|0,3:0|0:0,0:0:0:0:
319,127,10059,2,0,L|314:193,1,66.6666666666667,2|0,3:0|0:0,0:0:0:0:
23,10,10647,6,0,L|17:161,1,133.333333333333,6|0,3:2|0:0,0:0:0:0:
38,12,11088,1,10,3:0:0:0:
111,79,11235,1,0,3:0:0:0:
290,1,11529,2,0,L|281:68,1,66.6666666666667,10|0,3:0|0:0,0:0:0:0:
196,123,11824,2,0,L|201:189,1,66.6666666666667,2|0,3:0|0:0,0:0:0:0:
373,299,12411,6,0,P|365:259|364:220,2,79.9999975585938,6|2|2,3:2|0:0|0:0,0:0:0:0:
229,206,13294,2,0,P|237:166|239:127,2,79.9999975585938,2|2|2,0:0|0:0|0:0,0:0:0:0:
201,23,14176,6,0,L|81:40,1,110.000003356934,6|0,3:0|0:0,0:0:0:0:
74,26,14470,1,0,0:0:0:0:
209,44,14617,1,10,3:0:0:0:
228,121,14764,1,2,3:0:0:0:
180,186,14911,1,2,0:0:0:0:
18,240,15058,6,0,P|72:259|111:325,1,110.000003356934,10|0,3:0|0:0,0:0:0:0:
108,336,15353,2,0,P|74:295|75:248,1,73.3333355712891,2|8,0:0|3:0,0:0:0:0:
128,210,15647,1,2,3:0:0:0:
216,245,15794,1,8,3:0:0:0:
311,363,15941,6,0,L|319:219,1,110.000003356934,6|0,3:2|0:0,0:0:0:0:
331,234,16235,1,2,0:0:0:0:
330,372,16382,1,10,3:0:0:0:
316,295,16529,1,2,3:0:0:0:
300,218,16676,1,2,3:0:0:0:
128,210,16823,6,0,P|178:198|201:125,1,110.000003356934,10|0,3:0|0:0,0:0:0:0:
178,78,17117,1,10,3:0:0:0:
67,171,17264,1,8,3:0:0:0:
247,15,17411,1,10,3:0:0:0:
309,166,17558,1,8,3:0:0:0:
484,22,17706,6,0,P|468:76|475:162,1,110.000003356934,6|0,3:2|0:0,0:0:0:0:
484,151,18000,1,2,0:0:0:0:
489,315,18147,1,10,3:0:0:0:
474,242,18294,1,2,3:0:0:0:
459,169,18441,1,2,3:0:0:0:
350,251,18588,6,0,L|339:360,1,110.000003356934,10|0,3:0|0:0,0:0:0:0:
363,374,18882,1,2,0:0:0:0:
333,240,19029,1,8,3:0:0:0:
249,218,19176,1,2,3:0:0:0:
187,279,19323,1,8,3:0:0:0:
63,296,19470,6,0,P|27:253|50:142,1,146.666671142578,6|0,3:2|3:0,0:0:0:0:
213,132,19911,1,8,3:0:0:0:
129,154,20058,1,2,3:0:0:0:
45,175,20206,1,0,3:0:0:0:
24,30,20353,6,0,L|156:49,1,110.000003356934,10|0,3:0|0:0,0:0:0:0:
211,15,20647,1,0,3:0:0:0:
225,138,20794,1,0,3:0:0:0:
122,150,20941,5,2,3:0:0:0:
133,46,21088,1,0,3:0:0:0:
61,285,21235,6,0,B|132:308|134:251|213:280,1,146.666671142578,6|0,3:0|0:0,0:0:0:0:
51,309,21676,1,8,3:0:0:0:
30,222,21823,1,0,3:0:0:0:
9,135,21970,1,0,3:0:0:0:
47,330,22117,5,10,3:0:0:0:
47,330,22411,2,0,P|105:308|146:318,1,73.3333355712891,2|8,0:0|3:0,0:0:0:0:
187,364,22706,1,2,3:0:0:0:
269,280,22853,1,8,3:0:0:0:
402,367,23000,6,0,L|384:218,1,146.666671142578,4|0,3:2|0:0,0:0:0:0:
384,378,23441,1,8,3:0:0:0:
394,296,23588,1,0,3:0:0:0:
405,214,23735,1,0,3:0:0:0:
316,70,23882,6,0,P|348:116|410:137,1,110.000003356934,10|0,3:0|0:0,0:0:0:0:
424,130,24176,2,0,L|429:83,2,36.6666677856446,10|8|8,3:0|3:0|3:0,0:0:0:0:
408,228,24470,1,10,3:0:0:0:
393,323,24617,1,8,3:0:0:0:
251,238,24764,6,0,B|178:210|175:274|88:246,1,146.666671142578,6|0,3:2|0:0,0:0:0:0:
52,98,25206,1,8,3:0:0:0:
73,179,25353,1,0,3:0:0:0:
94,260,25500,1,0,3:0:0:0:
186,374,25647,6,0,P|231:327|278:321,1,110.000003356934,10|0,3:0|0:0,0:0:0:0:
344,384,25941,2,0,P|354:337|373:315,1,73.3333355712891,2|8,0:0|3:0,0:0:0:0:
498,377,26235,2,0,P|466:336|456:302,1,73.3333355712891,2|0,0:0|0:0,0:0:0:0:
490,240,26529,5,10,3:0:0:0:
499,139,26676,1,0,3:3:0:0:
347,228,26823,5,8,3:0:0:0:
331,92,26970,1,0,3:3:0:0:
222,273,27117,2,0,P|215:197|188:145,1,110.000003356934,8|0,3:0|0:0,0:0:0:0:
176,150,27411,5,0,3:0:0:0:
87,175,27558,1,0,3:0:0:0:
151,253,27706,5,0,3:0:0:0:
222,273,27853,1,0,3:0:0:0:
186,340,28000,5,0,3:0:0:0:
129,356,28147,1,0,3:0:0:0:
229,266,28294,6,0,P|304:271|382:307,1,146.666671142578,6|0,3:0|0:0,0:0:0:0:
220,254,28735,1,10,3:0:0:0:
299,224,28882,1,2,3:0:0:0:
378,194,29029,1,2,3:0:0:0:
369,57,29176,6,0,L|237:27,1,110.000003356934,10|0,3:0|0:0,0:0:0:0:
264,50,29470,2,0,L|351:42,1,73.3333355712891,2|8,0:0|3:0,0:0:0:0:
431,22,29764,1,2,3:0:0:0:
496,87,29911,1,8,3:0:0:0:
475,224,30059,6,0,P|415:209|334:216,1,110.000003356934,6|0,3:2|0:0,0:0:0:0:
347,226,30353,1,2,0:0:0:0:
160,292,30500,1,10,3:0:0:0:
246,263,30647,1,2,3:0:0:0:
333,235,30794,1,2,3:0:0:0:
280,94,30941,6,0,L|141:81,1,110.000003356934,10|0,3:0|0:0,0:0:0:0:
156,121,31235,2,0,L|110:130,2,36.6666677856446,10|8|8,3:0|3:0|3:0,0:0:0:0:
77,52,31529,1,10,3:0:0:0:
0,99,31676,1,8,3:0:0:0:
50,236,31823,6,0,B|103:255|101:208|178:232,1,110.000003356934,6|0,3:2|0:0,0:0:0:0:
183,240,32117,1,2,0:0:0:0:
37,230,32264,1,10,3:0:0:0:
52,305,32411,1,2,3:0:0:0:
67,381,32558,1,2,3:0:0:0:
212,312,32706,6,0,P|259:304|320:323,1,110.000003356934,10|0,3:0|0:0,0:0:0:0:
352,359,33000,2,0,P|308:354|286:334,1,73.3333355712891,2|8,0:0|3:0,0:0:0:0:
305,243,33294,1,2,3:0:0:0:
385,212,33441,1,8,3:0:0:0:
477,364,33588,6,0,L|462:191,1,146.666671142578,6|0,3:2|0:0,0:0:0:0:
458,377,34029,1,8,3:0:0:0:
471,292,34176,1,2,3:0:0:0:
484,208,34323,1,0,3:0:0:0:
367,41,34470,6,0,L|386:182,1,110.000003356934,10|0,3:0|0:0,0:0:0:0:
401,181,34764,1,0,3:0:0:0:
418,69,34911,1,0,3:0:0:0:
497,4,35058,5,2,3:0:0:0:
512,107,35206,1,0,3:0:0:0:
286,84,35353,6,0,B|209:61|211:127|127:92,1,146.666671142578,6|0,3:0|0:0,0:0:0:0:
8,8,35794,1,8,3:0:0:0:
18,84,35941,1,0,3:0:0:0:
29,162,36088,1,0,3:0:0:0:
212,179,36235,1,10,3:0:0:0:
212,179,36529,6,0,P|163:197|135:231,1,73.3333355712891,2|8,0:0|3:0,0:0:0:0:
112,307,36823,1,2,3:0:0:0:
176,384,36970,1,8,3:0:0:0:
324,290,37117,6,0,P|315:178|320:114,1,146.666671142578,6|0,3:2|0:0,0:0:0:0:
344,298,37558,1,8,3:0:0:0:
317,220,37706,1,0,3:0:0:0:
291,142,37853,1,0,3:0:0:0:
123,47,38000,6,0,P|154:115|204:129,1,110.000003356934,10|0,3:0|0:0,0:0:0:0:
221,116,38294,2,0,L|227:68,2,36.6666677856446,8|8|8,3:0|3:0|3:0,0:0:0:0:
201,212,38588,1,10,3:0:0:0:
187,300,38735,1,8,3:0:0:0:
337,211,38882,6,0,L|496:189,1,146.666671142578,6|0,3:2|0:0,0:0:0:0:
336,193,39323,1,8,3:0:0:0:
411,205,39470,1,0,3:0:0:0:
487,217,39617,1,0,3:0:0:0:
386,366,39764,6,0,P|349:316|286:299,1,110.000003356934,10|0,3:0|0:0,0:0:0:0:
225,312,40058,2,0,L|212:392,1,73.3333355712891,2|8,0:0|3:0,0:0:0:0:
100,274,40353,2,0,L|113:354,1,73.3333355712891,2|0,3:0|0:0,0:0:0:0:
241,215,40647,5,10,3:0:0:0:
272,69,40794,1,0,3:0:0:0:
100,274,40941,5,8,3:0:0:0:
68,128,41088,1,0,3:0:0:0:
226,308,41235,1,8,3:0:0:0:
457,124,41529,5,0,3:0:0:0:
375,188,41676,1,0,3:0:0:0:
366,162,41750,1,0,3:0:0:0:
359,137,41823,1,0,3:0:0:0:
323,28,41970,1,0,3:0:0:0:
253,189,42117,1,0,3:0:0:0:
160,76,42264,1,0,3:0:0:0:
43,122,42411,2,0,L|36:194,1,69.9999978637696,6|0,3:0|0:0,0:0:0:0:
47,211,42706,6,8,L|47:239,2,23.3333326212565,8|8|8,3:0|3:0|3:0,3:0:0:0:
111,175,43000,1,8,3:0:0:0:
182,202,43147,1,8,3:0:0:0:
185,281,43294,1,8,3:0:0:0:
425,265,43588,6,8,L|425:293,2,23.3333326212565,8|8|8,3:0|3:0|3:0,3:0:0:0:
361,229,43882,1,8,3:0:0:0:
290,256,44029,1,8,3:0:0:0:
287,335,44176,1,8,3:0:0:0:
130,330,44470,6,8,L|101:334,2,23.3333326212565,8|8|8,3:0|3:0|3:0,3:0:0:0:
121,254,44764,1,8,3:0:0:0:
107,182,44911,1,8,3:0:0:0:
93,110,45058,1,8,3:0:0:0:
290,256,45353,6,8,L|319:260,2,23.3333326212565,8|8|8,3:0|3:0|3:0,3:0:0:0:
299,180,45647,1,8,3:0:0:0:
313,108,45794,1,8,3:0:0:0:
327,36,45941,1,8,3:0:0:0:
93,110,46235,6,8,L|93:82,2,23.3333326212565,8|8|8,3:0|3:0|3:0,3:0:0:0:
157,146,46529,1,8,3:0:0:0:
228,119,46676,1,8,3:0:0:0:
231,40,46823,1,8,3:0:0:0:
366,189,47117,6,8,L|366:161,2,23.3333326212565,8|8|8,3:0|3:0|3:0,3:0:0:0:
302,225,47411,1,8,3:0:0:0:
231,198,47558,1,8,3:0:0:0:
228,119,47706,6,0,L|234:31,1,69.9999978637696,0|0,3:0|0:0,0:0:0:0:
210,120,48000,6,0,L|201:43,1,59.9999981689454,0|0,3:0|0:0,0:0:0:0:
191,128,48294,6,0,L|172:65,1,50,0|0,3:0|0:0,0:0:0:0:
108,51,48588,1,8,3:0:0:0:
127,287,49176,2,0,L|51:291,1,59.9999981689454,2|0,0:0|0:0,0:0:0:0:
43,271,49470,6,0,L|235:295,1,170.000003242493,6|0,3:0|0:0,0:0:0:0:
260,300,50058,1,2,3:0:0:0:
343,216,50353,2,0,P|382:195|462:184,1,113.333335494995,8|0,3:0|0:0,0:0:0:0:
497,253,50941,1,0,3:0:0:0:
461,335,51235,6,0,P|422:314|342:303,1,113.333335494995,0|0,3:0|0:0,0:0:0:0:
292,355,51823,1,0,3:0:0:0:
211,273,52117,2,0,L|205:201,1,56.6666677474976,10|0,3:0|0:0,0:0:0:0:
296,179,52411,2,0,L|291:238,1,56.6666677474976,2|0,0:0|0:0,0:0:0:0:
197,204,52706,2,0,L|192:144,1,56.6666677474976,2|0,3:0|0:0,0:0:0:0:
236,69,53000,6,0,B|294:52|294:86|362:71,1,113.333335494995,2|0,3:0|0:0,0:0:0:0:
419,37,53441,2,0,P|426:69|457:105,1,56.6666677474976,2|0,0:0|3:0,0:0:0:0:
473,100,53735,1,2,0:0:0:0:
512,199,53882,2,0,L|452:207,1,56.6666677474976,10|0,3:0|0:0,0:0:0:0:
399,279,54176,2,0,L|339:271,1,56.6666677474976,2|0,0:0|0:0,0:0:0:0:
298,215,54470,2,0,L|238:223,1,56.6666677474976,2|0,3:0|0:0,0:0:0:0:
149,278,54764,6,0,L|129:142,1,113.333335494995,2|0,3:0|0:0,0:0:0:0:
152,154,55206,2,0,L|144:230,1,56.6666677474976,2|0,0:0|3:0,0:0:0:0:
95,348,55647,2,0,P|81:311|55:285,1,56.6666677474976,10|0,3:0|0:0,0:0:0:0:
0,246,55941,2,0,P|24:215|34:180,1,56.6666677474976,2|0,0:0|0:0,0:0:0:0:
2,104,56235,2,0,L|83:116,1,56.6666677474976,2|0,3:0|0:0,0:0:0:0:
179,96,56529,6,0,L|-3:121,1,170.000003242493,2|0,3:0|0:0,0:0:0:0:
30,198,57117,2,0,L|99:210,1,56.6666677474976,2|0,3:0|0:0,0:0:0:0:
195,167,57411,2,0,P|177:234|181:293,1,113.333335494995,8|0,3:0|0:0,0:0:0:0:
210,355,58000,1,0,3:0:0:0:
277,298,58294,6,0,P|328:267|386:253,1,113.333335494995,0|0,3:0|0:0,0:0:0:0:
453,291,58882,1,0,3:0:0:0:
470,150,59176,2,0,L|478:73,1,56.6666677474976,10|0,3:0|0:0,0:0:0:0:
379,52,59470,2,0,L|385:111,1,56.6666677474976,2|0,0:0|0:0,0:0:0:0:
486,78,59764,2,0,L|494:1,1,56.6666677474976,2|0,3:0|0:0,0:0:0:0:
363,52,60058,6,0,P|290:65|233:37,1,113.333335494995,2|0,3:0|0:0,0:0:0:0:
208,74,60500,2,0,P|234:67|275:75,1,56.6666677474976,2|0,0:0|3:0,0:0:0:0:
303,142,60794,1,2,0:0:0:0:
254,259,60941,2,0,P|170:245|75:243,1,170.000003242493,10|0,3:0|0:0,0:0:0:0:
36,219,61529,2,0,P|84:218|118:209,1,56.6666677474976,2|0,3:0|0:0,0:0:0:0:
176,168,61823,6,0,L|190:33,1,113.333335494995,2|0,3:0|0:0,0:0:0:0:
170,47,62264,2,0,L|183:125,1,56.6666677474976,2|0,0:0|3:0,0:0:0:0:
226,227,62706,2,0,P|254:217|288:221,1,56.6666677474976,10|0,3:0|0:0,0:0:0:0:
344,265,63000,2,0,P|372:275|406:271,1,56.6666677474976,2|0,0:0|0:0,0:0:0:0:
463,229,63294,2,0,L|467:157,1,56.6666677474976,2|0,3:0|0:0,0:0:0:0:
458,69,63588,6,0,L|478:254,1,170.000003242493,6|0,3:2|0:0,0:0:0:0:
485,324,64176,2,0,P|448:322|413:339,1,56.6666677474976,2|0,3:0|0:0,0:0:0:0:
356,378,64470,2,0,P|330:308|291:258,1,113.333335494995,8|0,3:0|0:0,0:0:0:0:
229,237,65058,2,0,P|211:276|187:298,1,56.6666677474976,2|0,3:0|0:0,0:0:0:0:
111,288,65353,6,0,P|85:225|96:131,1,141.666669368744,2|0,3:0|0:0,0:0:0:0:
104,153,65794,2,0,P|106:191|92:229,1,56.6666677474976,2|0,0:0|3:0,0:0:0:0:
22,275,66088,1,2,0:0:0:0:
0,163,66235,1,10,3:0:0:0:
89,148,67117,6,0,L|95:101,2,48.000001171875,6|2|2,3:2|0:0|0:0,0:0:0:0:
170,155,67559,2,0,L|176:108,1,48.000001171875,2|2,0:0|3:0,0:0:0:0:
182,28,67853,1,0,0:0:0:0:
179,10,68000,1,10,3:0:0:0:
248,64,68294,1,2,0:0:0:0:
320,38,68588,1,2,3:0:0:0:
390,84,68882,6,0,L|391:146,2,48.000001171875,2|2|2,3:0|0:0|0:0,0:0:0:0:
464,80,69323,2,0,L|463:148,1,48.000001171875,2|0,0:0|3:0,0:0:0:0:
463,206,69617,1,2,0:0:0:0:
482,223,69764,1,10,3:0:0:0:
511,299,70058,1,2,0:0:0:0:
472,369,70353,1,2,3:0:0:0:
394,350,70647,6,0,L|396:291,2,48.000001171875,2|2|2,3:0|0:0|0:0,0:0:0:0:
325,371,71088,2,0,L|317:311,1,48.000001171875,2|0,0:0|3:0,0:0:0:0:
302,243,71382,1,2,0:0:0:0:
308,218,71529,1,10,3:0:0:0:
240,177,71823,1,2,0:0:0:0:
184,232,72117,1,2,3:0:0:0:
114,193,72411,6,0,L|111:127,2,48.000001171875,2|2|2,3:0|0:0|0:0,0:0:0:0:
56,242,72853,2,0,L|49:298,1,48.000001171875,2|0,0:0|3:0,0:0:0:0:
38,372,73147,1,2,0:0:0:0:
15,384,73294,1,10,3:0:0:0:
126,284,73588,5,0,3:0:0:0:
194,232,73735,1,0,3:0:0:0:
278,257,73882,1,0,3:0:0:0:
292,343,74029,1,0,3:0:0:0:
422,378,74176,6,0,L|451:184,1,179.999994506836,6|0,3:0|0:0,0:0:0:0:
420,185,74764,2,0,L|436:319,1,119.999996337891,2|0,3:0|3:0,0:0:0:0:
496,382,75353,1,0,0:0:0:0:
425,298,75647,2,0,P|394:295|363:297,1,59.9999981689454,0|0,3:0|0:0,0:0:0:0:
283,362,75941,6,0,P|277:276|262:228,2,119.999996337891,0|0|0,3:0|0:0|3:0,0:0:0:0:
173,369,76823,2,0,L|158:260,1,89.9999972534181,10|0,3:0|0:0,0:0:0:0:
178,275,77117,2,0,L|169:353,1,59.9999981689454,2|0,0:0|0:0,0:0:0:0:
88,375,77411,2,0,L|77:297,1,59.9999981689454,2|0,3:0|0:0,0:0:0:0:
40,227,77706,6,0,B|118:239|142:158,1,119.999996337891,2|0,3:0|0:0,0:0:0:0:
113,118,78147,2,0,P|119:165|145:186,1,59.9999981689454,2|0,0:0|3:0,0:0:0:0:
206,209,78441,1,2,0:0:0:0:
242,117,78588,2,0,L|256:46,1,59.9999981689454,2|0,3:0|0:0,0:0:0:0:
331,14,78882,2,0,L|342:72,1,59.9999981689454,2|0,0:0|0:0,0:0:0:0:
370,159,79176,2,0,P|408:167|435:159,1,59.9999981689454,2|0,3:0|0:0,0:0:0:0:
512,108,79470,6,0,L|498:253,1,119.999996337891,2|0,3:0|0:0,0:0:0:0:
512,244,79911,2,0,L|501:161,1,59.9999981689454,2|0,0:0|3:0,0:0:0:0:
404,89,80353,2,0,L|290:78,1,89.9999972534181,10|0,3:0|0:0,0:0:0:0:
316,100,80647,2,0,L|387:92,1,59.9999981689454,2|0,0:0|0:0,0:0:0:0:
382,11,80941,2,0,L|311:3,1,59.9999981689454,2|0,3:0|0:0,0:0:0:0:
232,121,81235,6,0,P|195:72|60:51,1,179.999994506836,6|0,3:2|0:0,0:0:0:0:
14,94,81823,2,0,L|4:169,1,59.9999981689454,2|0,3:0|0:0,0:0:0:0:
47,239,82117,2,0,L|187:217,1,119.999996337891,0|0,3:0|0:0,0:0:0:0:
231,272,82706,1,0,3:0:0:0:
299,222,83000,6,0,L|417:240,1,119.999996337891,0|0,3:0|0:0,0:0:0:0:
511,258,83588,1,0,3:0:0:0:
454,172,83882,2,0,P|441:139|443:106,1,59.9999981689454,10|0,3:0|0:0,0:0:0:0:
512,6,84176,2,0,P|489:33|460:48,1,59.9999981689454,2|0,0:0|0:0,0:0:0:0:
335,42,84470,2,0,P|370:47|397:65,1,59.9999981689454,2|0,3:0|0:0,0:0:0:0:
366,185,84764,6,0,L|222:197,1,119.999996337891,2|0,3:0|0:0,0:0:0:0:
233,175,85206,2,0,L|292:182,1,59.9999981689454,2|0,0:0|3:0,0:0:0:0:
377,199,85500,1,2,0:0:0:0:
415,290,85647,2,0,P|361:292|285:329,1,119.999996337891,2|0,3:0|0:0,0:0:0:0:
248,384,86235,1,2,3:0:0:0:
171,332,86529,6,0,L|153:187,1,119.999996337891,2|0,3:0|0:0,0:0:0:0:
176,208,86970,2,0,L|168:277,1,59.9999981689454,2|4,0:0|3:1,0:0:0:0:
44,379,87411,1,10,3:0:0:0:
87,180,87706,5,0,3:0:0:0:
155,128,87853,1,0,3:0:0:0:
241,155,88000,1,0,3:0:0:0:
261,243,88147,1,0,3:0:0:0:
381,371,88294,6,0,P|458:364|495:313,1,119.999996337891,6|0,3:2|0:0,0:0:0:0:
498,258,88735,2,0,L|493:183,1,59.9999981689454,2|0,0:0|3:0,0:0:0:0:
484,58,89176,2,0,P|452:84|376:115,1,119.999996337891,8|0,3:0|0:0,0:0:0:0:
310,75,89764,1,2,3:0:0:0:
254,4,90058,6,0,L|117:21,1,119.999996337891,2|0,3:0|0:0,0:0:0:0:
130,0,90500,2,0,L|209:14,1,59.9999981689454,2|0,0:0|3:0,0:0:0:0:
234,83,90794,1,2,0:0:0:0:
187,170,90941,2,0,P|139:178|65:148,1,119.999996337891,10|0,3:0|0:0,0:0:0:0:
65,70,91529,1,0,3:0:0:0:
97,254,91823,6,0,P|105:306|109:399,1,119.999996337891,2|0,3:0|0:0,0:0:0:0:
38,379,92264,2,0,P|76:367|107:371,1,59.9999981689454,2|0,0:0|3:0,0:0:0:0:
187,379,92558,1,2,0:0:0:0:
293,319,92706,2,0,L|298:246,1,59.9999981689454,10|0,3:0|0:0,0:0:0:0:
223,193,93000,2,0,L|219:134,1,59.9999981689454,2|0,0:0|0:0,0:0:0:0:
284,82,93294,2,0,L|289:9,1,59.9999981689454,2|0,3:0|0:0,0:0:0:0:
393,47,93588,6,0,L|415:237,1,179.999994506836,2|0,3:0|0:0,0:0:0:0:
425,311,94176,1,0,3:0:0:0:
333,270,94470,2,0,P|291:263|269:270,1,59.9999981689454,10|0,3:0|0:0,0:0:0:0:
199,379,94764,2,0,P|226:346|231:323,1,59.9999981689454,2|0,0:0|0:0,0:0:0:0:
174,210,95058,2,0,P|188:249|205:265,1,59.9999981689454,2|0,3:0|0:0,0:0:0:0:
327,192,95353,6,0,L|304:47,1,119.999996337891,6|0,3:2|0:0,0:0:0:0:
330,70,95794,2,0,L|320:144,1,59.9999981689454,2|0,0:0|3:0,0:0:0:0:
247,168,96088,1,2,0:0:0:0:
169,69,96235,2,0,L|93:55,1,59.9999981689454,10|0,3:0|0:0,0:0:0:0:
36,157,96529,2,0,L|109:151,1,59.9999981689454,2|0,0:0|0:0,0:0:0:0:
175,147,96823,1,2,3:0:0:0:
299,83,97117,6,0,P|324:147|432:169,1,179.999994506836,2|0,3:0|0:0,0:0:0:0:
478,144,97706,2,0,P|442:168|427:198,1,59.9999981689454,0|0,3:0|0:0,0:0:0:0:
476,296,98000,1,10,3:0:0:0:
329,376,98294,5,10,3:0:0:0:
266,295,98441,1,8,3:0:0:0:
213,364,98588,1,10,3:0:0:0:
168,306,98735,1,8,3:0:0:0:
66,375,98882,5,14,3:0:0:0:
39,47,99176,1,8,3:0:0:0:
367,20,99470,1,8,3:0:0:0:
394,348,99764,1,8,3:0:0:0:
372,15,100058,1,8,3:0:0:0:
34,42,100353,1,8,3:0:0:0:
61,380,100647,1,10,3:0:0:0:
186,26,100941,5,8,3:0:0:0:
265,121,101088,1,8,3:0:0:0:
201,197,101235,1,8,3:0:0:0:
252,257,101382,1,8,3:0:0:0:
208,325,101529,6,0,P|163:301|108:317,1,89.9999972534181,2|0,3:0|0:0,0:0:0:0:
85,380,101823,6,0,P|92:331|52:275,1,110.000003356934,2|0,0:0|0:0,0:0:0:0:
0,189,102117,6,0,P|34:230|130:217,1,129.999994049073,2|0,0:0|0:0,0:0:0:0:
222,161,102411,6,0,B|321:124|322:202|425:158,1,200.000007629395,6|0,3:0|0:0,0:0:0:0:
508,9,102853,2,0,L|498:119,1,100.000003814697,2|0,0:0|3:0,0:0:0:0:
483,236,103147,1,2,0:0:0:0:
373,77,103294,2,0,P|310:49|228:50,1,150.000005722046,10|0,3:0|0:0,0:0:0:0:
170,110,103588,2,0,L|-10:131,1,150.000005722046,2|0,0:0|0:0,0:0:0:0:
0,100,103882,2,0,L|145:122,1,100.000003814697,2|0,3:0|0:0,0:0:0:0:
299,244,104176,6,0,P|318:190|451:172,1,200.000007629395,2|0,3:0|0:0,0:0:0:0:
499,259,104617,1,0,0:0:0:0:
333,358,104764,2,0,P|271:326|211:323,1,100.000003814697,2|0,3:0|0:0,0:0:0:0:
101,378,105058,2,0,P|124:316|114:163,1,200.000007629395,10|0,3:0|0:0,0:0:0:0:
85,16,105500,1,8,3:0:0:0:
0,7,105647,1,2,3:0:0:0:
171,29,105794,1,8,3:0:0:0:
365,210,105941,6,0,L|378:-10,1,200.000007629395,6|0,3:2|0:0,0:0:0:0:
360,0,106382,1,2,0:0:0:0:
400,92,106529,2,0,P|450:60|496:55,1,100.000003814697,2|0,3:0|0:0,0:0:0:0:
488,291,106823,2,0,L|462:128,1,150.000005722046,10|0,3:0|0:0,0:0:0:0:
483,147,107117,2,0,L|470:255,1,100.000003814697,2|0,0:0|0:0,0:0:0:0:
401,374,107411,2,0,L|389:274,1,100.000003814697,2|0,3:0|0:0,0:0:0:0:
307,116,107706,6,0,B|157:62|191:208|19:162,1,300.000011444092,2|0,3:0|0:0,0:3:0:0:
26,50,108294,2,0,P|72:29|136:35,1,100.000003814697,0|0,3:0|0:0,0:0:0:0:
248,193,108588,2,0,L|239:310,1,100.000003814697,10|0,3:0|0:0,0:0:0:0:
66,361,108882,5,10,3:0:0:0:
31,187,109029,1,8,3:0:0:0:
203,384,109176,5,10,3:0:0:0:
238,183,109323,1,8,3:0:0:0:
322,360,109470,6,0,P|379:378|458:350,1,100.000003814697,6|0,3:0|0:0,0:0:0:0:
491,323,109691,2,0,L|501:142,1,150.000005722046,2|0,0:0|0:0,0:0:0:0:
333,287,110058,1,0,3:0:0:0:
50,181,110353,2,0,P|56:114|123:54,1,150.000005722046,10|0,3:0|0:0,0:0:0:0:
189,57,110647,2,0,P|206:115|283:170,1,150.000005722046,2|0,0:0|0:0,0:0:0:0:
343,136,110941,2,0,P|383:93|483:66,1,150.000005722046,2|0,3:0|0:0,0:0:0:0:
511,144,111235,6,0,L|484:345,1,200.000007629395,2|0,3:0|0:0,0:0:0:0:
511,363,111676,2,0,L|486:223,1,100.000003814697,2|0,0:0|3:0,0:0:0:0:
436,159,111970,1,2,0:0:0:0:
286,337,112117,2,0,P|197:369|88:314,1,200.000007629395,10|0,3:0|0:0,0:0:0:0:
204,178,112558,1,8,3:0:0:0:
240,280,112706,1,2,3:0:0:0:
28,263,112853,1,8,3:0:0:0:
107,84,113000,6,0,L|270:61,1,150.000005722046,6|0,3:0|0:0,0:0:0:0:
268,77,113294,1,8,3:0:0:0:
281,91,113367,1,8,3:0:0:0:
294,105,113441,1,10,3:0:0:0:
396,153,113588,1,8,3:0:0:0:
486,17,113735,1,10,3:0:0:0:
512,185,113882,6,0,L|349:162,1,150.000005722046,2|0,3:0|0:0,0:0:0:0:
351,178,114176,1,10,3:0:0:0:
338,192,114249,1,8,3:0:0:0:
325,206,114323,1,8,3:0:0:0:
223,254,114470,1,10,3:0:0:0:
133,118,114617,1,8,3:0:0:0:
85,296,114764,6,0,L|248:273,1,150.000005722046,6|0,3:0|0:0,0:0:0:0:
246,289,115058,1,8,3:0:0:0:
259,303,115131,1,8,3:0:0:0:
272,317,115205,1,8,3:0:0:0:
374,365,115352,1,8,3:0:0:0:
464,229,115499,1,8,3:0:0:0:
445,65,115647,6,0,P|372:80|341:124,1,100,2|0,3:0|0:0,0:0:0:0:
381,190,115941,6,0,P|351:141|269:112,1,129.999994049073,2|0,0:3|0:0,0:0:0:0:
170,269,116235,6,0,P|213:227|215:135,1,150.000005722046,2|0,3:0|0:0,0:0:0:0:
44,153,116529,6,0,L|28:372,1,200.000007629395,6|0,3:0|0:0,0:0:0:0:
71,367,116970,2,0,L|54:250,1,100.000003814697,2|0,0:0|3:0,0:0:0:0:
39,154,117264,1,2,0:0:0:0:
149,40,117411,2,0,P|206:66|292:56,1,150.000005722046,10|0,3:0|0:0,0:0:0:0:
350,3,117706,2,0,L|523:30,1,150.000005722046,2|0,0:0|0:0,0:0:0:0:
510,6,118000,2,0,L|346:40,1,150.000005722046,2|0,3:0|0:0,0:0:0:0:
320,114,118294,6,0,P|322:171|442:219,1,200.000007629395,2|0,3:0|0:0,0:0:0:0:
509,340,118735,2,0,P|457:315|380:315,1,100.000003814697,2|0,0:0|3:0,0:0:0:0:
328,360,119029,1,2,0:0:0:0:
205,185,119176,2,0,L|189:386,1,200.000007629395,10|0,3:0|0:0,0:0:0:0:
29,378,119617,1,8,3:0:0:0:
106,213,119764,1,2,3:0:0:0:
174,375,119911,1,8,3:0:0:0:
11,223,120058,6,0,P|45:130|52:23,1,200.000007629395,6|0,3:2|0:0,0:0:0:0:
142,3,120500,2,0,P|196:40|241:36,1,100.000003814697,2|0,0:0|3:0,0:0:0:0:
326,6,120794,1,2,0:0:0:0:
438,119,120941,2,0,P|363:160|256:148,1,150.000005722046,10|0,3:0|0:0,0:0:0:0:
225,129,121235,2,0,L|212:318,1,150.000005722046,2|0,0:0|0:0,0:0:0:0:
242,290,121529,2,0,L|204:135,1,150.000005722046,2|0,3:0|0:0,0:0:0:0:
122,85,121823,6,0,B|50:220|171:222|116:379,1,300.000011444092,2|0,3:0|0:0,0:0:0:0:
15,358,122411,2,0,P|3:298|21:246,1,100.000003814697,0|0,3:0|0:0,0:0:0:0:
195,160,122706,2,0,L|320:139,1,100.000003814697,10|0,3:0|0:0,0:0:0:0:
468,269,123000,5,10,3:0:0:0:
296,246,123147,1,8,3:0:0:0:
339,76,123294,5,10,3:0:0:0:
511,53,123441,1,8,3:0:0:0:
379,261,123588,2,0,L|356:375,1,100.000003814697,6|0,3:0|0:0,3:0:0:0:
388,384,123808,2,0,L|387:217,1,150.000005722046,2|0,0:0|0:0,0:0:0:0:
387,147,124176,1,0,3:0:0:0:
250,376,124470,2,0,P|224:313|226:204,1,150.000005722046,10|0,3:0|0:0,0:0:0:0:
164,178,124764,2,0,P|136:231|128:330,1,150.000005722046,2|0,0:0|0:0,0:0:0:0:
75,372,125058,2,0,P|23:318|-1:212,1,150.000005722046,2|0,3:0|0:0,0:0:0:0:
0,136,125353,6,0,L|205:93,1,200.000007629395,2|0,3:0|0:0,0:0:0:0:
205,117,125794,2,0,L|95:101,1,100.000003814697,2|0,0:0|3:0,0:0:0:0:
11,80,126088,1,2,0:0:0:0:
152,197,126235,2,0,B|249:234|252:161|355:196,1,200.000007629395,10|0,3:0|0:0,0:0:0:0:
502,271,126676,1,8,3:0:0:0:
512,158,126823,1,2,3:0:0:0:
490,383,126970,1,8,3:0:0:0:
232,321,127117,6,0,L|24:300,1,200.000007629395,6|0,3:0|0:0,0:0:0:0:
242,300,127558,1,10,3:0:0:0:
132,310,127706,1,0,3:0:0:0:
21,321,127853,1,2,3:0:0:0:
268,147,128000,6,0,L|476:126,1,200.000007629395,14|0,3:0|0:0,0:0:0:0:
237,129,128441,1,8,3:0:0:0:
356,139,128589,1,2,3:0:0:0:
483,153,128736,1,0,3:0:0:0:
173,356,128882,6,0,L|138:106,1,233.333335558573,14|0,3:0|0:0,0:0:0:0:
182,372,129323,1,10,3:0:0:0:
213,234,129470,1,0,3:0:0:0:
245,96,129617,1,2,3:0:0:0:
484,280,129764,6,0,L|310:293,1,160,14|0,3:0|0:0,0:0:0:0:
198,312,130058,1,0,3:0:0:0:
123,270,130206,1,0,3:0:0:0:
121,183,130353,1,2,3:0:0:0:
194,138,130500,1,0,3:0:0:0:
319,159,130647,6,0,L|457:171,1,110.000003356934,6|0,3:0|0:0,0:0:0:0:
448,149,130941,2,8,L|510:141,2,36.6666677856446,8|8|8,3:0|3:0|3:0,3:0:0:0:
487,225,131235,1,8,3:0:0:0:
441,297,131382,1,8,3:0:0:0:
355,293,131529,1,8,3:0:0:0:
121,236,131823,6,8,L|59:228,2,36.6666677856446,8|8|8,3:0|3:0|3:0,3:0:0:0:
82,312,132117,1,8,3:0:0:0:
128,384,132264,1,8,3:0:0:0:
214,380,132411,1,8,3:0:0:0:
432,373,132706,6,8,L|467:377,2,36.6666677856446,8|8|8,3:0|3:0|3:0,3:0:0:0:
441,297,133000,1,8,3:0:0:0:
455,225,133147,1,8,3:0:0:0:
469,153,133294,1,8,3:0:0:0:
272,299,133589,6,8,L|231:304,2,36.6666677856446,8|8|8,3:0|3:0|3:0,3:0:0:0:
263,223,133883,1,8,3:0:0:0:
249,151,134030,1,8,3:0:0:0:
235,79,134176,1,8,3:0:0:0:
455,225,134470,2,8,L|517:233,2,36.6666677856446,8|8|8,3:0|3:0|3:0,3:0:0:0:
494,149,134764,1,8,3:0:0:0:
448,77,134911,1,8,3:0:0:0:
362,81,135058,1,8,3:0:0:0:
142,223,135353,6,8,L|80:231,2,36.6666677856446,8|8|8,3:0|3:0|3:0,3:0:0:0:
103,147,135647,1,8,3:0:0:0:
149,75,135794,1,8,3:0:0:0:
235,79,135941,6,0,L|255:178,1,89.9999972534181,0|0,3:0|0:0,0:0:0:0:
287,83,136235,6,0,L|289:172,1,69.9999978637696,0|0,3:0|0:0,0:0:0:0:
343,94,136529,6,0,L|333:157,1,50,0|0,3:0|0:0,0:0:0:0:
390,213,136823,1,8,3:0:0:0:
420,370,137411,2,0,L|345:363,1,59.9999981689454,2|0,0:0|0:0,0:0:0:0:
333,381,137706,6,0,L|513:366,1,179.999994506836,6|0,3:2|0:0,0:0:0:0:
471,296,138294,1,2,3:0:0:0:
512,198,138588,2,0,P|466:175|387:168,1,119.999996337891,8|0,3:0|0:0,0:0:0:0:
337,226,139176,1,0,3:0:0:0:
275,173,139470,6,0,P|215:178|161:204,1,119.999996337891,0|0,3:0|0:0,0:0:0:0:
127,282,140058,1,0,3:0:0:0:
22,223,140353,2,0,L|13:145,1,59.9999981689454,10|0,3:0|0:0,0:0:0:0:
103,129,140647,2,0,L|96:188,1,59.9999981689454,2|0,0:0|0:0,0:0:0:0:
6,151,140941,2,0,L|0:91,1,59.9999981689454,2|0,3:0|0:0,0:0:0:0:
73,26,141235,6,0,L|214:12,1,119.999996337891,2|0,3:0|0:0,0:0:0:0:
196,42,141676,2,0,L|116:28,1,59.9999981689454,2|0,0:0|3:0,0:0:0:0:
101,110,141970,1,2,0:0:0:0:
177,185,142117,2,0,P|227:170|271:178,1,89.9999972534181,10|0,3:0|0:0,0:0:0:0:
315,233,142411,2,0,L|327:340,1,89.9999972534181,2|0,0:0|0:0,0:0:0:0:
304,336,142706,2,0,L|324:227,1,89.9999972534181,2|0,3:0|0:0,0:0:0:0:
398,214,143000,6,0,P|399:269|415:353,1,119.999996337891,2|0,3:0|0:0,0:0:0:0:
507,333,143441,2,0,P|509:290|503:253,1,59.9999981689454,2|0,0:0|3:0,0:0:0:0:
457,128,143882,2,0,L|390:122,1,59.9999981689454,4|0,3:1|0:0,0:0:0:0:
335,49,144176,2,0,L|412:40,1,59.9999981689454,2|0,0:0|0:0,0:0:0:0:
295,120,144470,2,0,L|228:115,1,59.9999981689454,2|0,0:0|0:0,0:0:0:0:
123,142,144764,6,0,L|253:132,1,119.999996337891,6|0,3:2|0:0,0:0:0:0:
249,47,145206,2,0,P|214:35|174:42,1,59.9999981689454,2|0,0:0|3:0,0:0:0:0:
102,82,145647,1,8,3:0:0:0:
62,270,145941,1,0,0:0:0:0:
233,330,146235,1,0,3:0:0:0:
196,157,146529,6,0,P|152:220|167:282,2,119.999996337891,0|0|0,3:0|0:0|3:0,0:0:0:0:
359,208,147411,2,0,P|323:216|281:209,1,59.9999981689454,10|0,3:0|0:0,0:0:0:0:
196,157,147706,2,0,P|232:149|274:156,1,59.9999981689454,2|0,0:0|0:0,0:0:0:0:
262,282,148000,2,0,L|181:286,1,59.9999981689454,2|0,3:0|0:0,0:0:0:0:
87,246,148294,6,0,L|219:266,1,119.999996337891,2|0,3:0|0:0,0:0:0:0:
301,309,148735,2,0,P|334:288|376:284,1,59.9999981689454,2|0,0:0|3:0,0:0:0:0:
429,317,149029,1,2,0:0:0:0:
456,169,149176,2,0,L|448:55,1,89.9999972534181,10|0,3:0|0:0,0:0:0:0:
389,19,149470,2,0,P|329:7|287:12,1,89.9999972534181,2|0,0:0|0:0,0:0:0:0:
269,28,149764,2,0,P|223:40|171:29,1,89.9999972534181,2|0,3:0|0:0,0:0:0:0:
132,7,150058,6,0,P|140:66|136:125,1,119.999996337891,2|0,3:0|0:0,0:0:0:0:
72,181,150500,2,0,P|42:176|16:160,1,59.9999981689454,2|0,0:0|3:0,0:0:0:0:
128,257,150941,1,10,3:0:0:0:
252,150,151235,5,2,3:0:0:0:
329,124,151382,1,0,3:0:0:0:
392,179,151529,1,2,3:0:0:0:
376,260,151676,1,0,3:0:0:0:
179,335,151823,6,0,L|-13:341,1,179.999994506836,6|0,3:0|0:0,0:0:0:0:
23,260,152411,1,2,3:0:0:0:
110,240,152706,2,0,P|175:244|247:237,1,119.999996337891,0|0,3:0|0:0,0:0:0:0:
328,174,153294,2,0,L|343:78,1,89.9999972534181,2|0,3:0|0:0,0:0:0:0:
327,56,153588,6,0,L|348:189,1,119.999996337891,2|0,3:0|0:0,0:0:0:0:
415,238,154029,2,0,L|424:165,1,59.9999981689454,2|0,0:0|3:0,0:0:0:0:
441,57,154360,1,2,0:0:0:0:
512,32,154525,1,2,0:0:0:0:
467,223,155353,6,0,L|470:174,2,46.6666652425131,2|2|2,3:0|0:0|0:0,0:0:0:0:
394,224,155794,2,0,L|391:175,1,46.6666652425131,2|0,0:0|3:0,0:0:0:0:
386,104,156088,1,2,0:0:0:0:
405,83,156235,1,10,3:0:0:0:
369,10,156529,1,2,0:0:0:0:
283,4,156823,1,2,3:0:0:0:
243,81,157117,6,0,L|246:130,2,46.6666652425131,2|2|2,3:0|0:0|0:0,0:0:0:0:
170,80,157558,2,0,L|167:129,1,46.6666652425131,2|0,0:0|3:0,0:0:0:0:
162,200,157852,1,2,0:0:0:0:
181,221,157999,1,10,3:0:0:0:
145,294,158293,1,2,0:0:0:0:
59,300,158587,1,2,3:0:0:0:
153,301,158882,6,0,L|203:306,2,46.6666652425131,2|2|2,3:0|0:0|0:0,0:0:0:0:
189,228,159323,2,0,L|244:225,1,46.6666652425131,2|0,0:0|3:0,0:0:0:0:
302,271,159617,1,2,0:0:0:0:
308,301,159764,1,10,3:0:0:0:
397,322,160058,1,2,0:0:0:0:
458,270,160353,1,2,3:0:0:0:
414,201,160647,6,0,L|364:206,2,46.6666652425131,2|2|2,3:0|0:0|0:0,0:0:0:0:
378,128,161088,2,0,L|323:125,1,46.6666652425131,2|0,0:0|3:0,0:0:0:0:
265,171,161382,1,2,0:0:0:0:
259,201,161529,1,10,3:0:0:0:
155,204,161823,5,0,3:0:0:0:
94,152,161970,1,0,3:0:0:0:
19,179,162117,1,2,3:0:0:0:
5,258,162264,1,2,3:0:0:0:
86,366,162411,6,0,P|158:333|270:328,1,179.999994506836,6|0,3:0|0:0,0:0:0:0:
320,382,163000,2,0,P|356:366|372:347,1,59.9999981689454,2|0,3:0|0:0,0:0:0:0:
383,273,163294,2,0,L|366:126,1,119.999996337891,8|0,3:0|0:0,0:0:0:0:
360,78,163882,1,0,3:0:0:0:
282,111,164176,6,0,P|245:98|199:31,2,119.999996337891,2|2|2,3:0|0:0|3:0,0:0:0:0:
441,80,165058,2,0,L|449:139,1,59.9999981689454,10|0,3:0|0:0,0:0:0:0:
512,210,165353,2,0,L|504:269,1,59.9999981689454,2|0,0:0|0:0,0:0:0:0:
437,313,165647,2,0,L|445:379,1,59.9999981689454,2|0,3:0|0:0,0:0:0:0:
478,383,165941,6,0,P|424:367|336:361,1,119.999996337891,2|0,3:0|0:0,0:0:0:0:
273,373,166382,2,0,P|273:332|260:296,1,59.9999981689454,2|0,0:0|3:0,0:0:0:0:
207,254,166676,1,2,0:0:0:0:
122,316,166823,2,0,L|10:301,1,89.9999972534181,10|0,3:0|0:0,0:0:0:0:
30,325,167117,2,0,L|121:307,1,89.9999972534181,2|0,0:0|0:0,0:0:0:0:
133,230,167411,2,0,P|132:201|95:134,1,89.9999972534181,2|0,3:0|0:0,0:0:0:0:
71,118,167706,6,0,L|209:92,1,119.999996337891,2|0,3:0|0:0,0:0:0:0:
258,180,168147,2,0,L|186:167,1,59.9999981689454,2|0,0:0|3:0,0:0:0:0:
244,42,168588,1,10,3:0:0:0:
391,113,168882,1,2,0:0:0:0:
426,106,169029,1,0,0:0:0:0:
452,81,169176,1,2,0:0:0:0:
452,45,169323,1,0,0:0:0:0:
293,91,169470,6,0,L|281:229,1,119.999996337891,6|0,3:0|0:0,0:0:0:0:
361,268,169911,2,0,L|354:199,1,59.9999981689454,2|0,0:0|3:0,0:0:0:0:
228,276,170353,2,0,P|201:219|142:163,2,119.999996337891,10|0|0,3:0|0:0|3:0,0:0:0:0:
133,371,171235,6,0,L|7:385,2,119.999996337891,2|2|2,3:0|0:0|3:0,0:0:0:0:
223,304,172117,2,0,L|295:311,1,59.9999981689454,10|0,3:0|0:0,0:0:0:0:
365,378,172411,2,0,L|293:385,1,59.9999981689454,2|0,0:0|0:0,0:0:0:0:
355,288,172706,2,0,L|427:295,1,59.9999981689454,2|0,3:0|0:0,0:0:0:0:
503,378,173000,6,0,P|491:312|494:237,1,119.999996337891,2|0,3:0|0:0,0:0:0:0:
509,180,173441,2,0,P|507:141|494:110,1,59.9999981689454,2|0,0:0|3:0,0:0:0:0:
452,61,173735,1,2,0:0:0:0:
328,116,173882,2,0,P|276:115|240:82,1,89.9999972534181,10|0,3:0|0:0,0:0:0:0:
233,50,174176,2,0,P|228:102|210:151,1,89.9999972534181,2|0,0:0|0:0,0:0:0:0:
163,198,174470,2,0,L|51:210,1,89.9999972534181,2|0,3:0|0:0,0:0:0:0:
45,197,174764,6,0,L|176:208,1,119.999996337891,2|0,3:0|0:0,0:0:0:0:
254,222,175353,1,2,3:0:0:0:
309,365,175647,1,10,3:0:0:0:
408,225,175941,5,2,3:0:0:0:
489,244,176088,1,0,3:0:0:0:
512,324,176235,1,2,3:0:0:0:
454,384,176382,1,0,3:0:0:0:
332,276,176529,6,0,L|317:84,1,179.999994506836,6|0,3:0|0:0,0:0:0:0:
343,41,177117,2,0,L|333:111,1,59.9999981689454,2|0,3:0|0:0,0:0:0:0:
309,197,177411,2,0,P|255:181|191:182,1,119.999996337891,10|0,3:0|0:0,0:0:0:0:
112,197,178000,2,0,L|120:104,1,89.9999972534181,2|0,3:0|0:0,0:0:0:0:
101,101,178294,6,0,L|121:246,1,119.999996337891,2|0,3:0|0:0,0:0:0:0:
136,306,178735,2,0,P|176:290|206:293,1,59.9999981689454,2|0,0:0|3:0,0:0:0:0:
262,328,179029,1,2,0:0:0:0:
353,264,179176,2,0,L|358:131,1,119.999996337891,10|0,3:0|0:0,0:0:0:0:
472,59,179764,2,0,P|459:103|461:133,1,59.9999981689454,2|0,3:0|0:0,0:0:0:0:
470,197,180058,6,0,P|460:145|421:78,1,119.999996337891,6|0,3:2|0:0,0:0:0:0:
344,58,180500,1,2,0:0:0:0:
262,94,180647,2,0,P|229:101|197:90,1,59.9999981689454,2|0,3:0|0:0,0:0:0:0:
114,0,180941,2,0,P|136:25|143:58,1,59.9999981689454,10|0,3:0|0:0,0:0:0:0:
108,172,181235,2,0,P|118:139|143:117,1,59.9999981689454,2|0,0:0|0:0,0:0:0:0:
249,181,181529,2,0,L|256:253,1,59.9999981689454,2|0,3:0|0:0,0:0:0:0:
252,340,181823,6,0,L|274:190,1,119.999996337891,2|0,3:0|0:0,0:0:0:0:
294,118,182411,1,0,3:0:0:0:
454,163,182706,2,0,L|448:101,1,59.9999981689454,10|0,3:0|0:0,0:0:0:0:
360,157,183000,2,0,L|354:216,1,59.9999981689454,2|0,0:0|0:0,0:0:0:0:
475,237,183294,2,0,L|469:175,1,59.9999981689454,2|0,3:0|0:0,0:0:0:0:
376,57,183588,6,0,P|271:39|233:39,1,119.999996337891,6|0,3:0|0:0,0:0:0:0:
149,116,184029,2,0,P|193:110|219:96,1,59.9999981689454,2|0,0:0|3:0,0:0:0:0:
40,37,184470,2,0,P|50:90|46:151,1,89.9999972534181,10|0,3:0|0:0,0:0:0:0:
15,159,184764,2,0,P|5:212|9:273,1,89.9999972534181,2|0,0:0|0:0,0:0:0:0:
63,296,185058,2,0,L|171:287,1,89.9999972534181,2|0,3:0|0:0,0:0:0:0:
185,332,185353,6,0,L|50:312,1,119.999996337891,2|0,3:0|0:0,0:0:0:0:
5,247,185941,1,0,3:0:0:0:
115,155,186235,1,10,3:0:0:0:
258,336,186529,5,10,3:0:0:0:
329,241,186676,1,10,3:0:0:0:
389,321,186823,1,10,3:0:0:0:
439,255,186970,1,10,3:0:0:0:
495,367,187117,5,14,3:0:0:0:
475,61,187411,1,8,3:0:0:0:
276,365,187706,5,8,3:0:0:0:
296,59,188000,1,8,3:0:0:0:
102,383,188294,5,8,3:0:0:0:
82,77,188588,1,0,3:0:0:0:
100,372,188882,5,2,3:2:0:0:
89,253,189029,1,0,3:0:0:0:
232,189,189176,5,2,3:2:0:0:
221,308,189323,1,0,3:0:0:0:
362,367,189470,5,2,3:2:0:0:
351,248,189617,1,0,3:0:0:0:
211,384,189764,6,0,P|209:333|166:285,1,89.9999972534181,10|0,3:0|0:0,0:0:0:0:
74,299,190058,6,0,P|119:269|141:204,1,119.999996337891,2|0,0:0|0:0,0:0:0:0:
33,98,190353,6,0,P|88:127|169:111,1,150.000005722046,2|0,0:0|0:0,0:0:0:0:
306,35,190647,6,0,B|416:-18|414:83|545:28,1,213.333333333333,6|0,3:0|0:0,0:0:0:0:
419,196,191088,2,0,P|353:206|294:183,1,106.666666666667,2|0,0:0|3:0,0:0:0:0:
251,97,191382,1,2,0:0:0:0:
32,153,191529,2,0,P|100:127|187:148,1,160,10|0,3:0|0:0,0:0:0:0:
247,204,191823,2,0,L|265:366,1,160,2|0,0:0|0:0,0:0:0:0:
244,384,192117,2,0,L|251:232,1,106.666666666667,2|0,3:0|0:0,0:0:0:0:
433,21,192411,6,0,L|469:283,1,213.333333333333,2|0,3:0|0:0,0:0:0:0:
479,353,192853,1,0,0:0:0:0:
344,253,193000,2,0,P|275:241|232:263,1,106.666666666667,2|0,3:0|0:0,0:0:0:0:
134,383,193294,2,0,P|159:292|134:164,1,213.333333333333,10|0,3:0|0:0,0:0:0:0:
8,98,193735,1,8,3:0:0:0:
15,196,193882,1,2,3:0:0:0:
1,0,194029,1,8,3:0:0:0:
218,258,194176,6,0,L|239:28,1,213.333333333333,6|0,3:2|0:0,0:0:0:0:
220,23,194617,1,2,0:0:0:0:
311,120,194764,2,0,P|381:81|438:86,1,106.666666666667,2|0,3:0|0:0,0:0:0:0:
512,227,195058,2,0,P|465:176|369:171,1,160,10|0,3:0|0:0,0:0:0:0:
317,216,195353,2,0,L|298:377,1,160,2|0,0:0|0:0,0:0:0:0:
325,380,195647,2,0,L|305:200,1,160,2|0,3:0|0:0,0:0:0:0:
298,123,195941,6,0,B|134:64|171:223|-16:173,1,320,2|0,3:0|0:0,0:3:0:0:
0,54,196529,2,0,P|51:26|105:30,1,106.666666666667,0|0,3:0|0:0,0:0:0:0:
241,215,196823,2,0,L|247:335,1,106.666666666667,10|0,3:0|0:0,0:0:0:0:
37,384,197117,5,10,3:0:0:0:
0,176,197264,1,8,3:0:0:0:
246,321,197411,5,10,3:0:0:0:
283,113,197558,1,8,3:0:0:0:
439,332,197706,6,0,L|456:153,1,160,6|0,3:0|0:0,0:0:0:0:
440,159,198000,2,0,L|461:291,1,106.666666666667,2|0,0:0|0:0,0:0:0:0:
492,384,198294,1,0,3:0:0:0:
352,106,198588,2,0,P|297:149|272:237,1,160,10|0,3:0|0:0,0:0:0:0:
246,321,198882,2,0,P|225:269|113:217,1,160,2|0,0:0|0:0,0:0:0:0:
46,226,199176,2,0,L|27:390,1,160,2|0,3:0|0:0,0:0:0:0:
55,374,199470,6,0,L|39:151,1,213.333333333333,2|0,3:0|0:0,0:0:0:0:
30,9,199911,2,0,P|61:67|131:90,1,106.666666666667,2|0,0:0|3:0,0:0:0:0:
202,71,200206,1,2,0:0:0:0:
344,148,200353,2,0,L|362:392,1,213.333333333333,10|0,3:0|0:0,0:0:0:0:
364,130,200794,1,8,3:0:0:0:
266,211,200941,2,0,L|255:380,1,160,2|0,3:0|0:0,0:0:0:0:
248,384,201235,6,0,P|215:324|123:289,1,160,6|0,3:2|0:0,0:0:0:0:
116,305,201529,1,8,3:0:0:0:
98,326,201603,1,8,3:0:0:0:
81,347,201676,1,8,3:0:0:0:
57,215,201823,1,8,3:0:0:0:
33,83,201970,1,8,3:0:0:0:
199,235,202117,6,0,P|219:167|218:76,1,160,6|0,3:2|0:0,0:0:0:0:
200,7,202411,1,8,3:0:0:0:
223,128,202558,1,8,3:0:0:0:
246,249,202706,1,8,3:0:0:0:
269,370,202853,1,8,3:0:0:0:
404,149,203000,6,0,P|410:232|396:347,1,160,6|0,3:0|0:0,0:0:0:0:
381,384,203294,1,8,3:0:0:0:
407,267,203441,1,8,3:0:0:0:
433,150,203588,1,8,3:0:0:0:
459,33,203735,1,8,3:0:0:0:
363,206,203882,6,0,P|309:144|250:138,1,110.000003356934,2|0,0:0|0:0,0:0:0:0:
178,207,204176,6,0,P|206:153|190:63,1,135.000000514984,2|0,0:0|0:0,0:0:0:0:
16,29,204470,6,0,P|76:46|161:-1,1,160,2|0,0:0|0:0,0:0:0:0:
287,0,204764,6,0,L|311:215,1,213.333333333333,6|0,3:0|0:0,0:0:0:0:
277,306,205206,2,0,L|293:150,1,106.666666666667,2|0,0:0|3:0,0:0:0:0:
369,82,205500,1,2,0:0:0:0:
512,282,205647,2,0,P|473:320|367:325,1,160,10|0,3:0|0:0,0:0:0:0:
282,309,205941,2,0,L|108:303,1,160,2|0,0:0|0:0,0:0:0:0:
100,329,206235,2,0,L|279:292,1,160,2|0,3:0|0:0,0:0:0:0:
318,204,206529,6,0,P|306:141|163:80,1,213.333333333333,2|0,3:0|0:0,0:0:0:0:
16,129,206970,2,0,P|76:141|126:130,1,106.666666666667,2|0,0:0|3:0,0:0:0:0:
188,56,207264,1,2,0:0:0:0:
300,218,207411,2,0,L|514:200,1,213.333333333333,10|0,3:0|0:0,0:0:0:0:
506,29,207852,1,8,3:0:0:0:
329,112,207999,1,2,3:0:0:0:
503,184,208146,1,8,3:0:0:0:
343,21,208294,6,0,L|111:47,1,213.333333333333,6|0,3:2|0:0,0:0:0:0:
19,0,208735,2,0,L|131:16,1,106.666666666667,2|0,0:0|3:0,0:0:0:0:
185,119,209029,1,2,0:0:0:0:
10,272,209176,2,0,P|35:204|126:208,1,160,10|0,3:0|0:0,0:0:0:0:
177,250,209470,2,0,L|344:234,1,160,2|0,0:0|0:0,0:0:0:0:
353,272,209764,2,0,L|182:243,1,160,2|0,3:0|0:0,0:0:0:0:
203,147,210058,6,0,B|383:98|334:251|510:222,1,320,2|0,3:0|0:0,0:0:0:0:
512,111,210647,2,0,P|479:87|401:76,1,106.666666666667,0|0,3:0|0:0,0:0:0:0:
273,239,210941,2,0,L|263:377,1,106.666666666667,10|0,3:0|0:0,0:0:0:0:
50,376,211235,5,10,3:0:0:0:
26,182,211382,1,8,3:0:0:0:
207,148,211529,5,10,3:0:0:0:
188,344,211676,1,8,3:0:0:0:
21,175,211823,6,0,P|16:113|46:42,1,106.666666666667,6|0,3:2|0:0,0:0:0:0:
78,11,212044,2,0,L|248:-7,1,160,2|0,0:0|0:0,0:0:0:0:
354,35,212411,1,0,3:0:0:0:
512,286,212706,2,0,P|507:189|459:106,1,160,10|0,3:0|0:0,0:0:0:0:
402,117,213000,2,0,P|393:188|310:265,1,160,2|0,0:0|0:0,0:0:0:0:
255,261,213294,2,0,P|211:196|109:153,1,160,2|0,3:0|0:0,0:0:0:0:
27,171,213588,6,0,L|11:403,1,213.333333333333,2|0,3:0|0:0,0:0:0:0:
47,289,214029,1,2,0:0:0:0:
129,373,214176,2,0,P|196:383|243:369,1,106.666666666667,2|0,3:0|0:0,0:0:0:0:
480,262,214470,2,0,L|270:281,1,160,10|0,3:0|0:0,0:0:0:0:
304,315,214764,5,8,3:0:0:0:
333,128,214911,1,8,3:0:0:0:
119,104,215058,5,10,3:0:0:0:
148,291,215205,1,8,3:0:0:0:
313,111,215353,6,0,P|394:77|482:122,1,160,6|0,3:2|0:0,0:0:0:0:
469,132,215647,1,0,3:0:0:0:
269,204,215794,2,0,P|191:174|109:193,1,160,10|0,3:0|0:0,0:0:0:0:
101,213,216088,1,2,0:0:0:0:
247,381,216235,2,0,L|401:369,1,106.666666666667,14|0,3:0|0:0,0:0:0:0:
455,362,216529,1,0,3:0:0:0:
483,126,216676,1,8,3:0:0:0:
474,241,216823,1,2,3:0:0:0:
465,356,216970,1,0,3:0:0:0:
237,236,217117,6,0,L|2:223,1,213.333333333333,14|0,3:0|0:0,0:0:0:0:
249,215,217558,1,10,3:0:0:0:
129,229,217706,1,0,3:0:0:0:
10,243,217853,1,2,3:0:0:0:
161,374,218000,6,0,P|238:349|354:343,1,160,14|0,3:0|0:0,0:0:0:0:
350,361,218294,1,0,3:0:0:0:
474,378,218441,1,0,3:0:0:0:
512,258,218588,5,2,3:0:0:0:
388,275,218735,1,0,3:0:0:0:
176,384,218882,6,0,B|162:271|162:271|175:262|175:262|161:150,1,213.333333333333,6|0,3:0|0:0,0:0:0:0:
0,23,219323,1,8,3:0:0:0:
82,99,219470,1,0,3:0:0:0:
209,10,219764,5,0,3:2:0:0:
335,63,220058,1,0,3:0:0:0:
452,4,220353,1,0,3:0:0:0:
495,187,220647,6,0,L|258:161,1,213.333333333333,4|0,3:0|0:0,0:0:0:0:
83,141,221088,1,8,3:0:0:0:
143,216,221235,1,0,3:0:0:0:
274,148,221529,1,0,3:0:0:0:
332,315,221823,5,8,3:0:0:0:
266,135,221970,1,8,3:0:0:0:
447,69,222117,1,8,3:0:0:0:
512,250,222264,1,8,3:0:0:0:
325,309,222411,5,6,3:0:0:0:
252,275,222558,1,2,0:0:0:0:
179,325,222706,2,2,P|164:257|123:205,1,119.999996337891,2|8,3:0|3:0,0:0:0:0:
0,132,223000,2,2,P|66:153|131:143,1,119.999996337891,2|0,3:0|0:0,0:0:0:0:
195,13,223294,5,2,3:0:0:0:
209,95,223441,1,2,0:0:0:0:
224,178,223588,2,2,P|282:157|354:161,1,119.999996337891,2|0,3:0|0:0,0:0:0:0:
502,250,223882,2,2,P|442:250|386:229,1,119.999996337891,2|0,3:0|0:0,0:0:0:0:
495,27,224176,5,6,3:2:0:0:
510,125,224323,1,2,0:0:0:0:
426,149,224470,2,2,L|406:-2,1,119.999996337891,2|8,3:0|3:0,0:0:0:0:
246,78,224764,2,2,L|230:196,1,119.999996337891,2|2,3:0|0:0,0:0:0:0:
305,355,225058,5,10,3:0:0:0:
292,269,225206,1,2,0:0:0:0:
279,184,225353,1,10,3:0:0:0:
255,190,225426,1,8,3:0:0:0:
230,196,225500,1,8,3:0:0:0:
350,173,225647,1,10,3:0:0:0:
470,150,225794,1,8,3:0:0:0:
228,105,225941,6,2,L|36:87,1,179.999994506836,6|0,3:0|0:0,0:0:0:0:
24,119,226235,2,2,L|178:97,1,119.999996337891,2|8,3:0|3:0,0:0:0:0:
382,33,226529,2,2,L|228:11,1,119.999996337891,2|0,3:0|0:0,0:0:0:0:
352,188,226823,6,2,L|506:166,1,119.999996337891,2|0,3:0|0:0,0:0:0:0:
264,113,227117,1,2,3:0:0:0:
176,208,227264,1,2,0:0:0:0:
249,287,227411,1,2,3:0:0:0:
189,353,227558,1,2,0:0:0:0:
397,382,227706,6,2,P|405:286|459:182,1,179.999994506836,6|2,3:2|0:0,0:0:0:0:
495,200,228000,2,2,P|425:210|357:190,1,119.999996337891,2|8,3:0|3:0,0:0:0:0:
379,5,228294,2,2,P|422:60|439:129,1,119.999996337891,2|0,3:0|0:0,0:0:0:0:
305,240,228588,6,2,L|146:221,1,119.999996337891,10|0,3:0|0:0,0:0:0:0:
5,374,228882,1,10,3:0:0:0:
112,260,229029,1,10,3:0:0:0:
24,165,229176,1,10,3:0:0:0:
96,85,229323,1,10,3:0:0:0:
77,61,229470,5,6,3:0:0:0:
134,156,229617,1,2,0:0:0:0:
7,252,229764,1,2,3:0:0:0:
160,360,229911,1,10,3:0:0:0:
5,266,230058,1,2,3:0:0:0:
434,61,230353,5,2,3:0:0:0:
377,156,230500,1,2,0:0:0:0:
504,252,230647,1,2,3:0:0:0:
351,360,230794,1,2,0:0:0:0:
506,266,230941,1,2,3:0:0:0:
77,61,231235,5,6,3:2:0:0:
134,156,231382,1,2,0:0:0:0:
7,252,231529,1,2,3:0:0:0:
160,360,231676,1,10,3:0:0:0:
5,266,231823,2,2,L|221:259,1,179.999994506836,2|0,3:0|0:0,0:0:0:0:
209,289,232117,6,2,L|22:263,1,179.999994506836,10|0,3:0|0:0,0:0:0:0:
23,245,232411,1,10,3:0:0:0:
15,224,232485,1,8,3:0:0:0:
9,206,232558,1,8,3:0:0:0:
164,153,232706,1,10,3:0:0:0:
313,93,232853,1,8,3:0:0:0:
447,380,233000,5,6,3:0:0:0:
500,234,233147,1,2,0:0:0:0:
385,152,233294,1,2,3:0:0:0:
470,38,233441,5,10,3:0:0:0:
512,154,233588,1,2,3:0:0:0:
420,220,233735,1,2,0:0:0:0:
295,135,233882,5,6,3:2:0:0:
205,128,234029,1,2,0:0:0:0:
115,121,234176,1,2,3:0:0:0:
5,249,234323,5,10,3:0:0:0:
95,242,234470,1,2,3:0:0:0:
230,231,234617,1,2,0:0:0:0:
310,56,234764,5,6,3:0:0:0:
123,109,234911,1,2,0:0:0:0:
25,17,235058,1,2,3:0:0:0:
79,178,235206,5,10,3:0:0:0:
228,136,235353,1,2,3:0:0:0:
307,210,235500,1,2,0:0:0:0:
376,368,235647,5,6,3:2:0:0:
399,257,235794,1,2,0:0:0:0:
477,233,235941,1,2,3:0:0:0:
386,18,236088,5,10,3:0:0:0:
413,122,236235,1,2,3:0:0:0:
511,152,236382,1,2,0:0:0:0:
302,100,236529,5,6,3:0:0:0:
302,100,236603,1,2,0:0:0:0:
302,100,236676,1,2,0:0:0:0:
187,164,236823,1,2,3:0:0:0:
34,33,236970,5,10,3:0:0:0:
63,144,237117,1,2,3:0:0:0:
50,253,237264,1,2,0:0:0:0:
135,384,237411,5,6,3:2:0:0:
209,298,237558,1,2,0:0:0:0:
298,312,237706,1,2,3:0:0:0:
510,283,237853,5,10,3:0:0:0:
410,262,238000,1,2,3:0:0:0:
269,237,238147,1,2,0:0:0:0:
512,179,238294,5,6,3:0:0:0:
466,82,238441,1,2,0:0:0:0:
466,82,238514,1,2,0:0:0:0:
466,82,238588,1,2,3:0:0:0:
346,174,238735,5,10,3:0:0:0:
250,147,238882,1,2,3:0:0:0:
223,22,239029,1,2,0:0:0:0:
55,22,239176,5,6,3:2:0:0:
14,144,239323,1,2,0:0:0:0:
41,267,239470,1,2,3:0:0:0:
259,240,239617,5,10,3:0:0:0:
153,198,239764,1,2,3:0:0:0:
115,275,239911,1,2,0:0:0:0:
213,373,240058,5,6,3:0:0:0:
315,362,240206,1,2,0:0:0:0:
417,351,240353,1,10,3:0:0:0:
417,351,240427,1,10,3:0:0:0:
417,351,240500,1,10,3:0:0:0:
417,351,240574,1,10,3:0:0:0:
417,351,240647,1,10,3:0:0:0:
350,264,240794,1,10,3:0:0:0:
484,384,240941,5,6,3:2:0:0:
492,250,241088,1,2,0:0:0:0:
512,111,241235,1,10,3:0:0:0:
512,111,241308,1,10,3:0:0:0:
512,111,241382,1,10,3:0:0:0:
512,111,241456,1,10,3:0:0:0:
512,111,241529,1,10,3:0:0:0:
417,180,241676,1,10,3:0:0:0:
280,19,241823,5,6,3:0:0:0:
302,129,241970,1,2,0:0:0:0:
217,203,242117,1,10,3:0:0:0:
217,203,242191,1,10,3:0:0:0:
217,203,242264,1,10,3:0:0:0:
115,136,242411,1,10,3:0:0:0:
13,203,242558,1,10,3:0:0:0:
239,93,242706,5,6,3:2:0:0:
217,203,242853,1,2,0:0:0:0:
302,277,243000,1,10,3:0:0:0:
302,277,243074,1,10,3:0:0:0:
302,277,243147,1,10,3:0:0:0:
404,210,243294,1,10,3:0:0:0:
506,277,243441,1,10,3:0:0:0:
502,4,243588,5,6,3:0:0:0:
475,363,243882,1,10,3:0:0:0:
326,23,244176,5,10,3:0:0:0:
353,382,244470,1,10,3:0:0:0:
193,25,244764,5,10,3:0:0:0:
166,384,245058,1,10,3:0:0:0:
8,25,245353,5,10,3:0:0:0:
35,384,245647,5,0,3:0:0:0:
23,298,245794,1,0,3:0:0:0:
91,245,245941,1,0,3:0:0:0:
171,278,246088,1,0,3:0:0:0:
283,108,246235,1,8,3:0:0:0:
318,346,246529,5,0,3:0:0:0:
398,379,246676,1,0,3:0:0:0:
466,326,246823,1,0,3:0:0:0:
454,240,246970,1,0,3:0:0:0:
267,262,247117,5,6,0:0:0:0:
512,305,260528,6,0,P|469:265|394:264,1,119.999996337891,2|0,0:0|0:0,0:0:0:0:
396,355,260867,6,0,P|397:286|323:241,1,129.999994049073,2|0,0:0|0:0,0:0:0:0:
236,384,261161,6,0,P|287:353|304:259,1,160,2|0,0:0|0:0,0:0:0:0:
209,181,261455,6,0,B|103:139|103:225|-6:179,1,213.333333333333,6|0,3:0|0:0,0:0:0:0:
31,7,261896,2,0,P|54:63|59:115,1,106.666666666667,2|0,0:0|3:0,0:0:0:0:
59,278,262190,1,2,0:0:0:0:
218,102,262337,2,0,L|397:90,1,160,10|0,3:0|0:0,0:0:0:0:
443,60,262631,2,0,P|428:124|441:268,1,160,2|0,0:0|0:0,0:0:0:0:
413,293,262925,2,0,P|406:224|370:170,1,106.666666666667,2|0,3:0|0:0,0:0:0:0:
184,378,263219,6,0,P|102:336|109:219,1,213.333333333333,2|0,3:0|0:0,0:0:0:0:
186,160,263660,1,0,0:0:0:0:
331,240,263807,2,0,L|436:226,1,106.666666666667,2|0,3:0|0:0,0:0:0:0:
512,74,264102,2,0,L|287:45,1,213.333333333333,10|0,3:0|0:0,0:0:0:0:
186,160,264543,1,8,3:0:0:0:
194,262,264690,1,2,3:0:0:0:
177,57,264837,1,8,3:0:0:0:
16,172,264984,6,0,L|31:390,1,213.333333333333,6|0,3:2|0:0,0:0:0:0:
13,378,265425,1,2,0:0:0:0:
115,316,265572,2,0,P|180:304|240:317,1,106.666666666667,2|0,3:0|0:0,0:0:0:0:
359,384,265866,2,0,L|374:210,1,160,10|0,3:0|0:0,0:0:0:0:
339,217,266160,2,0,L|376:382,1,160,2|0,0:0|0:0,0:0:0:0:
464,378,266455,2,0,P|487:294|474:173,1,160,2|0,3:0|0:0,0:0:0:0:
438,108,266749,6,0,B|274:65|308:202|138:169,1,320,2|0,3:0|0:0,0:0:0:0:
130,51,267337,2,0,P|189:23|249:29,1,106.666666666667,0|0,3:0|0:0,0:0:0:0:
380,189,267631,2,0,L|396:325,1,106.666666666667,10|0,3:0|0:0,0:0:0:0:
177,384,267925,5,8,3:0:0:0:
145,162,268072,1,8,3:0:0:0:
326,342,268219,5,8,3:0:0:0:
358,120,268366,1,8,3:0:0:0:
206,311,268513,6,0,P|115:314|42:278,1,160,6|0,3:2|0:0,0:0:0:0:
25,205,268807,2,0,L|16:60,1,106.666666666667,2|0,0:0|0:0,0:0:0:0:
67,4,269102,1,0,3:0:0:0:
492,195,269396,2,0,P|494:112|458:32,1,160,10|0,3:0|0:0,0:0:0:0:
377,42,269690,2,0,P|360:129|287:208,1,160,2|0,0:0|0:0,0:0:0:0:
239,207,269984,2,0,P|212:136|117:70,1,160,2|0,3:0|0:0,0:0:0:0:
46,75,270278,6,0,L|32:310,1,213.333333333333,2|0,3:0|0:0,0:0:0:0:
71,384,270719,2,0,L|65:263,1,106.666666666667,2|0,0:0|3:0,0:0:0:0:
60,136,271013,1,2,0:0:0:0:
183,282,271160,2,0,B|355:303|317:176|483:203,1,320,10|0,3:0|0:0,0:0:0:0:
500,324,271749,2,0,P|446:350|381:349,1,106.666666666667,2|0,3:0|0:0,0:0:0:0:
239,203,272043,6,0,L|223:33,1,160,6|0,3:2|0:0,0:0:0:0:
241,49,272337,1,8,3:0:0:0:
261,56,272410,1,8,3:0:0:0:
282,64,272484,1,10,3:0:0:0:
357,156,272631,1,10,3:0:0:0:
456,43,272778,1,8,3:0:0:0:
498,352,272925,6,0,L|514:182,1,160,6|0,3:2|0:0,0:0:0:0:
496,198,273219,1,8,3:0:0:0:
476,205,273293,1,8,3:0:0:0:
455,213,273366,1,10,3:0:0:0:
380,305,273513,1,10,3:0:0:0:
281,192,273660,1,8,3:0:0:0:
91,307,273807,6,0,L|261:291,1,160,2|0,3:0|0:0,0:0:0:0:
245,309,274102,1,8,3:0:0:0:
238,329,274175,1,8,3:0:0:0:
230,350,274249,1,10,3:0:0:0:
78,278,274396,1,10,3:0:0:0:
70,120,274543,1,8,3:0:0:0:
253,223,274690,6,0,P|326:209|360:89,1,160,2|0,3:0|0:0,0:0:0:0:
348,39,274984,1,0,3:0:0:0:
179,172,275131,1,0,3:0:0:0:
138,51,275278,5,0,3:0:0:0:
275,126,275425,1,0,3:0:0:0:
16,212,275572,6,0,P|108:177|180:172,1,160,6|0,3:0|0:0,0:0:0:0:
253,235,275866,2,0,L|268:353,1,106.666666666667,2|0,0:0|0:0,0:0:0:0:
187,373,276160,1,0,3:0:0:0:
342,143,276455,2,0,L|369:333,1,160,10|0,3:0|0:0,0:0:0:0:
358,321,276749,2,0,L|382:144,1,160,2|0,0:0|0:0,0:0:0:0:
440,98,277043,2,0,P|381:81|333:-5,1,160,2|0,3:0|0:0,0:0:0:0:
251,1,277337,6,0,P|252:78|204:222,1,213.333333333333,2|0,3:0|0:0,0:0:0:0:
37,203,277778,2,0,P|97:168|162:170,1,106.666666666667,2|0,0:0|3:0,0:0:0:0:
246,278,278072,1,2,0:0:0:0:
476,291,278219,2,0,L|247:260,1,213.333333333333,10|0,3:0|0:0,0:0:0:0:
24,218,278660,1,8,3:0:0:0:
33,339,278807,1,2,3:0:0:0:
16,92,278955,1,8,3:0:0:0:
234,276,279102,6,0,P|348:291|455:232,1,213.333333333333,6|0,3:2|0:0,0:0:0:0:
397,55,279543,2,0,P|393:128|402:177,1,106.666666666667,2|0,0:0|3:0,0:0:0:0:
437,267,279837,1,2,0:0:0:0:
424,42,279984,2,0,P|341:20|241:38,1,160,10|0,3:0|0:0,0:0:0:0:
215,86,280278,2,0,L|195:253,1,160,2|0,0:0|0:0,0:0:0:0:
231,258,280572,2,0,L|204:72,1,160,2|0,3:0|0:0,0:0:0:0:
104,39,280866,6,0,B|29:177|153:180|96:354,1,320,2|0,3:0|0:0,0:0:0:0:
2,322,281455,2,0,P|-3:259|8:203,1,106.666666666667,0|0,3:0|0:0,0:0:0:0:
185,118,281749,2,0,L|302:104,1,106.666666666667,10|0,3:0|0:0,0:0:0:0:
416,321,282043,5,10,3:0:0:0:
196,360,282190,1,8,3:0:0:0:
122,170,282337,5,10,3:0:0:0:
340,202,282484,1,8,3:0:0:0:
45,352,282631,6,0,P|27:287|43:181,1,160,6|0,3:2|0:0,0:0:0:0:
50,186,282925,2,0,P|53:251|40:299,1,106.666666666667,2|0,0:0|0:0,0:0:0:0:
5,370,283219,1,0,3:0:0:0:
304,356,283513,2,0,P|324:294|298:198,1,160,10|0,3:0|0:0,0:0:0:0:
229,150,283807,2,0,L|61:134,1,160,2|0,0:0|0:0,0:0:0:0:
56,169,284102,2,0,L|232:129,1,160,2|0,3:0|0:0,0:0:0:0:
273,63,284396,6,0,P|367:42|472:111,1,213.333333333333,2|0,3:0|0:0,0:0:0:0:
365,258,284837,2,0,L|350:137,1,106.666666666667,2|0,0:0|3:0,0:0:0:0:
485,206,285131,1,2,0:0:0:0:
294,339,285278,2,0,L|238:124,1,213.333333333333,10|0,3:0|0:0,0:0:0:0:
47,85,285719,1,8,3:0:0:0:
84,310,285866,2,0,L|93:142,1,160,10|0,3:0|0:0,0:0:0:0:
47,85,286160,6,0,L|66:248,1,160,6|0,3:2|0:0,0:0:0:0:
80,251,286455,1,8,3:0:0:0:
97,260,286528,1,8,3:0:0:0:
114,269,286602,1,10,3:0:0:0:
204,202,286749,1,10,3:0:0:0:
349,265,286896,1,8,3:0:0:0:
512,49,287043,6,0,L|492:212,1,160,6|0,3:2|0:0,0:0:0:0:
479,215,287337,1,10,3:0:0:0:
462,224,287410,1,8,3:0:0:0:
445,233,287484,1,8,3:0:0:0:
355,166,287631,1,10,3:0:0:0:
210,229,287778,1,8,3:0:0:0:
35,0,287925,6,0,L|54:163,1,160,6|0,3:2|0:0,0:0:0:0:
68,166,288219,1,8,3:0:0:0:
85,175,288293,1,8,3:0:0:0:
102,184,288366,1,8,3:0:0:0:
200,99,288513,1,8,3:0:0:0:
353,167,288660,1,8,3:0:0:0:
512,69,288807,6,0,P|436:84|403:130,1,110.000003356934,2|0,0:0|0:0,0:0:0:0:
439,243,289102,6,0,P|409:194|327:165,1,129.999994049073,2|0,0:0|0:0,0:0:0:0:
211,292,289396,6,0,P|254:250|256:158,1,150.000005722046,2|0,0:0|0:0,0:0:0:0:
84,112,289690,6,0,L|62:333,1,213.333333333333,6|0,3:0|0:0,0:0:0:0:
111,375,290131,2,0,L|96:227,1,106.666666666667,2|0,0:0|3:0,0:0:0:0:
72,110,290425,1,2,0:0:0:0:
200,302,290572,2,0,P|304:323|391:283,1,160,10|0,3:0|0:0,0:0:0:0:
406,252,290866,2,0,L|426:84,1,160,2|0,0:0|0:0,0:0:0:0:
401,79,291160,2,0,L|423:288,1,160,2|0,3:0|0:0,0:0:0:0:
426,360,291455,6,0,P|348:333|201:334,1,213.333333333333,2|0,3:0|0:0,0:0:0:0:
17,355,291896,2,0,P|77:363|139:332,1,106.666666666667,2|0,0:0|3:0,0:0:0:0:
178,261,292190,1,2,0:0:0:0:
66,75,292337,2,0,P|46:157|65:293,1,213.333333333333,10|0,3:0|0:0,0:0:0:0:
277,294,292778,1,8,3:0:0:0:
179,87,292925,1,2,3:0:0:0:
95,290,293072,1,8,3:0:0:0:
301,139,293219,6,0,L|543:105,1,213.333333333333,6|0,3:2|0:0,0:0:0:0:
299,171,293660,2,0,L|182:153,1,106.666666666667,2|0,0:0|3:0,0:0:0:0:
66,139,293955,1,2,0:0:0:0:
24,313,294102,2,0,P|113:332|187:284,1,160,10|0,3:0|0:0,0:0:0:0:
197,260,294396,2,0,P|186:337|284:378,1,160,2|0,0:0|0:0,0:0:0:0:
327,374,294690,2,0,L|488:346,1,160,2|0,3:0|0:0,0:0:0:0:
505,262,294984,6,0,B|339:295|376:161|199:186,1,320,2|0,3:0|0:0,0:0:0:0:
187,311,295572,2,0,P|257:347|315:351,1,106.666666666667,0|0,3:0|0:0,0:0:0:0:
454,169,295866,2,0,L|466:27,1,106.666666666667,10|0,3:0|0:0,0:0:0:0:
220,14,296160,5,10,3:0:0:0:
261,265,296307,1,8,3:0:0:0:
453,51,296455,5,10,3:0:0:0:
412,297,296602,1,8,3:0:0:0:
211,96,296749,6,0,P|114:84|72:99,1,106.666666666667,6|0,3:2|0:0,0:0:0:0:
52,136,296969,2,0,L|34:301,1,160,2|0,0:0|0:0,0:0:0:0:
104,361,297337,1,0,3:0:0:0:
479,131,297631,2,0,P|491:205|440:320,1,160,10|0,3:0|0:0,0:0:0:0:
383,307,297925,2,0,P|363:208|293:140,1,160,2|0,0:0|0:0,0:0:0:0:
248,172,298219,2,0,P|233:239|140:298,1,160,2|0,3:0|0:0,0:0:0:0:
44,290,298513,6,0,L|18:55,1,213.333333333333,2|0,3:0|0:0,0:0:0:0:
53,5,298955,2,0,L|47:131,1,106.666666666667,2|0,0:0|3:0,0:0:0:0:
32,299,299249,1,2,0:0:0:0:
165,110,299396,2,0,P|244:100|308:220,1,213.333333333333,10|0,3:0|0:0,0:0:0:0:
208,383,299837,1,8,3:0:0:0:
159,279,299984,2,0,P|230:267|296:304,1,106.666666666667,2|0,3:0|0:0,0:0:0:0:
475,373,300278,6,0,L|489:122,1,213.333333333333,6|0,3:0|0:0,0:0:0:0:
251,192,300719,1,10,3:0:0:0:
364,172,300866,1,0,3:0:0:0:
477,152,301013,1,2,3:0:0:0:
232,38,301160,6,0,P|135:22|60:115,1,213.333333333333,14|0,3:0|0:0,0:0:0:0:
36,337,301602,1,8,3:0:0:0:
51,223,301749,1,2,3:0:0:0:
67,109,301896,1,0,3:0:0:0:
190,346,302043,6,0,P|281:367|330:212,1,253.333326568604,14|0,3:0|0:0,0:0:0:0:
236,0,302484,1,10,3:0:0:0:
284,123,302631,1,0,3:0:0:0:
332,247,302778,1,2,3:0:0:0:
494,44,302925,6,0,L|467:240,1,160,14|0,3:0|0:0,0:0:0:0:
457,278,303219,1,0,3:0:0:0:
338,249,303366,1,0,3:0:0:0:
287,384,303513,5,0,3:0:0:0:
394,357,303660,1,0,3:0:0:0:
111,357,303807,6,0,P|64:297|61:200,1,146.666671142578,6|0,3:0|0:0,0:0:0:0:
237,189,304249,1,10,3:0:0:0:
143,204,304396,1,2,3:0:0:0:
49,219,304543,1,2,3:0:0:0:
5,98,304690,6,0,L|142:108,1,110.000003356934,10|0,3:0|0:0,0:0:0:0:
173,102,304984,2,0,L|73:123,1,73.3333355712891,2|8,0:0|3:0,0:0:0:0:
79,37,305278,1,2,3:0:0:0:
157,0,305425,1,8,3:0:0:0:
246,88,305572,6,0,P|321:105|406:70,1,146.666671142578,6|0,3:2|0:0,0:0:0:0:
499,2,306013,1,10,3:0:0:0:
489,83,306160,1,2,3:0:0:0:
480,165,306307,1,2,3:0:0:0:
507,316,306455,6,0,L|514:179,1,110.000003356934,10|0,3:0|0:0,0:0:0:0:
480,165,306749,2,8,L|477:117,2,36.6666677856446,10|8|8,3:0|3:0|3:0,3:0:0:0:
436,297,307043,1,10,3:0:0:0:
300,325,307190,1,8,3:0:0:0:
366,165,307337,6,0,L|375:-8,1,146.666671142578,6|0,3:2|0:0,0:0:0:0:
371,175,307778,1,10,3:0:0:0:
287,148,307925,1,2,3:0:0:0:
203,121,308072,1,2,3:0:0:0:
13,198,308219,6,0,P|66:179|136:183,1,110.000003356934,10|0,3:0|0:0,0:0:0:0:
132,205,308513,1,2,0:0:0:0:
289,225,308660,2,0,P|232:223|188:240,1,73.3333355712891,8|0,3:0|0:0,0:0:0:0:
129,294,308955,1,8,3:0:0:0:
227,380,309102,6,0,P|325:356|393:358,1,146.666671142578,6|0,3:2|0:0,0:0:0:0:
511,216,309543,1,8,3:0:0:0:
499,300,309690,1,2,3:0:0:0:
487,384,309837,1,0,3:0:0:0:
362,218,309984,6,0,L|340:91,1,110.000003356934,10|0,3:0|0:0,0:0:0:0:
320,41,310278,1,0,3:0:0:0:
200,49,310425,1,0,3:0:0:0:
162,171,310572,5,0,3:0:0:0:
258,155,310719,1,0,3:0:0:0:
65,45,310866,6,0,B|31:119|85:118|54:204,1,146.666671142578,6|0,3:0|0:0,0:0:0:0:
35,356,311307,1,8,3:0:0:0:
39,275,311455,1,0,3:0:0:0:
43,195,311602,1,0,3:0:0:0:
145,335,311749,6,0,P|226:334|291:269,1,146.666671142578,10|2,3:0|0:0,0:0:0:0:
186,167,312190,1,8,3:0:0:0:
168,257,312337,1,2,3:0:0:0:
203,76,312484,1,8,3:0:0:0:
351,204,312631,6,0,L|520:183,1,146.666671142578,2|0,3:0|0:0,0:0:0:0:
348,225,313072,1,8,3:0:0:0:
328,135,313219,1,0,3:0:0:0:
308,45,313366,1,0,3:0:0:0:
261,233,313513,5,10,3:0:0:0:
261,233,313807,2,0,L|260:180,2,36.6666677856446,10|8|8,3:0|3:0|3:0,0:0:0:0:
228,341,314102,1,10,3:0:0:0:
113,354,314249,1,8,3:0:0:0:
17,272,314396,6,0,P|46:181|39:119,1,146.666671142578,6|0,3:2|0:0,0:0:0:0:
16,2,314837,1,8,3:0:0:0:
97,42,314984,1,0,3:0:0:0:
178,0,315131,1,0,3:0:0:0:
273,162,315278,6,0,P|225:145|251:78,1,110.000003356934,10|0,3:0|0:0,0:0:0:0:
311,42,315572,2,0,L|390:52,1,73.3333355712891,2|8,0:0|3:0,0:0:0:0:
510,122,315866,2,0,L|411:139,1,73.3333355712891,2|0,0:0|0:0,0:0:0:0:
334,213,316160,5,10,3:0:0:0:
311,42,316307,1,0,3:3:0:0:
149,194,316455,5,8,3:0:0:0:
173,29,316602,1,0,3:3:0:0:
9,162,316749,2,0,P|7:220|28:301,1,110.000003356934,8|0,3:0|0:0,0:0:0:0:
55,297,317043,5,0,3:0:0:0:
144,272,317190,1,0,3:0:0:0:
89,186,317337,5,0,3:0:0:0:
18,166,317484,1,0,3:0:0:0:
67,101,317631,5,0,3:0:0:0:
124,85,317778,1,0,3:0:0:0:
291,192,317925,6,0,L|443:206,1,146.666671142578,6|0,3:0|0:0,0:0:0:0:
500,29,318366,1,10,3:0:0:0:
478,116,318513,1,2,3:0:0:0:
455,203,318660,1,2,3:0:0:0:
354,51,318807,6,0,L|215:29,1,110.000003356934,10|0,3:0|0:0,0:0:0:0:
227,58,319102,2,0,L|320:40,1,73.3333355712891,2|10,0:0|3:0,0:0:0:0:
178,5,319396,1,2,3:0:0:0:
162,116,319543,1,8,3:0:0:0:
26,17,319690,6,0,P|62:56|62:155,1,146.666671142578,6|0,3:2|0:0,0:0:0:0:
53,331,320131,1,10,3:0:0:0:
49,246,320278,1,2,3:0:0:0:
45,160,320425,1,2,3:0:0:0:
184,300,320572,6,0,P|251:307|311:293,1,110.000003356934,10|0,3:0|0:0,0:0:0:0:
314,278,320866,2,0,L|371:272,2,36.6666677856446,10|8|8,3:0|3:0|3:0,0:0:0:0:
274,184,321160,1,10,3:0:0:0:
324,98,321307,1,8,3:0:0:0:
478,130,321455,6,0,P|461:184|461:282,1,146.666671142578,6|0,3:2|0:0,0:0:0:0:
501,132,321896,1,10,3:0:0:0:
419,79,322043,1,2,3:0:0:0:
337,26,322190,1,2,3:0:0:0:
189,128,322337,6,0,L|62:142,1,110.000003356934,10|0,3:0|0:0,0:0:0:0:
54,118,322631,2,0,L|152:142,1,73.3333355712891,2|8,0:0|3:0,0:0:0:0:
274,202,322925,2,0,L|176:226,1,73.3333355712891,2|8,3:0|3:0,0:0:0:0:
32,315,323219,6,0,P|88:301|153:317,1,110.000003356934,6|0,3:2|0:0,0:0:0:0:
164,368,323513,2,0,P|168:325|200:294,1,73.3333355712891,2|8,0:0|3:0,0:0:0:0:
272,273,323807,1,2,3:0:0:0:
334,330,323955,1,0,3:0:0:0:
481,289,324102,6,0,P|481:192|490:151,1,110.000003356934,10|0,3:0|0:0,0:0:0:0:
497,147,324396,1,0,3:0:0:0:
496,27,324543,1,0,3:0:0:0:
406,48,324690,5,0,3:0:0:0:
396,136,324837,1,0,3:0:0:0:
196,196,324984,6,0,P|109:207|39:176,1,146.666671142578,6|0,3:0|0:0,0:0:0:0:
215,178,325425,1,8,3:0:0:0:
208,269,325572,1,2,3:0:0:0:
201,360,325719,1,0,3:0:0:0:
324,266,325866,6,0,L|459:247,1,110.000003356934,10|0,3:0|0:0,0:0:0:0:
512,290,326160,2,0,L|424:275,1,73.3333355712891,2|8,0:0|3:0,0:0:0:0:
407,187,326455,1,2,3:0:0:0:
469,126,326602,1,8,3:0:0:0:
379,11,326749,6,0,P|300:21|239:16,1,110.000003356934,2|0,3:0|0:0,0:0:0:0:
184,0,327043,2,0,P|233:-1|265:10,1,73.3333355712891,2|8,0:0|3:0,0:0:0:0:
274,96,327337,1,2,3:0:0:0:
288,189,327484,1,0,3:0:0:0:
159,87,327631,6,0,P|96:70|47:89,1,110.000003356934,10|0,3:0|0:0,0:0:0:0:
6,110,327925,2,0,L|-1:74,2,36.6666677856446,10|8|8,3:0|3:0|3:0,0:0:0:0:
35,222,328219,1,8,3:0:0:0:
64,326,328366,1,8,3:0:0:0:
233,254,328513,6,0,B|343:221|347:302|454:255,1,220.000006713867,6|8,3:0|3:0,0:0:0:0:
501,183,329102,1,0,3:0:0:0:
455,106,329249,1,0,3:0:0:0:
299,169,329396,6,0,L|65:134,1,220.000006713867,10|8,3:0|3:0,0:0:0:0:
35,63,329984,1,0,3:0:0:0:
377,17,330278,5,10,3:0:0:0:
404,226,330425,1,0,3:0:0:0:
281,66,330572,5,10,3:0:0:0:
259,233,330719,1,0,3:0:0:0:
159,99,330866,5,10,3:0:0:0:
176,232,331013,1,0,3:0:0:0:
279,141,331160,5,2,3:2:0:0:
343,201,331307,1,0,3:0:0:0:
343,201,331381,1,0,3:0:0:0:
343,201,331455,1,0,3:0:0:0:
410,143,331602,1,0,3:0:0:0:
493,172,331749,1,0,3:0:0:0:
509,258,331896,1,0,3:0:0:0:
384,353,332043,6,0,P|325:342|271:343,1,89.9999972534181,6|0,3:0|0:0,0:0:0:0:
261,318,332337,2,8,L|269:348,4,29.9999990844727,8|8|8|8|8,3:0|3:0|3:0|3:0|3:0,3:0:0:0:
243,243,332778,1,8,3:0:0:0:
227,166,332925,1,8,3:0:0:0:
53,323,333219,6,8,L|46:293,2,29.9999990844727,8|8|8,3:0|3:0|3:0,3:0:0:0:
134,318,333513,1,8,3:0:0:0:
158,237,333660,1,8,3:0:0:0:
101,180,333807,1,8,3:0:0:0:
34,34,334102,6,8,L|5:32,4,29.9999990844727,8|8|8|8|8,3:0|3:0|3:0|3:0|3:0,3:0:0:0:
113,43,334543,1,8,3:0:0:0:
192,48,334690,1,8,3:0:0:0:
392,110,334984,6,8,L|422:108,4,29.9999990844727,8|8|8|8|8,3:0|3:0|3:0|3:0|3:0,3:0:0:0:
314,119,335425,1,8,3:0:0:0:
235,124,335572,1,8,3:0:0:0:
23,261,335866,6,8,L|33:289,2,29.9999990844727,8|8|8,3:0|3:0|3:0,3:0:0:0:
71,204,336160,1,8,3:0:0:0:
146,205,336307,1,8,3:0:0:0:
176,278,336455,1,8,3:0:0:0:
319,354,336749,6,8,L|317:384,4,29.9999990844727,8|8|8|8|8,3:0|3:0|3:0|3:0|3:0,3:0:0:0:
328,276,337190,1,8,3:0:0:0:
333,197,337337,1,8,3:0:0:0:
399,79,337631,6,8,L|397:50,4,29.9999990844727,8|8|8|8|8,3:0|3:0|3:0|3:0|3:0,3:0:0:0:
408,158,338072,1,8,3:0:0:0:
413,237,338219,1,8,3:0:0:0:
302,84,338513,6,8,L|293:42,4,29.9999990844727,8|8|8|8|8,3:0|3:0|3:0|3:0|3:0,3:0:0:0:
218,107,338955,1,8,3:0:0:0:
198,188,339102,1,8,3:0:0:0:
217,355,339396,6,8,L|208:396,4,29.9999990844727,8|8|8|8|8,3:0|3:0|3:0|3:0|3:0,3:0:0:0:
133,332,339837,1,8,3:0:0:0:
113,251,339984,1,8,3:0:0:0:
292,205,340278,6,8,L|287:164,2,29.9999990844727,8|8|8,3:0|3:0|3:0,3:0:0:0:
368,196,340572,1,8,3:0:0:0:
440,182,340719,1,8,3:0:0:0:
512,168,340866,1,8,3:0:0:0:
302,84,341160,6,8,L|307:43,2,29.9999990844727,8|8|8,3:0|3:0|3:0,3:0:0:0:
226,75,341455,1,8,3:0:0:0:
154,61,341602,1,8,3:0:0:0:
82,47,341749,6,0,L|77:136,1,89.9999972534181,0|0,3:0|0:0,0:0:0:0:
46,45,342043,6,0,L|53:134,1,69.9999978637696,0|0,3:0|0:0,0:0:0:0:
125,196,342337,5,8,3:0:0:0:
