osu file format v14

[General]
AudioFilename: audio.mp3
AudioLeadIn: 0
PreviewTime: 101456
Countdown: 0
SampleSet: Soft
StackLeniency: 0.5
Mode: 0
LetterboxInBreaks: 0
WidescreenStoryboard: 1

[Editor]
Bookmarks: 14176,49470,74176,101529,136823
DistanceSpacing: 1
BeatDivisor: 3
GridSize: 32
TimelineZoom: 1.700002

[Metadata]
Title:S-LOW (Cut Ver.)
TitleUnicode:S-LOW (Cut Ver.)
Artist:THE ORAL CIGARETTES
ArtistUnicode:THE ORAL CIGARETTES
Creator:yukic
Version:Normal
Source:
Tags:yuki toc slow dip-bap japanese j-rock jrock rock male vocal cut short version shii shiitsuin
BeatmapID:2674792
BeatmapSetID:1288315

[Difficulty]
HPDrainRate:3
CircleSize:3.2
OverallDifficulty:4
ApproachRate:5.5
SliderMultiplier:2.84999990463257
SliderTickRate:1

[Events]
//Background and Video events
0,0,"peepo.png",0,0
//Break Periods
2,42611,46581
2,67117,72757
//Storyboard Layer 0 (Background)
//Storyboard Layer 1 (Fail)
//Storyboard Layer 2 (Pass)
//Storyboard Layer 3 (Foreground)
//Storyboard Layer 4 (Overlay)
//Storyboard Sound Samples

[TimingPoints]
59,882.352941176471,2,2,1,57,1,0
12411,-100,2,2,1,40,0,0
14176,-100,2,2,1,66,0,0
20941,-100,2,2,2,68,0,0
21235,-100,2,2,1,68,0,0
27411,-100,2,2,4,68,0,0
28000,-100,2,2,2,70,0,0
28294,-100,2,2,1,66,0,0
35059,-100,2,2,2,70,0,0
35353,-100,2,2,1,68,0,0
41529,-100,2,2,4,68,0,0
42117,-100,2,2,2,68,0,0
42411,-100,2,2,1,49,0,0
47706,-100,2,2,4,68,0,0
48000,-100,2,2,3,60,0,0
48294,-100,2,2,2,52,0,0
48588,-100,2,2,1,68,0,0
49176,-100,2,2,1,37,0,0
49470,-100,2,2,1,53,0,0
73882,-100,2,2,2,60,0,0
74176,-100,2,2,1,52,0,0
88000,-100,2,2,2,68,0,0
88294,-100,2,2,1,60,0,0
98882,-100,2,2,1,68,0,0
102264,-100,2,2,1,5,0,0
102411,-100,2,2,1,71,0,0
115647,-100,2,2,1,68,0,0
115941,-100,2,2,3,68,0,0
116235,-100,2,2,2,68,0,0
116529,-100,2,2,1,68,0,0
130058,-100,2,2,3,68,0,0
130353,-100,2,2,2,68,0,0
130647,-100,2,2,1,48,0,0
135941,-100,2,2,2,68,0,0
136823,-100,2,2,1,68,0,0

[Colours]
Combo1 : 231,39,39
Combo2 : 225,91,57
Combo3 : 97,170,243
Combo4 : 243,190,67

[HitObjects]
474,384,59,6,0,P|481:334|502:185,1,189.999993642171,6|0,3:2|3:0,2:0:0:0:
509,101,941,1,10,3:0:0:0:
422,61,1235,1,2,3:0:0:0:
237,15,1823,6,0,P|245:64|269:219,1,189.999993642171,6|0,3:2|3:0,2:0:0:0:
237,293,2706,1,10,3:0:0:0:
320,337,3000,1,2,3:0:0:0:
310,147,3588,38,0,P|260:139|86:113,1,189.999993642171,6|0,3:2|3:0,2:0:0:0:
28,106,4470,1,10,3:0:0:0:
2,197,4764,1,2,3:0:0:0:
103,358,5353,6,0,P|152:351|300:331,1,189.999993642171,6|0,3:2|3:0,2:0:0:0:
385,345,6235,1,10,3:0:0:0:
423,258,6529,1,2,3:0:0:0:
340,86,7117,38,0,B|286:38|286:38|219:63,1,142.499995231629,6|10,3:2|3:0,2:0:0:0:
174,76,7706,1,0,3:0:0:0:
120,154,8000,1,10,3:0:0:0:
26,139,8294,1,2,3:0:0:0:
16,328,8882,6,0,B|84:356|84:356|140:309,1,142.499995231629,6|10,3:2|3:0,2:0:0:0:
159,269,9470,1,0,3:0:0:0:
212,190,9764,1,10,3:0:0:0:
305,210,10059,1,2,3:0:0:0:
443,80,10647,38,0,B|483:140|483:140|450:209,1,142.499995231629,6|10,3:2|3:0,2:0:0:0:
443,250,11235,1,0,3:0:0:0:
444,344,11529,1,10,3:0:0:0:
356,379,11823,1,2,3:0:0:0:
256,216,12411,5,6,3:2:0:0:
188,358,14176,38,0,B|113:377|134:310|50:324,1,142.499995231629,6|10,3:0|3:0,2:0:0:0:
14,301,14764,1,2,3:0:0:0:
52,212,15059,2,0,P|72:165|72:111,2,94.9999968210857,10|2|2,3:0|2:0|3:0,2:0:0:0:
140,247,15941,6,0,B|193:196|193:196|261:216,1,142.499995231629,6|10,3:2|3:0,2:0:0:0:
303,198,16529,1,2,3:0:0:0:
355,276,16823,2,0,L|454:263,1,94.9999968210857,10|10,3:0|3:0,2:0:0:0:
502,187,17411,1,10,3:0:0:0:
408,168,17706,38,0,P|358:138|347:48,1,142.499995231629,6|10,3:2|3:0,2:0:0:0:
313,21,18294,1,2,3:0:0:0:
230,67,18588,2,0,L|122:79,2,94.9999968210857,10|2|2,3:0|2:0|3:0,2:0:0:0:
255,158,19470,6,0,B|264:203|264:203|243:252|243:252|251:300,1,142.499995231629,6|8,3:2|3:0,2:0:0:0:
229,338,20059,1,2,3:0:0:0:
136,357,20353,1,10,3:0:0:0:
7,218,20941,1,2,3:0:0:0:
7,218,21235,38,0,B|42:182|42:182|21:89,1,142.499995231629,6|8,3:0|3:0,2:0:0:0:
3,48,21823,1,0,3:0:0:0:
97,35,22117,2,0,P|150:40|201:46,1,94.9999968210857,10|2,3:0|2:0,2:0:0:0:
280,11,22706,1,2,3:0:0:0:
353,71,23000,6,0,P|389:122|378:198,1,142.499995231629,4|8,3:2|3:0,2:0:0:0:
341,228,23588,1,0,3:0:0:0:
399,302,23882,2,0,P|456:294|507:287,2,94.9999968210857,10|10|10,3:0|3:0|3:0,2:0:0:0:
324,360,24764,38,0,B|269:311|269:311|201:334,1,142.499995231629,6|8,3:2|3:0,2:0:0:0:
159,314,25353,2,0,L|112:308,1,47.4999984105428,0|0,3:0|3:0,2:0:0:0:
68,326,25647,1,10,3:0:0:0:
49,232,25941,1,2,2:0:0:0:
31,138,26235,1,2,2:0:0:0:
12,44,26529,6,0,P|59:42|112:3,2,94.9999968210857,10|8|8,3:0|3:0|3:0,2:0:0:0:
0,138,27411,1,0,3:0:0:0:
193,121,28000,1,0,3:0:0:0:
193,121,28294,38,0,B|276:106|255:170|331:155,1,142.499995231629,6|10,3:0|3:0,2:0:0:0:
361,185,28882,1,2,3:0:0:0:
416,107,29176,2,0,P|420:61|446:12,2,94.9999968210857,10|2|2,3:0|2:0|3:0,2:0:0:0:
467,186,30059,6,0,B|447:252|447:252|498:305,1,142.499995231629,6|10,3:2|3:0,2:0:0:0:
472,344,30647,1,2,3:0:0:0:
378,325,30941,2,0,L|283:337,1,94.9999968210857,10|10,3:0|3:0,2:0:0:0:
190,319,31529,1,10,3:0:0:0:
102,356,31823,38,0,P|39:338|17:266,1,142.499995231629,6|10,3:2|3:0,2:0:0:0:
3,224,32411,1,2,3:0:0:0:
40,136,32706,2,0,L|57:29,2,94.9999968210857,10|2|2,3:0|2:0|3:0,2:0:0:0:
116,192,33588,6,0,B|158:184|158:184|207:205|207:205|252:196,1,142.499995231629,6|8,3:2|3:0,2:0:0:0:
288,165,34176,1,2,3:0:0:0:
367,216,34470,1,10,3:0:0:0:
388,29,35059,1,2,3:0:0:0:
388,29,35353,38,0,B|346:56|346:56|257:17,1,142.499995231629,6|8,3:0|3:0,2:0:0:0:
216,33,35941,1,0,3:0:0:0:
123,11,36235,2,0,P|75:16|28:20,1,94.9999968210857,10|2,3:0|2:0,2:0:0:0:
2,112,36823,1,2,3:0:0:0:
58,189,37117,6,0,P|66:246|21:313,1,142.499995231629,6|8,3:2|3:0,2:0:0:0:
28,360,37706,1,0,3:0:0:0:
120,336,38000,2,0,P|177:328|228:321,2,94.9999968210857,10|8|10,3:0|3:0|3:0,2:0:0:0:
76,251,38882,38,0,B|32:195|32:195|57:128,1,142.499995231629,6|8,3:2|3:0,2:0:0:0:
66,81,39470,2,0,L|113:75,1,47.4999984105428,0|0,3:0|3:0,2:0:0:0:
149,44,39764,1,10,3:0:0:0:
243,65,40059,1,2,2:0:0:0:
335,85,40353,1,2,3:0:0:0:
427,106,40647,6,0,P|429:153|468:206,2,94.9999968210857,10|8|8,3:0|3:0|3:0,2:0:0:0:
365,33,41529,1,0,3:0:0:0:
188,96,42117,1,0,3:0:0:0:
188,96,42411,1,6,3:0:0:0:
418,259,47706,37,0,3:0:0:0:
512,269,48000,1,0,3:0:0:0:
501,363,48294,1,0,3:0:0:0:
406,352,48588,1,8,3:0:0:0:
503,189,49176,5,2,2:0:0:0:
503,189,49470,2,0,P|472:123|356:103,1,189.999993642171,6|2,3:0|3:0,2:0:0:0:
277,136,50353,2,0,P|224:128|173:120,1,94.9999968210857,8|0,3:0|2:0,2:0:0:0:
98,77,50941,1,0,3:0:0:0:
23,135,51235,2,0,L|34:234,1,94.9999968210857,0|0,3:0|2:0,2:0:0:0:
8,320,51823,1,0,3:0:0:0:
8,320,52117,38,0,B|48:346|48:346|105:323,2,94.9999968210857,10|2|2,3:0|2:0|3:0,2:0:0:0:
1,224,53000,2,0,P|19:118|33:31,1,189.999993642171,2|0,3:0|3:0,2:0:0:0:
125,19,53882,2,0,P|163:41|218:40,1,94.9999968210857,10|2,3:0|2:0,2:0:0:0:
304,69,54470,1,2,3:0:0:0:
392,35,54764,2,0,P|467:93|472:185,1,189.999993642171,2|0,3:0|3:0,2:0:0:0:
503,272,55647,5,10,3:0:0:0:
324,335,56235,1,2,3:0:0:0:
324,335,56529,2,0,B|287:289|287:289|147:326,1,189.999993642171,2|2,3:0|3:0,2:0:0:0:
65,332,57411,2,0,P|73:280|80:232,1,94.9999968210857,8|0,3:0|2:0,2:0:0:0:
19,163,58000,1,0,3:0:0:0:
68,82,58294,2,0,L|166:69,1,94.9999968210857,0|0,3:0|2:0,2:0:0:0:
252,97,58882,1,0,3:0:0:0:
252,97,59176,38,0,B|298:111|298:111|344:80,2,94.9999968210857,10|2|2,3:0|2:0|3:0,2:0:0:0:
177,156,60059,2,0,P|166:242|150:362,1,189.999993642171,2|0,3:0|3:0,2:0:0:0:
245,360,60941,2,0,P|273:336|335:330,1,94.9999968210857,10|0,3:0|2:0,2:0:0:0:
419,358,61529,1,2,3:0:0:0:
497,304,61823,2,0,P|457:257|469:120,1,189.999993642171,2|0,3:0|3:0,2:0:0:0:
509,52,62706,5,10,3:0:0:0:
324,18,63294,1,2,3:0:0:0:
324,18,63588,2,0,B|288:-10|235:10|235:10|209:64|145:63,1,189.999993642171,6|2,3:2|3:0,2:0:0:0:
65,54,64470,1,8,3:0:0:0:
9,236,65059,37,2,3:0:0:0:
9,236,65353,2,0,B|109:203|95:298|191:271,1,189.999993642171,2|0,3:0|3:0,2:0:0:0:
272,234,66235,1,10,3:0:0:0:
498,239,73882,5,0,3:0:0:0:
498,239,74176,2,0,P|450:317|359:328,1,189.999993642171,6|2,3:0|3:0,2:0:0:0:
275,281,75059,2,0,P|228:288|181:295,1,94.9999968210857,0|0,3:0|2:0,2:0:0:0:
91,325,75647,1,0,3:0:0:0:
41,243,75941,2,0,L|51:148,1,94.9999968210857,0|0,3:0|2:0,2:0:0:0:
103,70,76529,1,0,3:0:0:0:
103,70,76823,38,0,B|142:96|142:96|194:82,2,94.9999968210857,10|2|2,3:0|2:0|3:0,2:0:0:0:
50,148,77706,2,0,P|68:254|82:341,1,189.999993642171,2|0,3:0|3:0,2:0:0:0:
173,356,78588,2,0,P|207:336|266:335,1,94.9999968210857,2|2,3:0|2:0,2:0:0:0:
348,371,79176,1,2,3:0:0:0:
378,280,79470,2,0,P|426:197|530:181,1,189.999993642171,2|0,3:0|3:0,2:0:0:0:
510,81,80353,5,10,3:0:0:0:
332,22,80941,1,2,3:0:0:0:
332,22,81235,2,0,B|378:59|378:59|341:199,1,189.999993642171,6|2,3:2|3:0,2:0:0:0:
258,225,82117,2,0,P|211:218|164:210,1,94.9999968210857,0|0,3:0|2:0,2:0:0:0:
78,169,82706,1,0,3:0:0:0:
29,250,83000,2,0,L|42:348,1,94.9999968210857,0|0,3:0|2:0,2:0:0:0:
134,363,83588,1,0,3:0:0:0:
134,363,83882,38,0,B|181:349|181:349|223:376,2,94.9999968210857,10|2|2,3:0|2:0|3:0,2:0:0:0:
106,272,84764,2,0,P|117:186|133:66,1,189.999993642171,2|0,3:0|3:0,2:0:0:0:
210,32,85647,2,0,P|256:34|297:6,1,94.9999968210857,2|0,3:0|2:0,2:0:0:0:
390,8,86235,1,2,3:0:0:0:
389,102,86529,2,0,P|391:160|498:247,1,189.999993642171,2|4,3:0|3:1,2:0:0:0:
508,336,87411,5,10,3:0:0:0:
324,364,88000,1,0,3:0:0:0:
324,364,88294,2,0,B|282:350|266:292|266:292|249:354|202:370,1,189.999993642171,6|0,3:2|3:0,2:0:0:0:
117,362,89176,1,8,3:0:0:0:
15,208,89764,37,2,3:0:0:0:
15,208,90059,2,0,P|30:103|43:20,1,189.999993642171,2|0,3:0|3:0,2:0:0:0:
137,13,90941,1,10,3:0:0:0:
317,86,91529,5,0,3:0:0:0:
317,86,91823,2,0,B|410:117|406:21|491:44,1,189.999993642171,2|0,3:0|3:0,2:0:0:0:
500,139,92706,2,0,P|495:183|489:240,2,94.9999968210857,10|2|2,3:0|2:0|3:0,2:0:0:0:
421,85,93588,2,0,P|332:94|264:27,1,189.999993642171,2|0,3:0|3:0,2:0:0:0:
169,25,94470,37,10,3:0:0:0:
20,143,95059,1,2,3:0:0:0:
20,143,95353,2,0,B|40:343,1,189.999993642171,6|0,3:2|3:0,2:0:0:0:
126,369,96235,2,0,P|166:340|217:342,1,94.9999968210857,10|2,3:0|2:0,2:0:0:0:
304,352,96823,1,2,3:0:0:0:
393,383,97117,2,0,B|454:309|454:309|418:217,1,189.999993642171,2|0,3:0|3:0,2:0:0:0:
453,132,98000,5,10,3:0:0:0:
358,121,98294,1,10,3:0:0:0:
263,111,98588,2,0,L|249:48,1,47.4999984105428,10|8,3:0|3:0,2:0:0:0:
224,26,98882,2,0,P|173:27|127:57,1,94.9999968210857,14|8,3:0|3:0,2:0:0:0:
101,136,99470,2,0,P|152:139|191:170,1,94.9999968210857,8|8,3:0|3:0,2:0:0:0:
219,253,100059,2,0,P|171:255|128:283,1,94.9999968210857,8|8,3:0|3:0,2:0:0:0:
37,267,100647,37,10,3:0:0:0:
201,31,101529,22,0,B|327:-7|311:108|424:71,1,237.499992052714,2|0,3:0|2:0,2:0:0:0:
467,56,102411,2,0,P|462:109|506:195,1,142.499995231629,6|2,3:0|2:0,2:0:0:0:
496,287,103147,1,2,2:0:0:0:
496,287,103294,2,0,P|490:334|483:387,2,94.9999968210857,10|2|2,3:0|2:0|3:0,2:0:0:0:
407,253,104176,2,0,B|339:230|345:300|274:279,1,142.499995231629,2|0,3:0|2:0,2:0:0:0:
250,238,104764,1,2,3:0:0:0:
162,274,105059,2,0,P|97:266|16:254,1,142.499995231629,10|8,3:0|3:0,2:0:0:0:
0,210,105647,5,2,3:0:0:0:
60,136,105941,2,0,B|95:114|98:78|98:78|106:111|145:129,1,142.499995231629,6|2,3:2|2:0,2:0:0:0:
190,119,106529,2,0,L|247:110,1,47.4999984105428,2|0,3:0|2:0,2:0:0:0:
277,86,106823,2,0,B|259:41|259:41|289:-8,2,94.9999968210857,10|2|2,3:0|2:0|3:0,2:0:0:0:
367,114,107706,1,2,3:0:0:0:
387,369,108588,38,0,B|486:353,1,94.9999968210857,10|10,3:0|3:0,2:0:0:0:
509,262,109176,1,10,3:0:0:0:
450,187,109470,2,0,B|466:65|430:114|453:-12,1,189.999993642171,6|0,3:0|3:0,2:0:0:0:
355,3,110353,2,0,L|242:17,2,94.9999968210857,10|2|2,3:0|2:0|3:0,2:0:0:0:
406,82,111235,2,0,P|380:140|293:159,1,142.499995231629,2|2,3:0|2:0,2:0:0:0:
213,153,111970,1,2,2:0:0:0:
213,153,112117,2,0,B|153:111|153:111|90:146,1,142.499995231629,10|8,3:0|3:0,2:0:0:0:
54,174,112706,6,0,L|7:166,1,47.4999984105428,2|8,3:0|3:0,2:0:0:0:
4,214,113000,2,0,P|10:270|17:357,1,142.499995231629,6|10,3:0|3:0,2:0:0:0:
111,332,113735,1,10,3:0:0:0:
111,332,113882,2,0,L|212:343,2,94.9999968210857,2|10|10,3:0|3:0|3:0,2:0:0:0:
122,237,114764,2,0,P|172:180|152:63,1,189.999993642171,6|8,3:0|3:0,2:0:0:0:
231,10,115647,37,2,3:0:0:0:
324,25,115941,1,2,3:0:0:0:
417,42,116235,1,2,3:0:0:0:
509,64,116529,2,0,P|488:138|515:201,1,142.499995231629,6|2,3:0|2:0,2:0:0:0:
459,282,117264,1,2,2:0:0:0:
459,282,117411,2,0,P|412:276|359:269,2,94.9999968210857,10|2|2,3:0|2:0|3:0,2:0:0:0:
489,191,118294,2,0,B|469:123|524:123|498:48,1,142.499995231629,2|2,3:0|2:0,2:0:0:0:
467,18,118882,1,0,3:0:0:0:
387,70,119176,2,0,P|314:80|245:89,1,142.499995231629,10|8,3:0|3:0,2:0:0:0:
210,57,119764,5,2,3:0:0:0:
121,88,120059,2,0,B|116:54|90:26|90:26|56:44|38:76,1,142.499995231629,6|2,3:2|2:0,2:0:0:0:
5,166,120794,1,2,2:0:0:0:
5,166,120941,2,0,B|23:211|23:211|-6:258,2,94.9999968210857,10|2|2,3:0|2:0|3:0,2:0:0:0:
82,111,121823,1,2,3:0:0:0:
366,122,122706,38,0,B|356:216,1,94.9999968210857,10|10,3:0|3:0,2:0:0:0:
425,281,123294,1,10,3:0:0:0:
354,344,123588,2,0,B|235:347|284:376|168:375,1,189.999993642171,6|0,3:0|3:0,3:0:0:0:
93,320,124470,2,0,L|0:303,2,94.9999968210857,10|2|2,3:0|2:0|3:0,2:0:0:0:
179,280,125353,2,0,P|238:244|251:176,1,142.499995231629,2|2,3:0|2:0,2:0:0:0:
294,87,126088,1,2,2:0:0:0:
294,87,126235,2,0,B|350:40|350:40|417:72,1,142.499995231629,10|8,3:0|3:0,2:0:0:0:
458,81,126823,5,2,3:0:0:0:
495,168,127117,2,0,P|489:224|482:311,1,142.499995231629,6|10,3:0|3:0,2:0:0:0:
399,354,127853,1,2,3:0:0:0:
399,354,128000,2,0,P|342:317|265:327,1,142.499995231629,14|8,3:0|3:0,2:0:0:0:
225,339,128588,38,0,L|170:332,1,47.4999984105428,2|0,3:0|3:0,2:0:0:0:
131,350,128882,2,0,B|102:320|115:279|115:279|146:257|144:217,1,142.499995231629,14|10,3:0|3:0,2:0:0:0:
111,139,129617,1,2,3:0:0:0:
111,139,129764,2,0,L|128:31,1,94.9999968210857,14|0,3:0|3:0,2:0:0:0:
216,16,130353,1,2,3:0:0:0:
300,59,130647,1,6,3:0:0:0:
256,192,130794,12,8,134176,3:0:0:0:
205,146,135941,37,0,3:0:0:0:
215,240,136235,1,0,3:0:0:0:
309,229,136529,1,0,3:0:0:0:
298,134,136823,1,8,3:0:0:0:
