osu file format v14

[General]
AudioFilename: audio.mp3
AudioLeadIn: 0
PreviewTime: 101456
Countdown: 0
SampleSet: Soft
StackLeniency: 0.5
Mode: 0
LetterboxInBreaks: 0
WidescreenStoryboard: 1

[Editor]
Bookmarks: 14176,49470,74176,101529,136823
DistanceSpacing: 1.1
BeatDivisor: 3
GridSize: 32
TimelineZoom: 1.200002

[Metadata]
Title:S-LOW (Cut Ver.)
TitleUnicode:S-LOW (Cut Ver.)
Artist:THE ORAL CIGARETTES
ArtistUnicode:THE ORAL CIGARETTES
Creator:yukic
Version:Easy
Source:
Tags:yuki toc slow dip-bap japanese j-rock jrock rock male vocal cut short version shii shiitsuin
BeatmapID:2674832
BeatmapSetID:1288315

[Difficulty]
HPDrainRate:2
CircleSize:3
OverallDifficulty:2.5
ApproachRate:3.5
SliderMultiplier:2.14999990463257
SliderTickRate:1

[Events]
//Background and Video events
0,0,"peepo.png",0,0
//Break Periods
2,42611,47796
2,67117,72502
//Storyboard Layer 0 (Background)
//Storyboard Layer 1 (Fail)
//Storyboard Layer 2 (Pass)
//Storyboard Layer 3 (Foreground)
//Storyboard Layer 4 (Overlay)
//Storyboard Sound Samples

[TimingPoints]
59,882.352941176471,2,2,1,57,1,0
12411,-100,2,2,1,40,0,0
14176,-100,2,2,1,66,0,0
20941,-100,2,2,2,68,0,0
21235,-100,2,2,1,68,0,0
27411,-100,2,2,4,68,0,0
28000,-100,2,2,2,70,0,0
28294,-100,2,2,1,66,0,0
35059,-100,2,2,2,70,0,0
35353,-100,2,2,1,68,0,0
41529,-100,2,2,4,68,0,0
42117,-100,2,2,2,68,0,0
42411,-100,2,2,1,49,0,0
49176,-100,2,2,1,37,0,0
49470,-100,2,2,1,53,0,0
73882,-100,2,2,2,60,0,0
74176,-100,2,2,1,52,0,0
88000,-100,2,2,2,68,0,0
88294,-100,2,2,1,60,0,0
98882,-100,2,2,1,68,0,0
102411,-100,2,2,1,71,0,0
115646,-100,2,2,1,68,0,0
115941,-100,2,2,3,68,0,0
116235,-100,2,2,2,68,0,0
116529,-100,2,2,1,68,0,0
130353,-100,2,2,2,68,0,0
130647,-100,2,2,1,48,0,0
135941,-100,2,2,2,68,0,0
136823,-100,2,2,1,68,0,0

[Colours]
Combo1 : 231,39,39
Combo2 : 225,91,57
Combo3 : 97,170,243
Combo4 : 243,190,67

[HitObjects]
474,384,59,5,6,3:2:0:0:
498,228,647,1,0,3:0:0:0:
465,156,941,2,0,L|452:75,1,71.6666634877523,10|2,3:0|3:0,2:0:0:0:
308,22,1823,5,6,3:2:0:0:
162,81,2411,1,0,3:0:0:0:
92,43,2706,2,0,L|6:28,1,71.6666634877523,10|2,3:0|3:0,2:0:0:0:
5,187,3588,37,6,3:2:0:0:
161,166,4176,1,0,3:0:0:0:
215,223,4470,2,0,L|291:209,1,71.6666634877523,10|2,3:0|3:0,2:0:0:0:
384,86,5353,5,6,3:2:0:0:
471,216,5941,1,0,3:0:0:0:
413,270,6235,2,0,L|401:348,1,71.6666634877523,10|2,3:0|3:0,2:0:0:0:
244,336,7117,38,0,B|182:376|182:376|115:346,1,143.333326975505,6|0,3:2|3:0,2:0:0:0:
40,333,8000,1,10,3:0:0:0:
23,256,8294,1,2,3:0:0:0:
175,214,8882,6,0,B|218:156|218:156|188:86,1,143.333326975505,6|0,3:2|3:0,2:0:0:0:
165,15,9764,1,10,3:0:0:0:
242,0,10059,1,2,3:0:0:0:
333,128,10647,38,0,B|403:107|403:107|455:156,1,143.333326975505,6|0,3:2|3:0,2:0:0:0:
509,210,11529,1,10,3:0:0:0:
469,278,11823,1,2,3:0:0:0:
312,260,12411,5,6,3:2:0:0:
495,360,14176,38,0,B|420:375|436:312|357:324,1,143.333326975505,6|2,3:0|3:0,2:0:0:0:
288,351,15059,2,0,L|217:336,1,71.6666634877523,10|2,3:0|2:0,2:0:0:0:
148,298,15647,1,2,3:0:0:0:
70,313,15941,2,0,B|51:243|51:243|103:194,1,143.333326975505,6|2,3:2|3:0,2:0:0:0:
120,117,16823,2,0,L|99:43,2,71.6666634877523,10|10|10,3:0|3:0|3:0,2:0:0:0:
193,146,17706,6,0,P|259:145|314:88,1,143.333326975505,6|2,3:2|3:0,2:0:0:0:
340,19,18588,2,0,L|426:30,1,71.6666634877523,10|2,3:0|2:0,2:0:0:0:
479,66,19176,1,2,3:0:0:0:
463,143,19470,2,0,B|452:184|452:184|474:234|474:234|464:280,1,143.333326975505,6|2,3:2|3:0,2:0:0:0:
447,356,20353,1,10,3:0:0:0:
295,312,20941,1,2,3:0:0:0:
236,364,21235,38,0,B|201:328|201:328|227:235,1,143.333326975505,6|0,3:0|3:0,2:0:0:0:
268,172,22117,2,0,L|254:89,1,71.6666634877523,10|2,3:0|2:0,2:0:0:0:
207,39,22706,1,2,3:0:0:0:
139,79,23000,2,0,P|92:130|13:138,1,143.333326975505,4|0,3:2|3:0,2:0:0:0:
4,217,23882,2,0,P|15:270|21:297,2,71.6666634877523,10|10|10,3:0|3:0|3:0,2:0:0:0:
82,217,24764,6,0,B|150:194|150:194|204:243,1,143.333326975505,6|0,3:2|3:0,2:0:0:0:
246,307,25647,1,10,3:0:0:0:
317,340,25941,1,2,2:0:0:0:
366,278,26235,1,2,2:0:0:0:
325,210,26529,2,0,P|318:159|303:50,1,143.333326975505,10|8,3:0|3:0,2:0:0:0:
347,1,27411,1,0,3:0:0:0:
196,50,28000,1,0,3:0:0:0:
154,116,28294,38,0,B|81:134|94:66|22:78,1,143.333326975505,6|2,3:0|3:0,2:0:0:0:
3,154,29176,2,0,L|20:232,1,71.6666634877523,10|2,3:0|2:0,2:0:0:0:
43,298,29764,1,2,3:0:0:0:
121,287,30059,2,0,B|190:304|190:304|245:248,1,143.333326975505,6|2,3:2|3:0,2:0:0:0:
310,216,30941,2,0,L|386:236,2,71.6666634877523,10|10|10,3:0|3:0|3:0,2:0:0:0:
285,141,31823,6,0,P|314:75|382:56,1,143.333326975505,6|2,3:2|3:0,2:0:0:0:
456,59,32706,2,0,L|476:131,1,71.6666634877523,10|2,3:0|2:0,2:0:0:0:
509,198,33294,1,2,3:0:0:0:
473,268,33588,2,0,B|426:276|426:276|375:254|375:254|332:263,1,143.333326975505,6|2,3:2|3:0,2:0:0:0:
257,275,34470,1,10,3:0:0:0:
121,356,35059,1,2,3:0:0:0:
60,305,35353,38,0,B|85:264|85:264|46:177,1,143.333326975505,6|0,3:0|3:0,2:0:0:0:
11,106,36235,2,0,L|38:10,1,71.6666634877523,10|2,3:0|2:0,2:0:0:0:
100,0,36823,1,2,3:0:0:0:
153,58,37117,2,0,P|190:96|277:100,1,143.333326975505,6|0,3:2|3:0,2:0:0:0:
342,57,38000,2,0,L|428:35,2,71.6666634877523,10|8|10,3:0|3:0|3:0,2:0:0:0:
351,135,38882,6,0,B|309:192|309:192|342:264,1,143.333326975505,6|0,3:2|3:0,2:0:0:0:
327,335,39764,1,10,3:0:0:0:
260,377,40059,1,2,2:0:0:0:
196,330,40353,1,2,3:0:0:0:
219,254,40647,2,0,L|69:225,1,143.333326975505,10|8,3:0|3:0,2:0:0:0:
24,169,41529,1,0,3:0:0:0:
104,33,42117,1,0,3:0:0:0:
173,69,42411,1,6,3:0:0:0:
504,142,49176,37,2,2:0:0:0:
445,89,49470,2,0,P|379:89|328:145,1,143.333326975505,6|2,3:0|3:0,2:0:0:0:
296,214,50353,1,8,3:0:0:0:
153,147,50941,1,0,3:0:0:0:
78,170,51235,2,0,L|42:329,1,143.333326975505,0|0,3:0|3:0,2:0:0:0:
102,364,52117,6,0,L|178:380,2,71.6666634877523,10|2|2,3:0|2:0|3:0,2:0:0:0:
130,290,53000,2,0,P|172:246|256:241,1,143.333326975505,2|0,3:0|3:0,2:0:0:0:
298,302,53882,2,0,L|385:285,1,71.6666634877523,10|2,3:0|2:0,2:0:0:0:
437,325,54470,1,2,3:0:0:0:
497,274,54764,2,0,L|459:40,1,214.999990463257,2|10,3:0|3:0,2:0:0:0:
311,18,56235,37,2,3:0:0:0:
258,77,56529,2,0,B|228:108|228:108|127:76,1,143.333326975505,2|2,3:0|3:0,2:0:0:0:
58,51,57411,1,8,3:0:0:0:
0,197,58000,1,0,3:0:0:0:
51,256,58294,2,0,L|194:232,1,143.333326975505,0|0,3:0|3:0,2:0:0:0:
268,210,59176,6,0,B|294:134,2,71.6666634877523,10|2|2,3:0|2:0|3:0,2:0:0:0:
280,288,60059,2,0,P|321:335|404:344,1,143.333326975505,2|0,3:0|3:0,2:0:0:0:
475,334,60941,2,0,L|493:264,1,71.6666634877523,10|0,3:0|2:0,2:0:0:0:
492,185,61529,1,2,3:0:0:0:
453,116,61823,2,0,L|224:85,1,214.999990463257,2|10,3:0|3:0,2:0:0:0:
94,25,63294,37,2,3:0:0:0:
55,93,63588,2,0,B|13:118|10:182|10:182|56:224|43:281,1,214.999990463257,6|8,3:2|3:0,2:0:0:0:
171,374,65059,1,2,3:0:0:0:
229,321,65353,2,0,B|303:333|289:269|361:284,1,143.333326975505,2|0,3:0|3:0,2:0:0:0:
435,308,66235,1,10,3:0:0:0:
9,94,73882,5,0,3:0:0:0:
63,151,74176,2,0,P|140:146|189:95,1,143.333326975505,6|2,3:0|3:0,2:0:0:0:
211,27,75059,1,0,3:0:0:0:
362,71,75647,1,0,3:0:0:0:
329,142,75941,2,0,L|312:304,1,143.333326975505,0|0,3:0|3:0,2:0:0:0:
342,358,76823,38,0,B|419:329,2,71.6666634877523,10|2|2,3:0|2:0|3:0,2:0:0:0:
263,368,77706,2,0,P|187:355|151:295,1,143.333326975505,2|0,3:0|3:0,2:0:0:0:
124,229,78588,2,0,L|25:208,1,71.6666634877523,2|2,3:0|2:0,2:0:0:0:
9,148,79176,1,2,3:0:0:0:
47,79,79470,2,0,L|270:34,1,214.999990463257,2|10,3:0|3:0,2:0:0:0:
393,117,80941,5,2,3:0:0:0:
467,92,81235,2,0,B|503:119|503:119|475:231,1,143.333326975505,6|2,3:2|3:0,2:0:0:0:
455,289,82117,1,0,3:0:0:0:
310,227,82706,1,0,3:0:0:0:
257,286,83000,2,0,L|110:317,1,143.333326975505,0|0,3:0|3:0,2:0:0:0:
38,306,83882,38,0,B|26:377,2,71.6666634877523,10|2|2,3:0|2:0|3:0,2:0:0:0:
12,230,84764,2,0,P|62:170|130:165,1,143.333326975505,2|0,3:0|3:0,2:0:0:0:
185,212,85647,2,0,L|267:193,1,71.6666634877523,2|0,3:0|2:0,2:0:0:0:
317,243,86235,1,2,3:0:0:0:
394,230,86529,2,0,L|439:-5,1,214.999990463257,2|10,3:0|3:0,2:0:0:0:
287,75,88000,5,0,3:0:0:0:
219,115,88294,2,0,B|159:88|147:39|147:39|149:90|94:135,1,214.999990463257,6|8,3:2|3:0,2:0:0:0:
14,262,89764,1,2,3:0:0:0:
54,329,90059,2,0,P|164:311|282:291,1,214.999990463257,2|10,3:0|3:0,2:0:0:0:
415,344,91529,37,0,3:0:0:0:
481,301,91823,2,0,B|502:231|448:233|469:158,1,143.333326975505,2|0,3:0|3:0,2:0:0:0:
434,90,92706,2,0,P|446:44|454:10,2,71.6666634877523,10|2|2,3:0|2:0|3:0,2:0:0:0:
365,129,93588,1,2,3:0:0:0:
466,342,94470,1,10,3:0:0:0:
341,245,95059,5,2,3:0:0:0:
285,300,95353,2,0,B|141:327,1,143.333326975505,6|0,3:2|3:0,2:0:0:0:
69,352,96235,2,0,L|-3:334,2,71.6666634877523,10|2|2,3:0|2:0|3:0,2:0:0:0:
84,274,97117,1,2,3:0:0:0:
12,48,98000,37,10,3:0:0:0:
78,5,98294,1,10,3:0:0:0:
137,57,98588,1,10,3:0:0:0:
107,129,98882,2,0,P|138:254|162:355,2,214.999990463257,14|8|10,3:0|3:0|3:0,2:0:0:0:
260,31,101529,22,0,B|339:21|323:79|394:66,1,143.333326975505,2|0,3:0|2:0,2:0:0:0:
471,63,102411,2,0,P|476:116|425:191,1,143.333326975505,6|0,3:0|3:0,2:0:0:0:
356,221,103294,2,0,L|378:311,1,71.6666634877523,10|2,3:0|2:0,2:0:0:0:
337,361,103882,1,2,3:0:0:0:
262,336,104176,2,0,B|193:316|202:383|129:368,1,143.333326975505,2|2,3:0|3:0,2:0:0:0:
53,345,105059,1,10,3:0:0:0:
33,188,105647,5,2,3:0:0:0:
87,131,105941,2,0,B|119:103|118:67|118:67|127:103|169:121,1,143.333326975505,6|2,3:2|3:0,2:0:0:0:
233,151,106823,2,0,B|314:165,2,71.6666634877523,10|2|2,3:0|2:0|3:0,2:0:0:0:
248,73,107706,1,2,3:0:0:0:
300,303,108588,38,0,B|372:290,1,71.6666634877523,10|10,3:0|3:0,2:0:0:0:
447,308,109176,1,10,3:0:0:0:
485,239,109470,2,0,B|492:146|470:182|477:93,1,143.333326975505,6|0,3:0|3:0,2:0:0:0:
426,35,110353,2,0,L|352:51,1,71.6666634877523,10|2,3:0|2:0,2:0:0:0:
279,68,110941,1,2,3:0:0:0:
211,27,111235,2,0,P|136:36|96:96,1,143.333326975505,2|0,3:0|3:0,2:0:0:0:
81,164,112117,1,10,3:0:0:0:
17,307,112706,5,2,3:0:0:0:
75,360,113000,2,0,P|147:346|223:332,1,143.333326975505,6|8,3:0|3:0,2:0:0:0:
276,285,113882,2,0,L|287:195,2,71.6666634877523,2|10|10,3:0|3:0|3:0,2:0:0:0:
333,338,114764,2,0,P|441:304|488:198,1,214.999990463257,6|2,3:0|3:0,2:0:0:0:
480,140,115941,37,2,3:0:0:0:
449,67,116235,1,2,3:0:0:0:
370,66,116529,2,0,L|214:29,1,143.333326975505,6|0,3:0|3:0,2:0:0:0:
157,62,117411,2,0,L|85:77,1,71.6666634877523,10|2,3:0|2:0,2:0:0:0:
12,102,118000,1,2,3:0:0:0:
19,180,118294,2,0,B|92:164|80:226|152:214,1,143.333326975505,2|0,3:0|3:0,2:0:0:0:
227,190,119176,1,10,3:0:0:0:
304,327,119764,5,2,3:0:0:0:
334,254,120059,2,0,B|339:219|363:189|363:189|395:209|418:241,1,143.333326975505,6|0,3:2|3:0,2:0:0:0:
472,291,120941,2,0,L|455:372,2,71.6666634877523,10|2|2,3:0|2:0|3:0,2:0:0:0:
509,221,121823,1,2,3:0:0:0:
410,23,122706,38,0,B|338:37,1,71.6666634877523,10|10,3:0|3:0,2:0:0:0:
260,33,123294,1,10,3:0:0:0:
245,110,123588,2,0,B|232:198|262:164|245:263,1,143.333326975505,6|0,3:0|3:0,3:0:0:0:
218,325,124470,2,0,L|120:297,1,71.6666634877523,10|2,3:0|2:0,2:0:0:0:
72,324,125059,1,2,3:0:0:0:
21,263,125353,2,0,P|14:191|60:137,1,143.333326975505,2|0,3:0|3:0,2:0:0:0:
119,91,126235,1,10,3:0:0:0:
257,16,126823,5,2,3:0:0:0:
313,70,127117,2,0,P|388:83|459:93,1,143.333326975505,6|0,3:0|3:0,2:0:0:0:
502,155,128000,2,0,P|460:223|471:295,1,143.333326975505,14|2,3:0|3:0,2:0:0:0:
410,340,128882,2,0,B|379:315|342:319|342:319|319:352|278:352,1,143.333326975505,14|0,3:0|3:0,2:0:0:0:
204,336,129764,1,14,3:0:0:0:
129,196,130353,1,2,3:0:0:0:
177,134,130647,1,6,3:0:0:0:
256,192,130794,12,8,134176,3:0:0:0:
272,290,135941,22,0,L|282:214,1,71.6666634877523,0|0,3:0|3:0,2:0:0:0:
223,165,136529,2,0,L|210:81,1,71.6666634877523,0|8,3:0|3:0,2:0:0:0:
