osu file format v14

[General]
AudioFilename: audio.mp3
AudioLeadIn: 0
PreviewTime: 56386
Countdown: 0
SampleSet: Soft
StackLeniency: 0.7
Mode: 0
LetterboxInBreaks: 0
WidescreenStoryboard: 1

[Editor]
Bookmarks: 64823
DistanceSpacing: 1
BeatDivisor: 2
GridSize: 8
TimelineZoom: 1.6

[Metadata]
Title:Red Criminal (TV Size)
TitleUnicode:Red Criminal (TV Size)
Artist:THE ORAL CIGARETTES
ArtistUnicode:THE ORAL CIGARETTES
Creator:Nevo
Version:Sytho's Normal
Source:SCARLET NEXUS
Tags:anime japanese rock opening sotarks armin a_r_m_i_n nymphe kujinn reform aranel sytho jrock j-rock Kiyoshi Guarden op
BeatmapID:3082927
BeatmapSetID:1502178

[Difficulty]
HPDrainRate:3
CircleSize:3
OverallDifficulty:4
ApproachRate:5.8
SliderMultiplier:0.949999999999999
SliderTickRate:1

[Events]
//Background and Video events
0,0,"0dc90f89-1b2f-4f8b-8106-2a1b7111365e-min.png",0,0
Video,0,"redcrim.mp4"
//Break Periods
2,15805,16713
//Storyboard Layer 0 (Background)
//Storyboard Layer 1 (Fail)
//Storyboard Layer 2 (Pass)
//Storyboard Layer 3 (Foreground)
//Storyboard Layer 4 (Overlay)
//Storyboard Sound Samples

[TimingPoints]
605,312.5,4,2,1,80,1,0
5605,-100,4,2,1,80,0,0
15917,-100,4,2,1,40,0,0
16386,-100,4,2,1,45,0,0
16698,-100,4,2,1,50,0,0
17167,-100,4,2,1,55,0,0
17636,-100,4,2,1,70,0,0
18105,-100,4,2,1,70,0,0
32480,-100,4,2,1,70,0,0
33105,-100,4,2,1,70,0,0
38105,-100,4,2,1,60,0,0
48105,-100,4,2,1,70,0,0
53105,-100,4,2,1,70,0,0
58105,-100,4,2,1,80,0,1
77792,-100,4,2,1,80,0,0
78105,-100,4,2,1,80,0,0

[Colours]
Combo1 : 128,128,255
Combo2 : 255,98,98
Combo3 : 111,165,255
Combo4 : 192,192,192

[HitObjects]
83,7,605,6,0,B|22:29|22:29|46:161,1,190,6|6,3:2|3:2,0:0:0:0:
70,340,1855,2,0,B|158:324|158:324|157:329|157:329|267:309,1,190,6|6,3:2|3:2,0:0:0:0:
392,360,2948,1,0,3:2:0:0:
392,360,3105,6,0,P|419:304|392:234,1,94.9999999999999,10|10,0:0|0:0,0:0:0:0:
376,184,3730,1,10,0:0:0:0:
392,88,4042,1,10,0:0:0:0:
392,88,5605,6,0,P|325:36|285:50,1,94.9999999999999,6|10,3:2|0:0,0:0:0:0:
285,65,6073,1,2,3:2:0:0:
285,65,6230,2,0,L|165:55,1,94.9999999999999,2|10,3:2|0:0,0:0:0:0:
96,44,6855,1,2,3:2:0:0:
34,116,7167,2,0,L|40:182,1,47.5,10|2,0:0|3:2,0:0:0:0:
55,208,7480,2,0,P|96:223|162:188,1,94.9999999999999,2|10,3:2|0:0,0:0:0:0:
226,162,8105,6,0,L|337:167,1,94.9999999999999,2|10,3:2|0:0,0:0:0:0:
369,185,8573,1,2,3:2:0:0:
369,185,8730,2,0,P|385:258|363:291,1,94.9999999999999,2|10,3:2|0:0,0:0:0:0:
316,345,9355,2,0,L|206:336,1,94.9999999999999,2|8,3:2|0:0,0:0:0:0:
180,361,9823,1,2,3:2:0:0:
180,361,9980,1,2,3:2:0:0:
86,345,10292,2,0,L|57:288,1,47.5,10|8,0:0|0:0,0:0:0:0:
35,264,10605,6,0,B|22:216|22:216|43:136,1,94.9999999999999,6|10,3:2|0:0,0:0:0:0:
78,152,11073,1,2,3:2:0:0:
78,152,11230,2,0,L|65:43,1,94.9999999999999,2|10,3:2|0:0,0:0:0:0:
149,11,11855,1,2,3:2:0:0:
227,64,12167,2,0,L|291:57,1,47.5,10|2,0:0|3:2,0:0:0:0:
320,48,12480,2,0,L|434:35,1,94.9999999999999,2|10,3:2|0:0,0:0:0:0:
480,106,13105,6,0,P|441:155|380:149,1,94.9999999999999,2|8,3:2|0:0,0:0:0:0:
369,155,13573,1,2,3:2:0:0:
369,155,13730,2,0,L|361:273,1,94.9999999999999,0|14,3:2|0:0,0:0:0:0:
344,343,14355,2,0,B|297:353|297:353|221:330,1,94.9999999999999,10|10,3:2|3:2,0:0:0:0:
189,267,14980,1,10,0:3:0:0:
94,256,15292,1,2,3:0:0:0:
14,308,15605,5,8,0:0:0:0:
16,320,17792,5,10,0:0:0:0:
17,224,18105,6,0,L|25:144,2,47.5,12|8|10,3:2|3:2|0:0,0:0:0:0:
110,238,18730,2,0,L|238:222,1,94.9999999999999,10|10,0:0|0:0,0:0:0:0:
295,199,19355,1,8,0:0:0:0:
248,116,19667,1,10,0:0:0:0:
304,39,19980,2,0,L|412:24,1,94.9999999999999,8|8,0:0|0:0,0:0:0:0:
474,83,20605,6,0,L|532:86,2,47.5,12|8|10,3:2|3:2|0:0,0:0:0:0:
407,150,21230,2,0,L|399:262,1,94.9999999999999,10|10,0:0|0:0,0:0:0:0:
405,339,21855,1,8,0:0:0:0:
313,364,22167,1,10,0:0:0:0:
240,302,22480,2,0,L|231:229,1,47.5,8|0,0:0|3:0,0:0:0:0:
256,212,22792,2,0,L|258:135,1,47.5,10|8,0:0|0:0,0:0:0:0:
262,117,23105,6,0,P|239:76|168:80,1,94.9999999999999,6|8,3:2|0:0,0:0:0:0:
150,82,23573,2,0,L|38:69,1,94.9999999999999,2|0,3:2|3:2,0:0:0:0:
17,99,24042,1,10,0:0:0:0:
17,194,24355,2,0,L|25:322,1,94.9999999999999,2|8,3:2|0:0,0:0:0:0:
51,326,24823,2,0,P|97:351|158:310,1,94.9999999999999,2|0,3:2|3:2,0:0:0:0:
172,308,25292,1,10,0:0:0:0:
215,223,25605,6,0,L|207:114,1,94.9999999999999,2|8,3:2|0:0,0:0:0:0:
227,85,26073,2,0,P|275:62|343:86,1,94.9999999999999,2|0,3:2|3:2,0:0:0:0:
355,93,26542,1,10,0:0:0:0:
436,142,26855,2,0,B|451:189|451:189|434:251,1,94.9999999999999,6|0,3:2|3:2,0:0:0:0:
405,267,27323,1,10,0:0:0:0:
405,267,27480,2,0,L|279:255,1,94.9999999999999,8|0,0:3|3:2,0:0:0:0:
245,327,28105,6,0,L|254:379,2,47.5,12|8|10,3:2|3:2|0:0,0:0:0:0:
171,266,28730,2,0,L|55:255,1,94.9999999999999,10|10,0:0|0:0,0:0:0:0:
21,179,29355,1,8,0:0:0:0:
32,84,29667,1,10,0:0:0:0:
113,35,29980,2,0,L|224:43,1,94.9999999999999,8|8,0:0|0:0,0:0:0:0:
282,100,30605,6,0,L|364:95,2,47.5,12|8|10,3:2|3:2|0:0,0:0:0:0:
200,149,31230,2,0,P|188:206|221:260,1,94.9999999999999,10|10,0:0|0:0,0:0:0:0:
249,320,31855,1,8,0:0:0:0:
342,335,32167,1,10,0:3:0:0:
431,302,32480,2,0,L|438:234,1,47.5,8|8,0:0|0:0,0:0:0:0:
421,209,32792,2,0,L|412:136,1,47.5,10|8,0:0|0:0,0:0:0:0:
426,115,33105,6,0,P|426:57|375:25,1,94.9999999999999,6|8,3:2|0:0,0:0:0:0:
357,17,33573,2,0,L|246:12,1,94.9999999999999,2|0,3:2|3:2,0:0:0:0:
214,12,34042,1,10,0:0:0:0:
145,77,34355,2,0,L|139:193,1,94.9999999999999,2|8,3:2|0:0,0:0:0:0:
173,205,34823,2,0,P|223:223|279:196,1,94.9999999999999,2|0,3:2|3:2,0:0:0:0:
302,187,35292,1,10,0:0:0:0:
389,223,35605,6,0,L|395:338,1,94.9999999999999,2|8,3:2|0:0,0:0:0:0:
357,347,36073,2,0,B|311:364|311:364|235:345,1,94.9999999999999,2|0,3:2|3:2,0:0:0:0:
225,327,36542,1,10,0:0:0:0:
132,348,36855,2,0,P|62:346|34:290,1,94.9999999999999,6|0,3:2|3:2,0:0:0:0:
18,301,37323,1,10,0:0:0:0:
18,301,37480,2,0,L|11:193,1,94.9999999999999,8|6,0:3|0:3,0:0:0:0:
49,118,38105,6,0,B|93:96|93:96|152:124,1,94.9999999999999,6|0,3:2|0:0,0:0:0:0:
165,154,38573,2,0,L|279:149,1,94.9999999999999,10|8,0:0|0:0,0:0:0:0:
307,149,39042,1,6,3:2:0:0:
401,141,39355,1,0,0:0:0:0:
401,141,39511,2,0,P|424:191|380:251,1,94.9999999999999,8|8,0:0|0:0,0:0:0:0:
380,262,39980,2,0,L|384:368,1,94.9999999999999,0|8,3:2|0:0,0:0:0:0:
289,368,40605,6,0,L|178:373,1,94.9999999999999,6|0,3:2|0:0,0:0:0:0:
158,341,41073,2,0,B|138:303|138:303|154:233,1,94.9999999999999,10|8,0:0|0:0,0:0:0:0:
165,207,41542,1,6,3:2:0:0:
256,174,41855,1,0,0:0:0:0:
256,174,42011,2,0,L|384:175,1,94.9999999999999,8|8,0:0|0:0,0:0:0:0:
398,179,42480,2,0,L|423:74,1,94.9999999999999,8|4,0:3|0:3,0:0:0:0:
344,27,43105,6,0,B|296:12|296:12|239:38,1,94.9999999999999,6|0,3:2|0:0,0:0:0:0:
220,63,43573,2,0,L|111:54,1,94.9999999999999,10|8,0:0|0:0,0:0:0:0:
77,51,44042,1,6,3:2:0:0:
12,121,44355,1,0,0:0:0:0:
12,121,44511,2,0,P|4:188|43:223,1,94.9999999999999,8|8,0:0|0:0,0:0:0:0:
62,225,44980,2,0,L|74:332,1,94.9999999999999,2|8,3:2|0:0,0:0:0:0:
163,346,45605,6,0,P|202:297|187:236,1,94.9999999999999,6|0,3:2|0:0,0:0:0:0:
197,219,46073,2,0,L|194:105,1,94.9999999999999,8|8,0:0|0:0,0:0:0:0:
196,76,46542,1,4,3:2:0:0:
272,19,46855,1,0,0:0:0:0:
272,19,47011,2,0,P|335:4|382:31,1,94.9999999999999,8|8,0:0|0:0,0:0:0:0:
403,36,47480,2,0,L|415:154,1,94.9999999999999,8|4,0:3|0:3,0:0:0:0:
424,224,48105,6,0,P|412:273|352:293,1,94.9999999999999,6|0,3:2|0:0,0:0:0:0:
328,298,48573,2,0,L|218:290,1,94.9999999999999,10|8,0:0|0:0,0:0:0:0:
186,283,49042,1,6,3:2:0:0:
108,335,49355,1,0,0:0:0:0:
108,335,49511,2,0,P|48:323|27:262,1,94.9999999999999,8|8,0:0|0:0,0:0:0:0:
36,250,49980,2,0,L|24:112,1,94.9999999999999,0|0,3:2|3:2,0:0:0:0:
73,72,50605,6,0,L|182:61,1,94.9999999999999,6|0,3:2|0:0,0:0:0:0:
213,74,51073,2,0,P|238:119|231:170,1,94.9999999999999,10|4,0:0|0:3,0:0:0:0:
210,202,51542,1,14,0:0:0:0:
201,296,51855,2,0,L|270:309,1,47.5,8|0,0:0|3:0,0:0:0:0:
281,337,52167,1,0,3:0:0:0:
281,337,52323,2,0,P|362:318|393:333,1,94.9999999999999,8|0,0:0|3:0,0:0:0:0:
405,352,52792,1,10,0:0:0:0:
486,302,53105,6,0,L|497:194,1,94.9999999999999,6|8,3:2|0:0,0:0:0:0:
477,163,53573,1,2,3:2:0:0:
394,211,53886,2,0,L|304:209,1,47.5,2|8,3:2|0:0,0:0:0:0:
310,179,54198,2,0,L|179:198,1,94.9999999999999,2|2,3:2|3:2,0:0:0:0:
168,197,54667,1,8,0:0:0:0:
168,197,54823,1,2,3:2:0:0:
111,120,55136,1,0,3:2:0:0:
111,120,55292,2,0,L|126:63,1,47.5,8|0,0:0|3:2,0:0:0:0:
159,42,55605,6,0,P|200:37|267:59,1,94.9999999999999,10|0,0:0|3:2,0:0:0:0:
290,76,56073,1,10,0:0:0:0:
290,76,56230,1,10,0:0:0:0:
273,169,56542,2,0,L|282:259,1,47.5,10|8,0:0|0:0,0:0:0:0:
272,267,56855,2,0,L|168:274,1,94.9999999999999,10|4,0:3|0:3,0:0:0:0:
140,303,57323,2,0,B|94:304|94:304|55:235,1,94.9999999999999,6|10,0:3|3:2,0:0:0:0:
87,113,58105,6,0,P|129:61|176:59,1,94.9999999999999,4|10,3:2|0:0,0:0:0:0:
199,89,58573,1,0,3:0:0:0:
199,89,58730,2,0,L|324:92,1,94.9999999999999,2|10,3:0|0:0,0:0:0:0:
389,93,59355,2,0,P|465:133|471:181,1,94.9999999999999,2|8,3:2|0:0,0:0:0:0:
484,179,59823,2,0,L|481:273,1,94.9999999999999,2|0,3:2|3:0,0:0:0:0:
478,321,60292,1,8,0:0:0:0:
391,359,60605,6,0,P|335:362|301:324,1,94.9999999999999,2|10,3:2|0:0,0:0:0:0:
266,313,61073,1,0,3:0:0:0:
266,313,61230,2,0,L|137:316,1,94.9999999999999,2|10,3:0|0:0,0:0:0:0:
90,365,61855,2,0,L|21:358,1,47.5,2|2,3:2|3:0,0:0:0:0:
25,321,62167,1,8,0:0:0:0:
25,321,62323,2,0,L|14:191,1,94.9999999999999,2|2,3:0|3:0,0:0:0:0:
12,178,62792,1,8,0:0:0:0:
42,87,63105,6,0,B|83:65|83:65|158:87,1,94.9999999999999,6|8,3:2|0:0,0:0:0:0:
169,104,63573,2,0,L|297:90,1,94.9999999999999,2|0,3:0|3:0,0:0:0:0:
310,89,64042,1,10,0:0:0:0:
396,48,64355,2,0,P|415:126|386:164,1,94.9999999999999,2|8,3:2|0:0,0:0:0:0:
383,173,64823,2,0,P|376:219|398:260,1,94.9999999999999,2|0,3:0|3:0,0:0:0:0:
440,283,65292,1,10,0:0:0:0:
367,344,65605,6,0,L|294:352,1,47.5,14|0,0:0|3:0,0:0:0:0:
279,336,65917,1,0,3:0:0:0:
279,336,66073,2,0,L|168:330,1,94.9999999999999,14|0,0:0|3:0,0:0:0:0:
138,344,66542,1,14,0:0:0:0:
88,262,66855,2,0,P|81:189|106:151,1,94.9999999999999,14|14,0:0|0:0,0:0:0:0:
128,143,67323,1,10,0:0:0:0:
128,143,67480,2,0,L|193:149,1,47.5,8|10,0:0|0:0,0:0:0:0:
221,158,67792,1,8,0:3:0:0:
307,118,68105,6,0,L|433:105,1,94.9999999999999,6|10,3:2|0:0,0:0:0:0:
448,132,68573,1,0,3:0:0:0:
448,132,68730,2,0,B|465:176|465:176|452:249,1,94.9999999999999,2|10,3:0|0:0,0:0:0:0:
418,310,69355,2,0,P|368:356|316:338,1,94.9999999999999,2|8,3:2|0:0,0:0:0:0:
300,340,69823,2,0,L|205:347,1,94.9999999999999,2|0,3:2|3:0,0:0:0:0:
157,352,70292,1,10,0:0:0:0:
95,279,70605,6,0,B|77:233|77:233|108:172,1,94.9999999999999,2|10,3:2|0:0,0:0:0:0:
144,176,71073,1,0,3:0:0:0:
144,176,71230,2,0,L|133:76,1,94.9999999999999,2|8,3:0|0:0,0:0:0:0:
213,29,71855,2,0,L|277:21,1,47.5,2|2,3:2|3:0,0:0:0:0:
311,29,72167,1,8,0:0:0:0:
311,29,72323,2,0,B|357:50|357:50|398:104,1,94.9999999999999,2|2,3:0|3:0,0:0:0:0:
392,132,72792,1,8,0:0:0:0:
341,217,73105,6,0,L|213:228,1,94.9999999999999,6|8,3:2|0:0,0:0:0:0:
203,204,73573,2,0,L|92:213,1,94.9999999999999,2|0,3:0|3:0,0:0:0:0:
60,211,74042,1,10,0:0:0:0:
20,297,74355,2,0,P|86:336|131:319,1,94.9999999999999,2|8,3:2|0:0,0:0:0:0:
143,315,74823,2,0,L|259:306,1,94.9999999999999,2|0,3:0|3:0,0:0:0:0:
278,332,75292,1,10,0:0:0:0:
363,374,75605,6,0,L|374:325,1,47.5,14|0,0:0|3:0,0:0:0:0:
367,281,75917,2,0,L|357:213,1,47.5,12|2,0:0|3:0,0:0:0:0:
350,187,76230,1,8,0:3:0:0:
389,100,76542,2,0,L|375:32,1,47.5,14|8,0:0|0:0,0:0:0:0:
333,40,76855,2,0,B|284:27|284:27|206:59,1,94.9999999999999,10|8,3:2|3:2,0:0:0:0:
208,75,77323,1,10,0:3:0:0:
208,75,77480,2,0,L|91:59,1,94.9999999999999,8|6,0:3|0:3,0:0:0:0:
25,96,78105,6,0,P|9:159|42:202,1,94.9999999999999,6|10,3:2|0:0,0:0:0:0:
60,219,78573,1,2,3:2:0:0:
60,219,78730,2,0,L|53:330,1,94.9999999999999,2|10,3:2|0:0,0:0:0:0:
131,368,79355,1,2,3:2:0:0:
208,313,79667,2,0,L|265:312,1,47.5,10|2,0:0|3:2,0:0:0:0:
297,335,79980,2,0,L|414:337,1,94.9999999999999,2|10,3:2|0:0,0:0:0:0:
459,270,80605,6,0,B|474:225|474:225|455:172,1,94.9999999999999,2|10,3:2|0:0,0:0:0:0:
421,160,81073,1,2,3:2:0:0:
421,160,81230,2,0,L|294:154,1,94.9999999999999,2|10,3:2|0:0,0:0:0:0:
240,198,81855,1,2,3:2:0:0:
155,154,82167,2,0,L|73:147,1,47.5,8|2,0:0|3:2,0:0:0:0:
64,170,82480,2,0,P|45:233|84:285,1,94.9999999999999,2|10,3:2|0:0,0:0:0:0:
91,295,82948,1,8,0:0:0:0:
91,295,83105,6,0,B|175:305|175:305|172:299|172:299|294:316,1,190,6|6,3:2|3:2,0:0:0:0:
454,355,84355,2,0,B|478:306|451:267|450:262|411:246|462:147,1,190,6|6,3:2|3:2,0:0:0:0:
361,68,85448,1,0,3:2:0:0:
361,68,85605,6,0,B|311:59|311:59|258:96,2,94.9999999999999,10|10|10,0:0|0:0|0:0,0:0:0:0:
454,83,86542,1,14,0:0:0:0:
