osu file format v14

[General]
AudioFilename: audio.mp3
AudioLeadIn: 0
PreviewTime: 56386
Countdown: 0
SampleSet: Soft
StackLeniency: 0.7
Mode: 0
LetterboxInBreaks: 0
WidescreenStoryboard: 1

[Editor]
DistanceSpacing: 1
BeatDivisor: 2
GridSize: 8
TimelineZoom: 1.6

[Metadata]
Title:Red Criminal (TV Size)
TitleUnicode:Red Criminal (TV Size)
Artist:THE ORAL CIGARETTES
ArtistUnicode:THE ORAL CIGARETTES
Creator:Nevo
Version:Sotarks' Expert
Source:SCARLET NEXUS
Tags:anime japanese rock opening sotarks armin a_r_m_i_n nymphe kujinn reform aranel sytho jrock j-rock Kiyoshi Guarden op
BeatmapID:3081481
BeatmapSetID:1502178

[Difficulty]
HPDrainRate:5.6
CircleSize:4
OverallDifficulty:8.7
ApproachRate:9.2
SliderMultiplier:1.7
SliderTickRate:1

[Events]
//Background and Video events
Video,0,"redcrim.mp4"
0,0,"0dc90f89-1b2f-4f8b-8106-2a1b7111365e-min.png",0,0
//Break Periods
//Storyboard Layer 0 (Background)
//Storyboard Layer 1 (Fail)
//Storyboard Layer 2 (Pass)
//Storyboard Layer 3 (Foreground)
//Storyboard Layer 4 (Overlay)
//Storyboard Sound Samples

[TimingPoints]
605,312.5,4,2,22,72,1,0
605,-108.695652173913,4,2,22,72,0,0
1151,-108.695652173913,4,2,22,5,0,0
1230,-75.7575757575758,4,2,22,72,0,0
1776,-108.695652173913,4,2,22,5,0,0
1855,-108.695652173913,4,2,22,72,0,0
2401,-108.695652173913,4,2,22,5,0,0
2480,-89.2857142857143,4,2,22,72,0,0
3105,-89.2857142857143,4,2,22,62,0,0
4120,-89.2857142857143,4,2,22,42,0,0
5605,-98.0392156862745,4,2,22,72,0,0
15605,-121.951219512195,4,2,22,62,0,0
16855,-121.951219512195,4,2,22,42,0,0
17011,-161.290322580645,4,2,22,42,0,0
17636,-161.290322580645,4,2,22,62,0,0
18105,-161.290322580645,4,2,22,72,0,0
18730,-161.290322580645,4,2,22,62,0,0
20605,-161.290322580645,4,2,22,72,0,0
21230,-161.290322580645,4,2,22,62,0,0
22636,-138.888888888889,4,2,22,62,0,0
23105,-98.0392156862746,4,2,22,62,0,0
28105,-161.290322580645,4,2,22,72,0,0
28730,-161.290322580645,4,2,22,62,0,0
30605,-161.290322580645,4,2,22,72,0,0
31230,-161.290322580645,4,2,22,62,0,0
31855,-98.0392156862745,4,2,22,62,0,0
33105,-98.0392156862745,4,2,22,62,0,0
38105,-121.951219512195,4,2,22,52,0,0
53105,-98.0392156862744,4,2,22,72,0,0
58105,-81.9672131147541,4,2,22,82,0,0
58417,-89.2857142857143,4,2,22,82,0,0
78105,-98.0392156862745,4,2,22,72,0,0
83651,-98.0392156862745,4,2,22,5,0,0
83730,-98.0392156862745,4,2,22,72,0,0
84276,-98.0392156862745,4,2,22,5,0,0
84355,-98.0392156862745,4,2,22,72,0,0
84901,-98.0392156862745,4,2,22,5,0,0
84980,-98.0392156862745,4,2,22,72,0,0

[Colours]
Combo1 : 128,128,255
Combo2 : 255,98,98
Combo3 : 111,165,255
Combo4 : 192,192,192

[HitObjects]
129,152,605,6,0,B|222:56|136:25|88:101|211:241,1,273.699990812073,6|0,1:2|0:2,0:0:0:0:
281,259,1230,6,0,B|335:212|316:101|316:101|340:243|273:336,1,392.699998801575,6|0,1:2|0:2,0:0:0:0:
130,344,1855,6,0,P|99:293|179:342,1,273.699990812073,6|0,1:2|0:2,0:0:0:0:
130,344,2480,6,0,P|146:227|171:48,1,285.600003486328,6|4,1:2|0:2,0:0:0:0:
155,37,3026,1,4,0:3:0:0:
155,37,3105,5,10,0:0:0:0:
346,313,3417,1,10,0:0:0:0:
8,223,3730,1,10,0:0:0:0:
327,44,4042,1,10,0:0:0:0:
256,192,4120,12,0,5448,0:0:0:0:
180,269,5605,6,0,P|129:280|58:295,1,86.7000005291748,6|0,1:2|1:2,0:0:0:0:
95,287,5917,1,8,0:2:0:0:
325,161,6073,2,0,P|389:147|483:128,1,130.050000793762,6|0,1:3|0:2,0:0:0:0:
478,125,6386,1,8,1:3:0:0:
248,56,6542,1,10,0:2:0:0:
389,268,6698,6,0,P|412:213|396:171,1,86.7000005291748,0|0,1:2|1:2,0:0:0:0:
185,108,7011,1,4,1:3:0:0:
185,108,7089,1,4,1:3:0:0:
185,108,7167,2,0,P|227:98|269:89,1,86.7000005291748,10|0,0:2|0:2,0:0:0:0:
100,217,7480,2,0,P|70:184|41:152,1,86.7000005291748,0|0,1:2|1:2,0:0:0:0:
232,245,7792,2,0,P|218:286|205:327,1,86.7000005291748,8|0,0:2|1:2,0:0:0:0:
195,364,8026,1,0,1:2:0:0:
195,364,8105,5,2,1:2:0:0:
343,252,8261,1,0,1:2:0:0:
144,274,8417,1,8,0:2:0:0:
292,162,8573,2,0,P|305:84|258:37,1,130.050000793762,6|0,1:3|0:2,0:0:0:0:
251,31,8886,1,8,1:3:0:0:
159,240,9042,1,10,0:2:0:0:
108,83,9198,6,0,P|171:95|196:142,1,86.7000005291748,0|0,1:2|0:2,0:0:0:0:
220,339,9511,1,4,1:3:0:0:
223,317,9589,1,4,1:3:0:0:
226,296,9667,1,10,0:2:0:0:
129,346,9823,1,0,1:2:0:0:
307,301,9980,1,0,1:2:0:0:
129,346,10136,1,0,1:2:0:0:
276,220,10292,2,0,L|287:169,1,43.3500002645874,8|8,0:2|0:2,0:0:0:0:
122,166,10448,2,0,L|111:115,1,43.3500002645874,8|8,0:2|0:2,0:0:0:0:
193,0,10605,6,0,B|207:69|207:69|194:105|194:105|216:207,1,173.40000105835,6|8,1:2|0:2,0:0:0:0:
207,168,11073,1,0,1:2:0:0:
409,51,11230,2,0,P|359:37|311:24,1,86.7000005291748,2|0,1:2|0:2,0:0:0:0:
325,27,11542,1,10,0:2:0:0:
365,194,11698,6,0,P|382:251|368:290,1,86.7000005291748,0|0,1:2|0:2,0:0:0:0:
230,384,12011,1,4,1:3:0:0:
233,362,12089,1,4,1:3:0:0:
236,341,12167,1,10,0:2:0:0:
171,231,12323,1,4,0:3:0:0:
288,159,12480,1,0,1:2:0:0:
199,68,12636,1,8,0:3:0:0:
238,0,12792,2,0,P|245:71|252:150,1,130.050000793762,8|0,0:2|0:2,0:0:0:0:
324,52,13105,6,0,P|372:21|420:28,1,86.7000005291748,2|0,1:2|0:2,0:0:0:0:
339,239,13417,2,0,L|271:259,1,43.3500002645874,8|0,0:2|1:2,0:0:0:0:
179,226,13573,2,0,B|65:210|65:210|75:168|125:167,1,173.40000105835,6|8,1:3|0:3,0:0:0:0:
129,169,13964,1,0,1:2:0:0:
129,169,14042,1,10,0:2:0:0:
55,330,14198,1,0,1:2:0:0:
206,60,14355,5,4,1:3:0:0:
215,86,14433,2,0,P|261:121|311:108,1,86.7000005291748,8|0,0:0|1:0,0:0:0:0:
359,77,14667,1,8,0:2:0:0:
129,169,14823,1,0,1:2:0:0:
329,265,14980,1,8,0:3:0:0:
258,149,15136,1,4,0:3:0:0:
258,149,15214,1,4,0:3:0:0:
258,149,15292,2,0,L|250:203,1,43.3500002645874,4|4,0:3|0:3,0:0:0:0:
238,267,15448,2,0,L|230:321,1,43.3500002645874,4|4,0:3|0:3,0:0:0:0:
215,378,15605,6,0,B|229:328|234:262|165:247|126:166|138:73|200:15|268:30|299:96|243:208|145:260,1,557.600008508301,8|0,0:2|0:2,0:0:0:0:
49,311,17011,6,0,L|41:281,3,26.3499989546204,0|0|0|0,3:2|3:2|3:2|3:2,0:0:0:0:
127,348,17323,1,2,0:2:0:0:
6,173,17636,5,0,1:2:0:0:
10,147,17714,1,0,1:2:0:0:
15,121,17792,1,12,0:2:0:0:
358,32,18105,5,8,1:2:0:0:
319,231,18261,1,8,1:2:0:0:
123,292,18417,1,8,1:2:0:0:
319,231,18730,5,8,0:2:0:0:
123,292,19042,1,8,0:2:0:0:
322,237,19355,1,8,0:2:0:0:
126,298,19667,1,8,0:2:0:0:
321,237,19980,1,8,0:2:0:0:
125,298,20292,1,8,0:2:0:0:
409,116,20605,5,8,1:2:0:0:
206,235,20761,1,8,1:2:0:0:
28,124,20917,1,8,1:2:0:0:
206,235,21230,5,8,0:2:0:0:
28,124,21542,1,8,0:2:0:0:
204,229,21855,1,8,0:2:0:0:
26,118,22167,1,8,0:2:0:0:
203,223,22480,1,8,0:2:0:0:
158,64,22636,6,0,L|149:100,1,30.6000007470703,0|0,1:2|1:2,0:0:0:0:
32,214,22792,2,0,L|67:203,1,30.6000007470703,8|8,0:2|0:2,0:0:0:0:
224,244,22948,2,0,L|197:218,1,30.6000007470703,8|8,0:2|0:2,0:0:0:0:
82,331,23105,6,0,P|161:322|216:379,1,130.050000793762,6|0,1:2|0:2,0:0:0:0:
217,375,23417,1,8,0:2:0:0:
476,276,23573,2,0,B|407:288|407:288|382:308|382:308|301:320,1,173.40000105835,10|0,1:3|1:2,0:0:0:0:
235,277,23964,1,0,1:2:0:0:
235,277,24042,2,0,P|221:227|247:189,1,86.7000005291748,10|0,0:2|0:2,0:0:0:0:
379,57,24355,6,0,B|392:97|392:97|305:120|267:56,1,173.40000105835,2|8,1:2|0:2,0:0:0:0:
75,11,24823,2,0,P|121:65|125:181,1,173.40000105835,10|0,0:3|1:2,0:0:0:0:
33,312,25292,1,10,0:2:0:0:
33,312,25605,6,0,P|95:321|188:332,1,130.050000793762,2|0,1:2|0:2,0:0:0:0:
191,311,25917,1,8,0:2:0:0:
462,314,26073,2,0,B|411:290|373:312|373:312|348:365|289:372,1,173.40000105835,10|0,0:3|1:2,0:0:0:0:
289,281,26464,1,0,1:2:0:0:
289,281,26542,2,0,P|293:232|297:182,1,86.7000005291748,10|0,0:2|0:2,0:0:0:0:
381,26,26855,6,0,P|330:75|266:62,1,130.050000793762,6|2,1:2|0:2,0:0:0:0:
249,45,27167,1,0,1:2:0:0:
122,7,27323,1,10,0:2:0:0:
17,81,27480,1,8,0:3:0:0:
20,98,27558,1,8,0:3:0:0:
23,115,27636,1,4,0:3:0:0:
26,132,27714,1,4,0:3:0:0:
30,149,27792,1,4,0:3:0:0:
42,172,28105,5,8,1:2:0:0:
247,84,28261,1,8,1:2:0:0:
373,258,28417,1,8,1:2:0:0:
369,265,28730,5,8,0:2:0:0:
376,278,29042,1,8,0:2:0:0:
368,292,29355,1,8,0:2:0:0:
382,310,29667,1,8,0:2:0:0:
363,337,29980,1,8,0:2:0:0:
385,373,30292,1,8,0:2:0:0:
144,297,30605,5,8,1:2:0:0:
347,162,30761,1,8,1:2:0:0:
206,2,30917,1,8,1:2:0:0:
203,14,31230,5,8,0:2:0:0:
209,24,31542,1,8,0:2:0:0:
119,155,31855,5,8,0:2:0:0:
119,155,31933,2,0,B|225:173,1,86.7000005291748,8|8,0:3|0:3,0:0:0:0:
291,147,32167,6,0,L|281:215,1,43.3500002645874,0|0,1:2|1:2,0:0:0:0:
366,153,32323,2,0,L|357:219,1,43.3500002645874,0|0,1:2|1:2,0:0:0:0:
309,324,32480,5,8,0:2:0:0:
341,33,32636,1,8,0:2:0:0:
304,339,32792,1,8,0:2:0:0:
290,350,32870,1,8,0:2:0:0:
275,358,32948,1,8,0:2:0:0:
258,362,33026,1,8,0:2:0:0:
241,361,33105,6,0,P|189:316|109:326,1,130.050000793762,6|0,1:2|0:2,0:0:0:0:
107,338,33417,1,8,0:2:0:0:
134,185,33573,2,0,P|149:90|161:-1,1,173.40000105835,10|0,1:3|1:2,0:0:0:0:
195,83,33964,1,0,1:2:0:0:
195,83,34042,2,0,P|240:112|286:104,1,86.7000005291748,10|0,0:2|0:2,0:0:0:0:
476,112,34355,6,0,B|431:100|387:122|387:122|374:179|309:203,1,173.40000105835,2|8,1:2|0:2,0:0:0:0:
89,254,34823,2,0,B|201:257|120:316|271:317,1,173.40000105835,10|0,0:3|1:2,0:0:0:0:
75,347,35292,1,10,0:2:0:0:
75,347,35605,6,0,P|67:298|60:249,1,86.7000005291748,2|0,1:2|0:0,0:0:0:0:
13,197,35839,2,0,L|22:142,1,43.3500002645874,2|8,0:2|0:2,0:0:0:0:
100,21,36073,2,0,P|98:108|184:115,1,173.40000105835,10|0,0:3|1:2,0:0:0:0:
222,59,36464,1,0,1:2:0:0:
222,59,36542,2,0,P|265:65|319:72,1,86.7000005291748,10|0,0:2|0:2,0:0:0:0:
472,88,36855,6,0,P|436:136|451:182,1,86.7000005291748,6|0,1:2|0:0,0:0:0:0:
471,232,37089,2,0,P|494:277|494:288,1,43.3500002645874,2|0,0:2|1:2,0:0:0:0:
406,375,37323,1,10,0:2:0:0:
292,232,37480,6,0,L|354:255,1,57.8000003527832,8|8,2:2|2:3,0:0:0:0:
307,321,37688,1,8,2:3:0:0:
307,321,37792,2,0,L|252:300,1,57.8000003527832,4|4,2:3|2:3,0:0:0:0:
183,273,38000,1,4,2:3:0:0:
183,273,38105,5,6,1:2:0:0:
138,157,38261,2,0,P|127:195|117:231,1,69.7000010635376,0|0,1:2|0:2,0:0:0:0:
43,19,38573,2,0,P|94:42|167:72,1,104.550001595306,10|0,0:2|0:2,0:0:0:0:
163,74,38886,1,8,0:2:0:0:
347,22,39042,1,6,1:2:0:0:
245,0,39198,2,0,P|256:38|266:74,1,69.7000010635376,0|0,1:2|0:2,0:0:0:0:
379,202,39511,2,0,P|331:223|283:243,1,104.550001595306,8|0,0:2|0:2,0:0:0:0:
251,258,39823,1,8,0:2:0:0:
395,314,39980,1,0,1:2:0:0:
395,314,40136,1,0,1:2:0:0:
289,142,40292,1,8,0:2:0:0:
465,200,40448,1,8,0:2:0:0:
255,355,40605,5,4,1:2:0:0:
173,292,40761,2,0,P|163:325|153:359,1,69.7000010635376,0|0,1:2|0:2,0:0:0:0:
24,192,41073,2,0,P|72:171|119:150,1,104.550001595306,8|0,0:2|0:2,0:0:0:0:
145,136,41386,1,8,0:2:0:0:
326,211,41542,1,4,1:2:0:0:
231,106,41698,2,0,P|221:139|211:173,1,69.7000010635376,0|0,1:2|0:2,0:0:0:0:
435,73,42011,2,0,P|386:52|339:31,1,104.550001595306,8|0,0:2|0:2,0:0:0:0:
309,18,42323,1,8,0:2:0:0:
326,210,42480,1,8,0:3:0:0:
409,175,42636,1,8,0:3:0:0:
376,88,42792,1,4,0:3:0:0:
293,123,42948,1,4,0:3:0:0:
202,333,43105,5,6,1:2:0:0:
109,209,43261,2,0,P|141:221|174:234,1,69.7000010635376,0|0,1:2|0:2,0:0:0:0:
0,297,43573,2,0,P|19:233|39:172,1,104.550001595306,10|0,0:2|0:2,0:0:0:0:
41,167,43886,1,8,0:2:0:0:
191,67,44042,1,6,1:2:0:0:
38,73,44198,2,0,P|70:85|103:98,1,69.7000010635376,0|0,1:2|0:2,0:0:0:0:
351,181,44511,2,0,P|336:130|320:81,1,104.550001595306,8|0,0:2|0:2,0:0:0:0:
308,51,44823,1,8,0:2:0:0:
246,205,44980,1,6,1:2:0:0:
246,205,45136,1,0,1:2:0:0:
404,267,45292,1,8,0:2:0:0:
215,352,45448,1,8,0:2:0:0:
306,290,45605,5,6,1:2:0:0:
170,186,45761,2,0,P|137:198|104:211,1,69.7000010635376,2|0,1:2|0:2,0:0:0:0:
303,156,46073,2,0,P|317:105|333:56,1,104.550001595306,8|0,0:2|0:2,0:0:0:0:
346,26,46385,1,8,0:2:0:0:
442,207,46542,1,4,1:2:0:0:
463,94,46698,2,0,P|430:106|397:119,1,69.7000010635376,0|0,1:2|0:2,0:0:0:0:
306,270,47011,2,0,P|291:219|275:170,1,104.550001595306,8|0,0:2|0:2,0:0:0:0:
263,140,47323,1,8,0:2:0:0:
219,293,47480,1,8,0:3:0:0:
203,306,47558,1,8,0:3:0:0:
183,312,47636,1,8,0:3:0:0:
162,310,47714,1,8,0:3:0:0:
144,300,47792,1,4,0:3:0:0:
125,288,47870,1,4,0:3:0:0:
105,286,47948,1,4,0:3:0:0:
85,292,48026,1,4,0:3:0:0:
69,305,48104,5,6,1:2:0:0:
151,147,48261,2,0,P|161:180|171:214,1,69.7000010635376,0|0,1:2|0:2,0:0:0:0:
24,138,48573,2,0,P|39:87|55:38,1,104.550001595306,10|0,0:2|0:2,0:0:0:0:
64,4,48886,1,8,0:2:0:0:
237,95,49042,1,6,1:2:0:0:
134,116,49198,2,0,P|143:82|153:49,1,69.7000010635376,0|0,1:2|0:2,0:0:0:0:
279,194,49511,2,0,P|295:243|309:293,1,104.550001595306,8|0,0:2|0:2,0:0:0:0:
322,326,49823,1,8,0:2:0:0:
405,168,49980,1,0,1:2:0:0:
201,292,50136,1,8,0:2:0:0:
204,274,50214,1,8,0:2:0:0:
207,257,50292,1,0,1:2:0:0:
84,101,50448,1,8,0:2:0:0:
87,118,50526,1,8,0:2:0:0:
90,136,50604,5,4,1:2:0:0:
203,22,50761,2,0,P|251:34|334:52,1,104.550001595306,8|0,0:2|0:2,0:0:0:0:
330,57,51073,1,8,0:2:0:0:
206,187,51230,2,0,L|237:172,1,34.8500005317688,8|8,0:3|0:3,0:0:0:0:
352,163,51386,2,0,L|320:177,1,34.8500005317688,4|4,0:3|0:3,0:0:0:0:
114,269,51542,1,8,0:2:0:0:
442,331,51855,5,12,0:2:0:0:
403,83,52011,1,0,1:2:0:0:
403,83,52167,1,0,1:2:0:0:
329,349,52323,1,12,0:2:0:0:
290,101,52479,1,0,1:2:0:0:
290,101,52635,1,0,1:2:0:0:
222,371,52792,1,8,0:2:0:0:
217,336,52870,1,8,0:2:0:0:
213,301,52948,1,8,0:2:0:0:
209,267,53026,1,8,0:2:0:0:
205,232,53105,6,0,P|271:238|303:270,1,86.7000005291748,6|0,1:2|0:2,0:0:0:0:
86,327,53417,1,8,0:2:0:0:
205,146,53573,2,0,P|193:95|178:33,1,86.7000005291748,10|0,0:3|0:2,0:0:0:0:
95,236,53886,1,2,1:2:0:0:
95,236,53964,1,0,1:2:0:0:
95,236,54042,1,8,0:2:0:0:
276,93,54198,6,0,P|330:124|424:110,1,130.050000793762,6|0,0:3|0:2,0:0:0:0:
421,107,54511,1,2,1:2:0:0:
266,202,54667,1,8,0:2:0:0:
443,305,54823,2,0,P|431:254|416:192,1,86.7000005291748,2|0,1:2|0:2,0:0:0:0:
299,355,55136,1,0,1:2:0:0:
299,355,55214,1,0,1:2:0:0:
299,355,55292,2,0,P|233:349|201:317,1,86.7000005291748,8|0,0:2|1:2,0:0:0:0:
159,291,55526,1,0,1:2:0:0:
162,274,55605,5,10,0:2:0:0:
424,179,55761,1,10,0:2:0:0:
294,167,55917,2,0,L|283:218,1,43.3500002645874,0|0,1:2|1:2,0:0:0:0:
388,97,56073,5,10,0:2:0:0:
119,46,56230,1,10,0:2:0:0:
223,0,56386,2,0,L|234:51,1,43.3500002645874,0|0,1:2|1:2,0:0:0:0:
89,136,56542,5,10,0:2:0:0:
358,23,56698,1,10,0:2:0:0:
212,251,56855,1,8,0:3:0:0:
208,229,56933,1,8,0:3:0:0:
205,208,57011,1,8,0:3:0:0:
202,186,57089,1,8,0:3:0:0:
198,165,57167,2,0,L|270:176,1,43.3500002645874,4|4,0:3|0:3,0:0:0:0:
382,230,57323,2,0,L|368:176,1,43.3500002645874,4|4,0:3|0:3,0:0:0:0:
335,66,57480,5,8,0:2:0:0:
285,320,57636,2,0,B|273:290|233:206|256:180|288:140|303:213|242:240,1,216.750001322937,10|0,0:2|0:2,0:0:0:0:
65,297,58105,6,0,B|116:272|156:278|156:278|175:323|239:340,1,155.549993591538,6|0,1:2|0:2,0:0:0:0:
149,248,58417,2,0,P|126:190|152:143,1,95.2000011621094,10|0,0:2|0:2,0:0:0:0:
156,134,58652,1,0,1:2:0:0:
156,134,58730,1,2,1:2:0:0:
112,362,58886,1,8,0:3:0:0:
224,197,59042,2,0,P|286:243|366:224,1,142.800001743164,10|0,0:2|0:2,0:0:0:0:
366,219,59355,5,2,1:2:0:0:
271,40,59511,2,0,P|280:91|291:143,1,95.2000011621094,2|8,1:2|0:2,0:0:0:0:
124,219,59823,1,2,1:2:0:0:
127,200,59901,1,8,0:3:0:0:
131,181,59979,1,0,1:2:0:0:
21,74,60136,1,6,0:3:0:0:
236,288,60292,2,0,B|270:257|309:263|309:263|260:247|245:255,1,142.800001743164,8|0,0:2|0:2,0:0:0:0:
162,288,60605,6,0,B|110:295|84:340|84:340|64:295|38:283,1,142.800001743164,2|0,1:2|0:2,0:0:0:0:
11,228,60917,2,0,P|6:173|38:141,1,95.2000011621094,10|0,0:2|1:2,0:0:0:0:
55,125,61151,1,0,1:2:0:0:
55,125,61230,1,2,1:2:0:0:
258,175,61386,1,8,0:3:0:0:
136,2,61542,2,0,P|147:74|159:149,1,142.800001743164,10|0,0:2|0:2,0:0:0:0:
142,181,61855,5,2,1:2:0:0:
254,28,62011,2,0,P|303:37|361:47,1,95.2000011621094,2|8,1:2|0:2,0:0:0:0:
427,181,62323,1,2,1:2:0:0:
407,184,62401,1,10,0:3:0:0:
388,187,62480,1,0,1:2:0:0:
498,70,62636,1,6,0:3:0:0:
277,170,62792,1,8,0:2:0:0:
447,316,62948,1,8,0:2:0:0:
447,316,63026,1,8,0:2:0:0:
447,316,63105,6,0,P|457:265|466:214,1,95.2000011621094,6|0,1:2|0:2,0:0:0:0:
464,222,63417,1,8,0:2:0:0:
256,384,63573,2,0,P|246:333|237:282,1,95.2000011621094,10|0,0:3|0:2,0:0:0:0:
238,290,63886,1,4,0:3:0:0:
33,351,64042,2,0,P|43:300|52:249,1,95.2000011621094,10|0,0:2|1:2,0:0:0:0:
26,178,64276,1,0,1:2:0:0:
26,178,64355,6,0,P|16:127|7:76,1,95.2000011621094,2|0,1:2|0:2,0:0:0:0:
8,84,64667,1,8,0:2:0:0:
242,248,64823,2,0,P|252:197|261:146,1,95.2000011621094,10|0,0:3|0:2,0:0:0:0:
259,154,65136,1,4,0:3:0:0:
470,210,65292,1,10,0:2:0:0:
406,45,65448,1,0,1:2:0:0:
184,323,65605,5,14,0:2:0:0:
238,62,65761,1,8,0:3:0:0:
396,278,65917,1,8,0:3:0:0:
112,168,66073,5,14,0:2:0:0:
342,23,66230,1,4,0:3:0:0:
298,295,66386,1,4,0:3:0:0:
140,41,66542,5,14,0:2:0:0:
390,105,66698,1,0,1:2:0:0:
390,105,66776,1,0,1:2:0:0:
390,105,66855,5,14,0:2:0:0:
198,140,67011,1,8,1:2:0:0:
231,325,67167,1,10,0:2:0:0:
423,290,67323,1,10,0:2:0:0:
335,209,67480,1,8,0:2:0:0:
303,198,67558,1,8,0:3:0:0:
270,201,67636,1,10,0:3:0:0:
241,216,67714,1,8,0:3:0:0:
220,241,67792,1,4,0:3:0:0:
199,266,67870,1,4,0:3:0:0:
170,281,67948,1,4,0:3:0:0:
137,284,68026,1,4,0:3:0:0:
105,273,68105,6,0,B|93:219|93:219|98:207|98:207|77:109,1,142.800001743164,6|0,1:2|0:2,0:0:0:0:
25,29,68417,2,0,P|76:40|136:52,1,95.2000011621094,10|0,0:2|0:2,0:0:0:0:
146,56,68651,1,0,1:2:0:0:
146,56,68730,1,2,1:2:0:0:
325,7,68886,1,8,0:3:0:0:
215,282,69042,2,0,P|216:211|172:157,1,142.800001743164,10|0,0:2|0:2,0:0:0:0:
146,139,69355,5,2,1:2:0:0:
333,214,69511,1,2,1:2:0:0:
144,342,69667,1,8,0:2:0:0:
232,162,69823,1,2,1:2:0:0:
236,180,69901,1,8,0:3:0:0:
240,199,69979,1,0,1:2:0:0:
87,93,70136,1,6,0:3:0:0:
353,159,70292,2,0,B|319:143|284:145|284:145|268:188|223:207,1,142.800001743164,8|0,0:2|0:2,0:0:0:0:
196,192,70605,5,2,1:2:0:0:
407,101,70761,1,0,0:0:0:0:
251,268,70917,2,0,P|188:228|105:248,1,142.800001743164,10|0,0:2|1:2,0:0:0:0:
91,258,71230,1,2,1:2:0:0:
214,86,71386,1,8,0:3:0:0:
63,13,71542,2,0,P|76:65|90:119,1,95.2000011621094,8|0,0:2|0:0,0:0:0:0:
74,139,71776,1,0,0:2:0:0:
74,139,71855,5,2,1:2:0:0:
275,57,72011,2,0,P|220:45|160:31,1,95.2000011621094,2|8,1:2|0:2,0:0:0:0:
295,224,72323,1,2,1:2:0:0:
299,205,72401,1,8,0:3:0:0:
303,187,72479,1,0,1:2:0:0:
167,241,72636,1,6,0:3:0:0:
402,157,72792,1,8,0:2:0:0:
288,368,72948,1,8,0:2:0:0:
288,368,73026,1,8,0:2:0:0:
288,368,73105,6,0,P|233:356|173:342,1,95.2000011621094,6|0,1:2|0:2,0:0:0:0:
195,347,73417,1,8,0:2:0:0:
379,174,73573,2,0,P|324:186|264:200,1,95.2000011621094,10|0,0:3|0:2,0:0:0:0:
286,194,73885,1,4,0:3:0:0:
436,23,74042,2,0,P|381:11|321:-3,1,95.2000011621094,10|0,0:2|1:2,0:0:0:0:
263,41,74276,1,0,1:2:0:0:
263,41,74355,6,0,P|216:51|170:61,1,95.2000011621094,2|0,1:2|0:2,0:0:0:0:
170,61,74667,1,8,0:2:0:0:
346,234,74823,2,0,P|299:223|253:213,1,95.2000011621094,10|0,0:3|0:2,0:0:0:0:
253,213,75136,1,4,0:3:0:0:
352,363,75292,2,0,P|305:373|259:383,1,95.2000011621094,10|0,0:2|1:2,0:0:0:0:
181,352,75526,1,0,1:0:0:0:
166,361,75605,5,14,0:2:0:0:
423,278,75761,1,0,1:2:0:0:
423,278,75839,1,0,1:2:0:0:
423,278,75917,1,8,0:2:0:0:
135,227,76073,1,2,1:2:0:0:
135,227,76151,1,0,1:2:0:0:
135,227,76230,2,0,L|187:215,1,47.6000005810547,8|8,0:3|0:3,0:0:0:0:
421,148,76386,2,0,L|369:136,1,47.6000005810547,4|4,0:3|0:3,0:0:0:0:
122,83,76542,1,10,0:2:0:0:
400,4,76698,1,8,0:2:0:0:
262,274,76855,5,6,1:2:0:0:
262,274,76933,2,0,P|251:220|239:157,1,95.2000011621094,8|0,0:2|1:2,0:0:0:0:
270,109,77167,1,8,0:2:0:0:
156,322,77323,1,2,0:2:0:0:
34,150,77480,1,8,0:3:0:0:
66,139,77558,1,8,0:3:0:0:
99,142,77636,1,8,0:3:0:0:
128,157,77714,1,8,0:3:0:0:
149,182,77792,1,4,0:3:0:0:
170,207,77870,1,4,0:3:0:0:
199,222,77948,1,4,0:3:0:0:
232,225,78026,1,4,0:3:0:0:
264,214,78105,6,0,P|270:165|276:113,1,86.7000005291748,6|0,1:2|1:2,0:0:0:0:
274,127,78417,1,8,0:2:0:0:
451,15,78573,2,0,P|444:90|437:165,1,130.050000793762,6|0,1:3|0:2,0:0:0:0:
438,144,78886,1,8,1:3:0:0:
316,345,79042,1,10,0:2:0:0:
472,234,79198,6,0,P|413:237|378:275,1,86.7000005291748,0|0,1:2|0:2,0:0:0:0:
195,346,79511,1,4,1:3:0:0:
195,346,79589,1,4,1:3:0:0:
195,346,79667,2,0,P|200:302|205:259,1,86.7000005291748,10|0,0:2|0:2,0:0:0:0:
248,110,79980,2,0,P|208:126|168:144,1,86.7000005291748,0|0,1:2|1:2,0:0:0:0:
22,177,80292,2,0,P|56:203|91:228,1,86.7000005291748,8|0,0:2|1:2,0:0:0:0:
115,253,80526,1,0,1:2:0:0:
115,253,80604,5,2,1:2:0:0:
72,68,80761,1,0,1:2:0:0:
0,295,80917,1,8,0:2:0:0:
171,104,81073,2,0,B|246:92|213:146|310:131,1,130.050000793762,6|0,1:3|0:2,0:0:0:0:
329,120,81386,1,8,1:3:0:0:
176,189,81542,1,10,0:2:0:0:
321,16,81698,6,0,P|378:28|401:74,1,86.7000005291748,0|0,1:2|0:2,0:0:0:0:
386,262,82011,1,4,1:3:0:0:
383,244,82089,1,4,1:3:0:0:
381,227,82167,1,10,0:2:0:0:
319,330,82323,1,0,1:2:0:0:
427,140,82480,1,0,1:2:0:0:
319,330,82636,1,0,1:2:0:0:
253,128,82792,2,0,P|226:137|196:147,1,43.3500002645874,8|8,0:2|0:2,0:0:0:0:
146,221,82948,2,0,P|131:216|104:207,1,43.3500002645874,8|8,0:2|0:2,0:0:0:0:
32,159,83105,6,0,P|181:178|358:199,1,303.450001852112,6|0,1:2|0:0,0:0:0:0:
419,113,83730,6,0,P|268:134|118:155,1,303.450001852112,6|0,1:2|0:2,0:0:0:0:
6,187,84355,6,0,P|155:206|332:227,1,303.450001852112,6|0,1:2|0:2,0:0:0:0:
393,141,84980,6,0,P|242:162|119:179,1,260.100001587524,6|0,1:2|1:2,0:0:0:0:
104,158,85526,1,0,1:2:0:0:
104,158,85605,5,14,0:2:0:0:
459,275,85917,1,14,0:2:0:0:
8,183,86230,1,14,0:2:0:0:
511,339,86542,1,14,0:2:0:0:
