osu file format v14

[General]
AudioFilename: audio.mp3
AudioLeadIn: 0
PreviewTime:56386
Countdown: 0
SampleSet: Soft
StackLeniency: 0.7
Mode: 0
LetterboxInBreaks: 0
WidescreenStoryboard: 1

[Editor]
Bookmarks:15605,28105,38105,48105,58105,68105,78105
DistanceSpacing: 0.4
BeatDivisor: 4
GridSize: 32
TimelineZoom: 3.299999

[Metadata]
Title:Red Criminal (TV Size)
TitleUnicode:Red Criminal (TV Size)
Artist:THE ORAL CIGARETTES
ArtistUnicode:THE ORAL CIGARETTES
Creator:Nevo
Version:Nymphjinn's Insane
Source:SCARLET NEXUS
Tags:anime japanese rock opening sotarks armin a_r_m_i_n nymphe kujinn reform aranel sytho jrock j-rock Kiyoshi Guarden op
BeatmapID:3086572
BeatmapSetID:1502178

[Difficulty]
HPDrainRate:5.5
CircleSize:4
OverallDifficulty:8
ApproachRate:9
SliderMultiplier:1.64
SliderTickRate:1

[Events]
//Background and Video events
0,0,"0dc90f89-1b2f-4f8b-8106-2a1b7111365e-min.png",0,0
Video,0,"redcrim.mp4"
//Break Periods
2,15805,17036
//Storyboard Layer 0 (Background)
//Storyboard Layer 1 (Fail)
//Storyboard Layer 2 (Pass)
//Storyboard Layer 3 (Foreground)
//Storyboard Layer 4 (Overlay)
//Storyboard Sound Samples

[TimingPoints]
605,312.5,4,2,1,80,1,0
605,-153.846153846153,4,2,1,80,0,0
3105,-117.647058823529,4,2,1,80,0,0
5605,-95.238095238095,4,2,1,80,0,0
17636,-95.238095238095,4,2,1,70,0,0
17792,-117.647058823529,4,2,1,70,0,0
18026,-117.647058823529,4,2,1,80,0,0
18105,-133.333333333333,4,2,1,70,0,0
18886,-133.333333333333,4,2,1,80,0,0
19042,-133.333333333333,4,2,1,70,0,0
21386,-133.333333333333,4,2,1,80,0,0
21542,-133.333333333333,4,2,1,70,0,0
23105,-117.647058823529,4,2,1,70,0,0
24198,-117.647058823529,4,2,1,80,0,0
24355,-117.647058823529,4,2,1,70,0,0
25448,-117.647058823529,4,2,1,80,0,0
25605,-117.647058823529,4,2,1,70,0,0
26698,-117.647058823529,4,2,1,80,0,0
26855,-117.647058823529,4,2,1,70,0,0
27948,-117.647058823529,4,2,1,80,0,0
28105,-117.647058823529,4,2,1,70,0,0
28417,-133.333333333333,4,2,1,70,0,0
28886,-133.333333333333,4,2,1,80,0,0
29042,-133.333333333333,4,2,1,70,0,0
31386,-133.333333333333,4,2,1,80,0,0
31542,-133.333333333333,4,2,1,70,0,0
33105,-117.647058823529,4,2,1,70,0,0
34198,-117.647058823529,4,2,1,80,0,0
34355,-117.647058823529,4,2,1,70,0,0
35448,-117.647058823529,4,2,1,80,0,0
35605,-117.647058823529,4,2,1,70,0,0
36229,-117.647058823529,4,2,1,80,0,0
36386,-117.647058823529,4,2,1,70,0,0
36698,-117.647058823529,4,2,1,80,0,0
36855,-117.647058823529,4,2,1,70,0,0
37558,-117.647058823529,4,2,1,80,0,0
37792,-117.647058823529,4,2,1,70,0,0
37870,-117.647058823529,4,2,1,80,0,0
38105,-125,4,2,1,60,0,0
38417,-125,4,2,1,80,0,0
38573,-125,4,2,1,60,0,0
39354,-125,4,2,1,80,0,0
39511,-125,4,2,1,60,0,0
39667,-125,4,2,1,80,0,0
39823,-125,4,2,1,60,0,0
40917,-125,4,2,1,80,0,0
41073,-125,4,2,1,60,0,0
41229,-125,4,2,1,80,0,0
41386,-125,4,2,1,60,0,0
42167,-125,4,2,1,80,0,0
42323,-125,4,2,1,60,0,0
43417,-125,4,2,1,80,0,0
43573,-125,4,2,1,60,0,0
44667,-125,4,2,1,80,0,0
44823,-125,4,2,1,60,0,0
45917,-125,4,2,1,80,0,0
46073,-125,4,2,1,60,0,0
46229,-125,4,2,1,80,0,0
46386,-125,4,2,1,60,0,0
46854,-125,4,2,1,80,0,0
47011,-125,4,2,1,60,0,0
47167,-125,4,2,1,80,0,0
47323,-125,4,2,1,60,0,0
48105,-125,4,2,1,70,0,0
48417,-125,4,2,1,80,0,0
48573,-125,4,2,1,70,0,0
49667,-125,4,2,1,80,0,0
49823,-125,4,2,1,70,0,0
50917,-125,4,2,1,80,0,0
51073,-125,4,2,1,70,0,0
51698,-125,4,2,1,80,0,0
51855,-125,4,2,1,70,0,0
53105,-111.111111111111,4,2,1,70,0,0
58105,-95.2380952380952,4,2,1,80,0,0

[Colours]
Combo1 : 128,128,255
Combo2 : 255,98,98
Combo3 : 111,165,255
Combo4 : 192,192,192

[HitObjects]
155,173,605,6,0,B|135:135|89:136|89:136|139:114|184:124|204:150,1,186.549991460419,6|0,3:2|0:0,0:0:0:0:
167,251,1230,2,0,B|144:287|167:326|167:326|123:294|110:250|122:220,1,186.549991460419,6|0,3:2|0:0,0:0:0:0:
233,203,1855,2,0,B|275:204|298:164|298:164|292:218|260:252|228:256,1,186.549991460419,6|0,3:2|0:0,0:0:0:0:
179,274,2480,6,0,B|218:255|266:294|226:306|272:348|320:329,1,159.899992680359,6|0,3:2|3:2,0:0:0:0:
386,308,3026,1,0,3:2:0:0:
395,308,3105,6,0,L|412:223,1,69.700001329422,10|0,0:0|0:0,0:0:0:0:
306,95,3417,6,0,L|319:163,1,69.700001329422,10|0,0:0|0:0,0:0:0:0:
211,323,3730,6,0,L|228:238,1,69.700001329422,10|0,0:0|0:0,0:0:0:0:
107,63,4042,6,0,L|120:131,1,69.700001329422,10|0,0:0|0:0,0:0:0:0:
54,323,5605,6,0,P|100:332|157:369,1,86.0999973724366,6|2,3:2|3:2,0:0:0:0:
242,198,5917,1,10,0:0:0:0:
149,261,6073,1,2,3:2:0:0:
247,324,6230,2,0,P|306:337|359:270,1,129.149996058655,2|0,3:2|0:0,0:0:0:0:
393,264,6542,2,0,P|382:208|369:148,1,86.0999973724366,10|2,0:0|3:2,0:0:0:0:
452,18,6855,6,0,B|484:50|484:50|465:86,1,86.0999973724366,2|2,3:2|3:2,0:0:0:0:
299,129,7167,1,10,0:0:0:0:
344,34,7323,1,2,3:2:0:0:
437,207,7480,2,0,P|380:220|301:241,1,129.149996058655,2|0,3:2|0:0,0:0:0:0:
261,294,7792,2,0,P|218:308|169:318,1,86.0999973724366,10|0,0:0|3:2,0:0:0:0:
56,261,8105,6,0,P|36:218|57:165,1,86.0999973724366,2|2,3:2|3:2,0:0:0:0:
110,76,8417,1,10,0:0:0:0:
181,156,8573,1,2,3:2:0:0:
273,26,8730,2,0,P|282:90|297:184,1,129.149996058655,2|0,3:2|0:0,0:0:0:0:
257,220,9042,2,0,B|300:237|300:237|337:213,1,86.0999973724366,10|2,0:0|3:2,0:0:0:0:
463,37,9355,6,0,P|471:91|481:150,1,86.0999973724366,2|2,3:2|3:2,0:0:0:0:
403,194,9667,1,8,0:0:0:0:
493,262,9823,1,2,3:2:0:0:
384,361,9980,2,0,P|340:369|282:380,1,86.0999973724366,2|0,3:2|3:2,0:0:0:0:
249,315,10292,2,0,L|201:324,3,43.0499986862183,10|8|8|8,0:0|0:0|0:0|0:0,0:0:0:0:
170,296,10605,6,0,P|149:257|162:201,1,86.0999973724366,6|2,3:2|3:2,0:0:0:0:
182,64,10917,1,10,0:0:0:0:
96,136,11073,1,2,3:2:0:0:
219,195,11230,2,0,P|273:209|351:253,1,129.149996058655,2|0,3:2|0:0,0:0:0:0:
363,233,11542,2,0,P|396:203|399:150,1,86.0999973724366,10|2,0:0|3:2,0:0:0:0:
303,19,11855,6,0,P|312:62|356:91,1,86.0999973724366,2|2,3:2|3:2,0:0:0:0:
491,61,12167,1,10,0:0:0:0:
404,4,12323,1,2,3:2:0:0:
487,171,12480,2,0,P|421:186|342:218,1,129.149996058655,2|0,3:2|0:0,0:0:0:0:
320,191,12792,2,0,P|301:148|323:89,1,86.0999973724366,10|0,0:0|3:2,0:0:0:0:
438,294,13105,6,0,B|394:272|342:310|377:324|325:370|259:331,1,172.199994744873,2|8,3:2|0:0,0:0:0:0:
209,242,13573,1,2,3:2:0:0:
104,350,13730,2,0,P|93:293|80:244,1,86.0999973724366,0|0,3:2|3:2,0:0:0:0:
63,243,13964,1,0,3:2:0:0:
59,234,14042,2,0,P|70:177|83:128,1,86.0999973724366,14|8,0:0|0:0,0:0:0:0:
31,22,14355,5,10,3:2:0:0:
26,30,14433,2,0,P|70:43|122:68,1,86.0999973724366,8|8,0:0|0:0,0:0:0:0:
135,88,14667,2,0,P|174:70|215:58,1,86.0999973724366,10|10,3:2|0:0,0:0:0:0:
347,15,14980,2,0,L|359:78,3,43.0499986862183,10|10|4|4,0:3|0:3|0:3|0:3,0:0:0:0:
408,114,15292,2,0,L|396:177,3,43.0499986862183,2|0|0|0,3:0|3:0|3:0|3:0,0:0:0:0:
384,246,15605,5,8,0:0:0:0:
10,60,17636,5,2,3:0:0:0:
16,50,17714,1,0,3:0:0:0:
21,42,17792,2,0,L|144:75,1,104.550001994133,10|0,0:0|0:0,0:0:0:0:
145,58,18105,5,12,3:2:0:0:
39,150,18261,1,8,3:2:0:0:
106,277,18417,1,10,0:0:0:0:
87,279,18730,6,0,P|56:265|20:270,1,61.5000023460389,10|0,0:0|0:0,0:0:0:0:
106,361,19042,2,0,P|136:361|163:348,1,61.5000023460389,10|2,0:0|0:0,0:0:0:0:
223,285,19355,6,0,B|256:264|288:294|275:307|304:332|351:315,1,123.000004692078,8|10,0:0|0:0,0:0:0:0:
426,381,19823,1,2,0:0:0:0:
437,374,19980,2,0,P|431:334|428:309,1,61.5000023460389,8|2,0:0|0:0,0:0:0:0:
365,242,20292,2,0,P|371:202|374:177,1,61.5000023460389,8|2,0:0|0:0,0:0:0:0:
512,40,20605,5,12,3:2:0:0:
452,141,20761,1,8,3:2:0:0:
326,92,20917,1,10,0:0:0:0:
310,105,21230,6,0,P|267:97|244:93,1,61.5000023460389,10|0,0:0|0:0,0:0:0:0:
238,17,21542,2,0,P|207:22|177:27,1,61.5000023460389,10|2,0:0|0:0,0:0:0:0:
60,7,21855,6,0,P|82:65|95:132,1,123.000004692078,8|10,0:0|0:0,0:0:0:0:
94,124,22323,1,2,0:0:0:0:
28,193,22480,1,8,0:0:0:0:
125,270,22636,1,0,3:0:0:0:
131,257,22714,1,0,3:0:0:0:
131,244,22792,2,0,P|126:215|118:201,3,30.7500011730195,10|8|8|8,0:0|0:0|0:0|0:0,0:0:0:0:
55,282,23105,6,0,B|99:255|133:293|118:308|147:333|189:321,1,139.400002658844,6|8,3:2|0:0,0:0:0:0:
277,384,23573,2,0,P|266:329|280:240,1,139.400002658844,2|0,3:2|3:2,0:0:0:0:
359,178,24042,2,0,P|320:169|288:152,1,69.700001329422,10|0,0:0|0:0,0:0:0:0:
179,0,24355,6,0,B|203:10|233:20|233:20|216:72|204:124,1,139.400002658844,2|8,3:2|0:0,0:0:0:0:
141,200,24823,2,0,B|107:186|76:215|76:215|29:221|7:168,1,139.400002658844,2|0,3:2|3:2,0:0:0:0:
144,304,25292,2,0,P|175:283|212:277,1,69.700001329422,10|0,0:0|0:0,0:0:0:0:
351,349,25605,6,0,P|422:363|445:288,1,139.400002658844,2|8,3:2|0:0,0:0:0:0:
341,154,26073,2,0,B|292:140|292:140|232:155|251:216,1,139.400002658844,2|0,3:2|3:2,0:0:0:0:
422,216,26542,2,0,P|439:169|450:132,1,69.700001329422,10|0,0:0|0:0,0:0:0:0:
356,26,26855,6,0,B|301:19|301:19|296:21|296:21|246:14,1,104.550001994133,6|2,3:2|0:0,0:0:0:0:
234,0,27167,1,0,3:2:0:0:
179,111,27323,1,10,0:0:0:0:
88,0,27480,1,8,0:3:0:0:
82,11,27558,1,8,0:3:0:0:
76,22,27636,2,0,L|85:63,1,34.850000664711,4|4,0:3|0:3,0:0:0:0:
2,184,27792,2,0,P|11:133|15:106,1,69.700001329422,0|0,3:2|0:0,0:0:0:0:
80,316,28105,5,12,3:2:0:0:
206,218,28261,1,8,3:2:0:0:
320,335,28417,1,10,0:0:0:0:
333,350,28730,6,0,P|369:360|400:372,1,61.5000023460389,10|0,0:0|0:0,0:0:0:0:
512,279,29042,2,0,P|476:289|442:305,1,61.5000023460389,10|2,0:0|0:0,0:0:0:0:
359,237,29355,6,0,P|353:195|334:103,1,123.000004692078,8|10,0:0|0:0,0:0:0:0:
279,33,29823,1,2,0:0:0:0:
269,43,29980,2,0,P|235:32|201:18,1,61.5000023460389,8|2,0:0|0:0,0:0:0:0:
171,98,30293,2,0,P|142:109|113:118,1,61.5000023460389,8|2,0:0|0:0,0:0:0:0:
5,73,30605,5,12,3:2:0:0:
51,226,30761,1,8,3:2:0:0:
5,360,30917,1,10,0:0:0:0:
19,348,31230,6,0,P|61:340|103:336,1,61.5000023460389,10|0,0:0|0:0,0:0:0:0:
144,252,31542,2,0,P|171:284|196:318,1,61.5000023460389,10|2,0:0|0:0,0:0:0:0:
286,301,31855,6,0,P|293:336|296:352,3,30.7500011730195,8|8|4|0,0:0|0:3|0:3|3:2,0:0:0:0:
361,240,32167,2,0,P|363:224|367:209,3,30.7500011730195,10|8|6|4,0:3|0:3|0:3|0:3,0:0:0:0:
302,151,32480,5,8,0:0:0:0:
412,83,32636,1,8,0:0:0:0:
280,26,32792,5,10,0:0:0:0:
265,21,32870,1,8,0:0:0:0:
250,16,32948,1,8,0:0:0:0:
235,11,33026,1,8,0:0:0:0:
217,3,33105,6,0,P|196:60|167:145,1,139.400002658844,6|8,3:2|0:0,0:0:0:0:
46,222,33573,2,0,P|100:208|164:284,1,139.400002658844,2|0,3:2|3:2,0:0:0:0:
196,349,34042,2,0,P|235:329|276:315,1,69.700001329422,10|0,0:0|0:0,0:0:0:0:
439,320,34355,6,0,P|397:322|352:232,1,139.400002658844,2|8,3:2|0:0,0:0:0:0:
466,183,34823,2,0,P|419:164|330:133,1,139.400002658844,2|0,3:2|3:2,0:0:0:0:
268,43,35292,2,0,P|247:82|228:119,1,69.700001329422,10|0,0:0|0:0,0:0:0:0:
116,147,35605,6,0,P|136:199|154:254,1,104.550001994133,2|2,3:2|0:0,0:0:0:0:
148,270,35917,1,8,0:0:0:0:
276,361,36073,2,0,P|320:341|362:328,1,69.700001329422,2|0,3:2|0:0,0:0:0:0:
463,373,36386,1,0,3:2:0:0:
356,210,36542,2,0,P|390:226|434:254,1,69.700001329422,10|0,0:0|0:0,0:0:0:0:
218,246,36855,6,0,P|208:194|250:134,1,104.550001994133,6|2,3:2|0:0,0:0:0:0:
256,129,37167,1,0,3:2:0:0:
182,64,37323,1,10,0:0:0:0:
284,15,37480,5,8,0:3:0:0:
277,14,37584,2,0,L|285:68,1,46.466667552948,8|8,0:3|0:3,0:0:0:0:
360,104,37792,1,6,0:3:0:0:
367,104,37896,2,0,L|357:154,1,46.466667552948,4|4,0:3|0:3,0:0:0:0:
388,239,38105,5,6,3:2:0:0:
492,193,38261,2,0,P|471:228|468:277,1,65.6,0|0,3:2|0:0,0:0:0:0:
458,376,38573,2,0,P|394:351|317:342,1,131.2,10|8,0:0|0:0,0:0:0:0:
167,249,39042,1,6,3:2:0:0:
212,383,39198,6,0,P|234:346|221:311,1,65.6,0|0,3:2|0:0,0:0:0:0:
99,190,39511,2,0,P|77:227|94:261,2,65.6,8|0|8,0:0|0:0|0:0,0:0:0:0:
199,130,39980,2,0,P|243:144|288:147,1,65.6,0|0,3:2|3:2,0:0:0:0:
324,80,40292,2,0,P|368:66|413:63,1,65.6,8|8,0:0|0:0,0:0:0:0:
512,22,40605,5,6,3:2:0:0:
461,121,40761,2,0,L|471:213,1,65.6,0|0,3:2|0:0,0:0:0:0:
405,264,41073,2,0,L|388:357,1,65.6,10|0,0:0|0:0,0:0:0:0:
326,210,41386,1,8,0:0:0:0:
390,160,41542,1,6,3:2:0:0:
313,292,41698,6,0,B|261:314|261:314|210:286|229:236,1,131.2,0|8,3:2|0:0,0:0:0:0:
100,209,42167,1,0,0:0:0:0:
49,266,42323,1,8,0:0:0:0:
178,184,42480,2,0,L|191:115,1,65.6,8|8,0:3|0:3,0:0:0:0:
94,45,42792,2,0,L|106:109,1,65.6,4|4,0:3|0:3,0:0:0:0:
208,16,43105,5,6,3:2:0:0:
282,86,43261,2,0,P|328:107|361:91,1,65.6,0|0,3:2|0:0,0:0:0:0:
509,17,43573,2,0,P|447:7|418:80,1,131.2,10|8,0:0|0:0,0:0:0:0:
399,179,44042,1,6,3:2:0:0:
512,111,44198,6,0,P|499:183|493:258,1,131.2,0|8,3:2|0:0,0:0:0:0:
460,361,44667,2,0,P|429:373|392:357,1,65.6,0|8,0:0|0:0,0:0:0:0:
319,292,44980,2,0,P|290:285|253:301,1,65.6,2|0,3:2|3:2,0:0:0:0:
178,367,45292,2,0,L|171:292,1,65.6,8|8,0:0|0:0,0:0:0:0:
81,159,45605,5,6,3:2:0:0:
16,231,45761,2,0,P|49:247|91:235,1,65.6,2|0,3:2|0:0,0:0:0:0:
153,192,46073,2,0,P|186:176|228:188,1,65.6,8|0,0:0|0:0,0:0:0:0:
356,214,46386,1,8,0:0:0:0:
266,268,46542,1,4,3:2:0:0:
314,136,46698,6,0,L|330:214,1,65.6,0|0,3:2|0:0,0:0:0:0:
218,360,47011,2,0,P|169:346|164:264,1,131.2,8|8,0:0|0:0,0:0:0:0:
346,308,47480,5,8,0:3:0:0:
346,308,47558,1,8,0:3:0:0:
346,308,47636,2,0,L|397:314,1,32.8,8|8,0:3|0:3,0:0:0:0:
438,381,47792,1,4,0:3:0:0:
438,381,47870,1,4,0:3:0:0:
438,381,47948,2,0,L|489:375,1,32.8,4|4,0:3|0:3,0:0:0:0:
472,262,48105,5,6,3:2:0:0:
414,162,48261,2,0,P|427:124|448:77,1,65.6,0|0,3:2|0:0,0:0:0:0:
365,18,48573,2,0,P|329:53|234:34,1,131.2,10|8,0:0|0:0,0:0:0:0:
137,12,49042,5,6,3:2:0:0:
181,109,49198,2,0,P|165:155|139:242,1,131.2,0|8,3:2|0:0,0:0:0:0:
59,288,49667,2,0,P|97:304|142:330,1,65.6,0|8,0:0|0:0,0:0:0:0:
185,381,49980,1,0,3:2:0:0:
264,317,50136,1,8,0:0:0:0:
275,310,50214,1,8,0:0:0:0:
286,303,50292,1,0,3:2:0:0:
371,222,50448,1,8,0:0:0:0:
382,228,50526,1,8,0:0:0:0:
393,234,50605,5,6,3:2:0:0:
467,345,50761,2,0,P|478:302|490:263,1,65.6,8|0,0:2|0:0,0:0:0:0:
435,152,51073,1,10,0:0:0:0:
314,275,51230,1,8,0:3:0:0:
314,275,51308,1,8,0:3:0:0:
314,275,51386,1,4,0:3:0:0:
314,275,51464,1,4,0:3:0:0:
314,275,51542,2,0,P|303:232|291:193,1,65.6,14|0,0:0|0:0,0:0:0:0:
192,54,51855,5,8,0:0:0:0:
192,54,52011,2,0,P|158:69|109:83,1,65.6,0|0,3:0|3:0,0:0:0:0:
40,189,52323,1,8,0:0:0:0:
40,189,52479,2,0,P|74:204|123:218,1,65.6,0|0,3:0|3:0,0:0:0:0:
278,129,52792,5,10,0:0:0:0:
290,132,52870,1,8,0:0:0:0:
302,135,52948,1,8,0:0:0:0:
314,138,53026,1,8,0:0:0:0:
328,141,53105,6,0,P|284:150|228:161,1,73.7999977478028,6|2,3:2|3:2,0:0:0:0:
404,234,53417,1,8,0:0:0:0:
383,73,53573,2,0,P|401:27|418:-10,1,73.7999977478028,2|0,3:2|3:2,0:0:0:0:
257,161,53886,2,0,P|271:194|284:229,1,73.7999977478028,2|8,3:2|0:0,0:0:0:0:
199,348,54198,6,0,P|163:372|117:373,1,73.7999977478028,2|0,3:2|3:2,0:0:0:0:
60,187,54511,2,0,P|110:202|159:222,1,73.7999977478028,2|8,3:2|0:0,0:0:0:0:
26,328,54823,2,0,P|18:288|8:241,1,73.7999977478028,2|0,3:2|3:2,0:0:0:0:
146,115,55136,1,0,3:2:0:0:
192,274,55292,1,8,0:0:0:0:
63,201,55448,1,0,3:2:0:0:
63,201,55526,1,0,3:2:0:0:
63,201,55605,5,10,0:0:0:0:
216,159,55761,2,0,P|204:199|190:250,1,73.7999977478028,10|0,0:0|3:2,0:0:0:0:
195,229,55995,1,0,3:2:0:0:
195,229,56073,1,10,0:0:0:0:
47,72,56230,2,0,P|59:112|73:163,1,73.7999977478028,10|0,0:0|3:2,0:0:0:0:
67,142,56464,1,0,3:2:0:0:
67,142,56542,1,10,0:0:0:0:
164,14,56698,1,8,0:0:0:0:
287,121,56855,5,10,0:3:0:0:
287,121,56933,1,8,0:3:0:0:
287,121,57011,2,0,L|352:141,1,36.8999988739014,10|8,0:3|0:3,0:0:0:0:
423,218,57167,1,4,0:3:0:0:
423,218,57245,1,4,0:3:0:0:
423,218,57323,2,0,L|370:229,1,36.8999988739014,6|4,0:3|0:3,0:0:0:0:
265,279,57480,5,8,3:2:0:0:
392,351,57636,1,10,3:2:0:0:
208,27,58105,6,0,P|218:75|234:172,1,129.149996058655,4|0,3:2|0:0,0:0:0:0:
220,184,58417,1,10,0:0:0:0:
338,107,58573,1,0,3:0:0:0:
338,107,58651,1,8,0:0:0:0:
338,107,58730,2,0,P|382:123|436:129,1,86.0999973724366,2|0,3:0|3:0,0:0:0:0:
296,290,59042,2,0,P|253:296|168:329,1,129.149996058655,10|0,0:0|3:0,0:0:0:0:
144,307,59355,6,0,P|118:274|137:215,1,86.0999973724366,2|2,3:2|3:0,0:0:0:0:
235,53,59667,1,8,0:0:0:0:
94,127,59823,1,2,3:0:0:0:
94,127,59901,1,8,0:0:0:0:
94,127,59980,2,0,P|141:141|188:159,1,86.0999973724366,0|2,3:0|3:0,0:0:0:0:
225,280,60292,2,0,P|178:294|131:312,1,86.0999973724366,8|0,0:0|0:0,0:0:0:0:
71,285,60526,5,0,3:0:0:0:
60,277,60605,2,0,B|160:272|112:355|225:338,1,172.199994744873,2|10,3:2|0:0,0:0:0:0:
287,211,61073,1,0,3:0:0:0:
287,211,61151,1,8,0:0:0:0:
287,211,61230,2,0,P|297:268|310:330,1,86.0999973724366,2|0,3:0|3:0,0:0:0:0:
424,176,61542,2,0,P|432:133|449:39,1,129.149996058655,10|0,0:0|3:0,0:0:0:0:
420,19,61855,5,2,3:2:0:0:
305,140,62011,2,0,P|248:157|195:178,1,86.0999973724366,2|8,3:0|0:0,0:0:0:0:
155,27,62323,1,2,3:0:0:0:
155,27,62401,1,8,0:0:0:0:
155,27,62480,2,0,P|141:83|127:142,1,86.0999973724366,0|2,3:0|3:0,0:0:0:0:
149,225,62792,1,8,0:0:0:0:
46,44,62948,1,8,0:0:0:0:
46,44,63026,1,8,0:0:0:0:
46,44,63105,6,0,P|-7:76|4:180,1,172.199994744873,6|8,3:2|0:0,0:0:0:0:
107,289,63573,1,2,3:0:0:0:
107,289,63651,1,8,0:0:0:0:
107,289,63730,2,0,P|122:237|135:184,1,86.0999973724366,0|0,3:0|3:0,0:0:0:0:
280,100,64042,2,0,P|290:141|302:182,1,86.0999973724366,10|0,0:0|0:0,0:0:0:0:
338,214,64276,5,0,3:0:0:0:
349,222,64355,2,0,B|303:217|263:259|306:276|246:325|190:301,1,172.199994744873,2|8,3:2|0:0,0:0:0:0:
124,183,64823,1,2,3:0:0:0:
124,183,64901,1,8,0:0:0:0:
124,183,64980,2,0,P|170:200|217:213,1,86.0999973724366,0|0,3:0|3:0,0:0:0:0:
59,371,65292,2,0,P|21:347|16:277,1,86.0999973724366,10|0,0:0|3:0,0:0:0:0:
245,154,65605,6,0,P|231:205|217:260,1,86.0999973724366,14|0,0:0|3:0,0:0:0:0:
301,321,65917,1,0,3:0:0:0:
348,120,66073,2,0,P|362:171|376:226,1,86.0999973724366,14|0,0:0|3:0,0:0:0:0:
448,309,66385,1,0,3:0:0:0:
508,93,66542,2,0,P|494:144|480:199,1,86.0999973724366,14|0,0:0|3:0,0:0:0:0:
482,190,66776,1,0,3:0:0:0:
477,205,66855,5,14,0:0:0:0:
339,278,67011,1,0,3:0:0:0:
339,278,67089,1,0,3:0:0:0:
339,278,67167,1,14,0:0:0:0:
458,368,67323,1,10,0:0:0:0:
341,196,67480,2,0,L|355:138,3,43.0499986862183,8|8|10|8,0:0|0:0|0:0|0:0,0:0:0:0:
237,275,67792,2,0,L|247:316,3,43.0499986862183,8|8|8|8,0:3|0:3|0:3|0:3,0:0:0:0:
58,184,68105,6,0,B|94:162|129:181|117:199|149:225|187:202,1,129.149996058655,6|0,3:2|0:0,0:0:0:0:
191,189,68417,1,10,0:0:0:0:
155,0,68573,1,0,3:0:0:0:
155,0,68651,1,8,0:0:0:0:
155,0,68730,2,0,P|148:52|137:115,1,86.0999973724366,2|0,3:0|3:0,0:0:0:0:
303,127,69042,2,0,P|371:130|424:81,1,129.149996058655,10|0,0:0|3:0,0:0:0:0:
451,84,69355,6,0,P|479:117|477:159,1,86.0999973724366,2|2,3:2|3:0,0:0:0:0:
396,318,69667,1,8,0:0:0:0:
233,207,69823,1,2,3:0:0:0:
233,207,69901,1,8,0:0:0:0:
233,207,69980,2,0,P|276:216|318:227,1,86.0999973724366,0|2,3:0|3:0,0:0:0:0:
170,314,70292,2,0,P|127:323|85:334,1,86.0999973724366,8|0,0:0|0:0,0:0:0:0:
8,377,70526,5,0,3:0:0:0:
24,383,70605,2,0,B|69:341|44:292|22:308|-2:258|37:208,1,172.199994744873,2|10,3:2|0:0,0:0:0:0:
117,51,71073,1,0,3:0:0:0:
117,51,71151,1,8,0:0:0:0:
117,51,71230,2,0,P|123:102|129:164,1,86.0999973724366,2|0,3:0|3:0,0:0:0:0:
243,247,71542,2,0,P|300:220|366:207,1,129.149996058655,8|0,0:0|3:0,0:0:0:0:
384,225,71855,5,2,3:2:0:0:
462,361,72011,2,0,P|419:347|398:304,1,86.0999973724366,2|8,3:0|0:0,0:0:0:0:
498,161,72323,1,2,3:0:0:0:
498,161,72401,1,8,0:0:0:0:
498,161,72480,1,0,3:0:0:0:
345,138,72636,1,2,3:0:0:0:
481,266,72792,1,8,0:0:0:0:
410,75,72948,5,8,0:0:0:0:
410,75,73026,1,8,0:0:0:0:
410,75,73105,2,0,B|357:45|311:78|345:109|296:147|243:113,1,172.199994744873,6|8,3:2|0:0,0:0:0:0:
129,15,73573,1,2,3:0:0:0:
129,15,73651,1,8,0:0:0:0:
129,15,73730,2,0,P|174:28|233:45,1,86.0999973724366,0|0,3:0|3:0,0:0:0:0:
138,183,74042,2,0,P|93:196|34:213,1,86.0999973724366,10|0,0:0|0:0,0:0:0:0:
0,153,74276,5,0,3:0:0:0:
7,139,74355,2,0,B|57:158|57:158|26:308,1,172.199994744873,2|8,3:2|0:0,0:0:0:0:
133,384,74823,1,2,3:0:0:0:
133,384,74901,1,8,0:0:0:0:
133,384,74980,2,0,P|176:374|219:361,1,86.0999973724366,0|0,3:0|3:0,0:0:0:0:
365,259,75292,2,0,P|323:246|282:237,1,86.0999973724366,10|0,0:0|3:0,0:0:0:0:
139,53,75605,6,0,P|158:108|163:149,1,86.0999973724366,14|0,0:0|3:0,0:0:0:0:
160,164,75839,1,0,3:0:0:0:
160,164,75917,1,12,0:0:0:0:
306,41,76073,1,2,3:0:0:0:
306,41,76151,1,0,3:0:0:0:
306,41,76230,2,0,L|316:-5,3,43.0499986862183,8|8|4|4,0:3|0:3|0:3|0:3,0:0:0:0:
250,100,76542,5,14,0:0:0:0:
480,18,76698,1,8,0:0:0:0:
430,241,76855,5,10,3:2:0:0:
421,230,76933,2,0,B|428:180|428:180|431:176|431:176|438:130,1,86.0999973724366,8|8,0:0|0:0,0:0:0:0:
449,129,77167,1,8,3:2:0:0:
276,197,77323,1,10,0:3:0:0:
343,302,77480,2,0,L|405:319,3,43.0499986862183,8|8|8|8,0:3|0:3|0:3|0:3,0:0:0:0:
268,372,77792,2,0,L|227:384,3,43.0499986862183,6|4|4|4,0:3|0:3|0:3|0:3,0:0:0:0:
138,325,78105,6,0,P|145:279|150:224,1,86.0999973724366,6|2,3:2|3:2,0:0:0:0:
106,60,78417,1,10,0:0:0:0:
30,152,78573,1,2,3:2:0:0:
189,123,78730,2,0,B|227:105|254:139|243:150|267:179|314:161,1,129.149996058655,2|0,3:2|0:0,0:0:0:0:
325,156,79042,2,0,P|339:104|311:73,1,86.0999973724366,10|2,0:0|3:2,0:0:0:0:
258,284,79355,6,0,P|309:269|351:269,1,86.0999973724366,2|2,3:2|3:2,0:0:0:0:
484,328,79667,1,10,0:0:0:0:
388,182,79823,1,2,3:2:0:0:
512,80,79980,2,0,P|491:141|482:215,1,129.149996058655,2|0,3:2|0:0,0:0:0:0:
496,233,80292,2,0,P|458:263|409:249,1,86.0999973724366,10|0,0:0|3:2,0:0:0:0:
281,21,80605,6,0,P|323:36|382:61,1,86.0999973724366,2|2,3:2|3:2,0:0:0:0:
187,150,80917,1,10,0:0:0:0:
123,27,81073,1,2,3:2:0:0:
287,130,81230,2,0,P|269:227|258:283,1,129.149996058655,2|0,3:2|0:0,0:0:0:0:
267,297,81542,2,0,B|302:323|302:323|350:307,1,86.0999973724366,10|2,0:0|3:2,0:0:0:0:
506,152,81855,6,0,P|451:162|416:171,1,86.0999973724366,2|2,3:2|3:2,0:0:0:0:
271,10,82167,1,8,0:0:0:0:
393,75,82323,1,2,3:2:0:0:
222,192,82480,2,0,P|153:190|123:109,1,129.149996058655,2|0,3:2|0:0,0:0:0:0:
156,74,82792,2,0,P|161:51|156:27,3,43.0499986862183,10|8|8|8,0:0|0:0|0:0|0:0,0:0:0:0:
296,149,83105,6,0,B|283:107|240:109|240:109|286:87|333:135|302:154|338:202|404:174,1,258.29999211731,6|0,3:2|0:0,0:0:0:0:
503,75,83730,2,0,P|476:160|449:338,1,258.29999211731,6|0,3:2|0:0,0:0:0:0:
330,320,84355,6,0,B|272:240|200:254|147:308|171:370|230:390|268:358|267:334,1,258.29999211731,6|0,3:2|0:0,0:0:0:0:
87,384,84980,2,0,B|125:336|92:291|64:315|30:261|84:204,1,172.199994744873,6|0,3:2|0:0,0:0:0:0:
50,68,85448,5,0,3:2:0:0:
50,68,85526,1,0,3:2:0:0:
50,68,85605,2,0,P|90:101|154:79,1,86.0999973724366,10|0,0:0|0:0,0:0:0:0:
269,5,85917,2,0,P|226:8|196:37,1,86.0999973724366,10|0,0:0|0:0,0:0:0:0:
204,219,86230,2,0,L|222:103,1,86.0999973724366,10|0,0:0|0:0,0:0:0:0:
356,71,86542,6,0,B|395:45|427:103|427:103|429:41|498:41,1,172.199994744873,14|0,0:0|0:0,0:0:0:0:
