osu file format v14

[General]
AudioFilename: audio.mp3
AudioLeadIn: 0
PreviewTime: 56386
Countdown: 0
SampleSet: Soft
StackLeniency: 0.7
Mode: 0
LetterboxInBreaks: 0
WidescreenStoryboard: 1

[Editor]
Bookmarks: 76776
DistanceSpacing: 1
BeatDivisor: 2
GridSize: 16
TimelineZoom: 3.699999

[Metadata]
Title:Red Criminal (TV Size)
TitleUnicode:Red Criminal (TV Size)
Artist:THE ORAL CIGARETTES
ArtistUnicode:THE ORAL CIGARETTES
Creator:Nevo
Version:Aranel's Hard
Source:SCARLET NEXUS
Tags:anime japanese rock opening sotarks armin a_r_m_i_n nymphe kujinn reform aranel sytho jrock j-rock Kiyoshi Guarden op
BeatmapID:3081480
BeatmapSetID:1502178

[Difficulty]
HPDrainRate:4.5
CircleSize:3.5
OverallDifficulty:6
ApproachRate:8
SliderMultiplier:1.4
SliderTickRate:1

[Events]
//Background and Video events
0,0,"0dc90f89-1b2f-4f8b-8106-2a1b7111365e-min.png",0,0
Video,0,"redcrim.mp4"
//Break Periods
2,15805,16886
//Storyboard Layer 0 (Background)
//Storyboard Layer 1 (Fail)
//Storyboard Layer 2 (Pass)
//Storyboard Layer 3 (Foreground)
//Storyboard Layer 4 (Overlay)
//Storyboard Sound Samples

[TimingPoints]
605,312.5,4,2,1,80,1,0
605,-125,4,2,1,80,0,0
4511,-125,4,2,1,40,0,0
5605,-90.9090909090909,4,2,1,80,0,0
15605,-100,4,2,1,80,0,0
15917,-100,4,2,1,40,0,0
16386,-100,4,2,1,45,0,0
16698,-100,4,2,1,50,0,0
17167,-100,4,2,1,55,0,0
17636,-100,4,2,1,70,0,0
18105,-125,4,2,1,70,0,0
23105,-111.111111111111,4,2,1,70,0,0
28105,-125,4,2,1,70,0,0
33105,-111.111111111111,4,2,1,70,0,0
38105,-142.857142857143,4,2,1,60,0,0
48105,-125,4,2,1,70,0,0
53105,-100,4,2,1,70,0,0
58105,-83.3333333333333,4,2,1,80,0,1
78105,-90.9090909090909,4,2,1,80,0,0
83105,-125,4,2,1,80,0,0

[Colours]
Combo1 : 128,128,255
Combo2 : 255,98,98
Combo3 : 111,165,255
Combo4 : 192,192,192

[HitObjects]
441,45,605,6,0,B|342:54|387:98|291:122,1,168,6|0,3:2|0:0,0:0:0:0:
218,105,1230,2,0,B|169:168|169:168|216:265,1,168,6|0,3:2|0:0,0:0:0:0:
268,296,1855,2,0,B|189:293|189:293|181:295|181:295|100:293,1,168,6|0,3:2|0:0,0:0:0:0:
22,278,2480,2,0,P|1:216|25:153,1,112,6|0,3:2|0:0,0:0:0:0:
60,113,2948,1,0,3:2:0:0:
60,113,3026,1,0,3:2:0:0:
60,113,3105,5,10,0:0:0:0:
207,34,3417,1,10,0:0:0:0:
364,92,3730,1,10,0:0:0:0:
425,248,4042,1,10,0:0:0:0:
41,326,5605,6,0,P|86:321|132:320,1,77.0000023498536,6|2,3:2|3:2,0:0:0:0:
205,374,5917,1,10,0:0:0:0:
205,374,6073,1,2,3:2:0:0:
289,324,6230,2,0,P|334:265|295:170,1,154.000004699707,2|10,3:2|0:0,0:0:0:0:
229,144,6698,1,2,3:2:0:0:
254,53,6855,6,0,P|290:33|331:33,1,77.0000023498536,2|2,3:2|3:2,0:0:0:0:
408,76,7167,1,10,0:0:0:0:
408,76,7323,1,2,3:2:0:0:
488,22,7480,2,0,B|503:128|503:128|463:181,1,154.000004699707,2|10,3:2|0:0,0:0:0:0:
388,219,7948,1,0,3:2:0:0:
466,312,8105,6,0,P|420:307|374:306,1,77.0000023498536,2|2,3:2|3:2,0:0:0:0:
320,359,8417,1,10,0:0:0:0:
320,359,8573,1,2,3:2:0:0:
240,312,8730,2,0,B|234:256|234:256|255:211|255:211|249:159,1,154.000004699707,2|10,3:2|0:0,0:0:0:0:
237,68,9198,6,0,P|174:21|85:28,1,154.000004699707,2|2,3:2|3:2,0:0:0:0:
17,65,9667,1,8,0:0:0:0:
17,65,9823,1,2,3:2:0:0:
85,135,9980,2,0,P|88:176|91:227,1,77.0000023498536,2|0,3:2|3:2,0:0:0:0:
160,270,10292,2,0,P|157:297|156:320,3,38.5000011749268,10|8|8|8,0:0|0:0|0:0|0:0,0:0:0:0:
150,346,10605,6,0,P|195:341|241:340,1,77.0000023498536,6|2,3:2|3:2,0:0:0:0:
317,378,10917,1,10,0:0:0:0:
317,378,11073,1,2,3:2:0:0:
401,336,11230,2,0,P|429:258|381:186,1,154.000004699707,2|10,3:2|0:0,0:0:0:0:
312,144,11698,6,0,B|209:128|244:186|150:169,1,154.000004699707,2|2,3:2|3:2,0:0:0:0:
68,149,12167,1,10,0:0:0:0:
68,149,12323,1,2,3:2:0:0:
113,64,12480,2,0,B|134:24|179:17|179:17|209:46|247:43,1,154.000004699707,2|10,3:2|0:0,0:0:0:0:
338,3,12948,1,0,3:2:0:0:
425,67,13105,6,0,P|420:113|419:159,1,77.0000023498536,2|0,3:2|3:2,0:0:0:0:
479,229,13417,1,8,0:0:0:0:
397,281,13573,2,0,B|294:265|329:323|235:306,1,154.000004699707,2|0,3:2|3:2,0:0:0:0:
168,255,14042,1,14,0:0:0:0:
168,255,14198,1,8,0:0:0:0:
93,329,14355,6,0,P|93:308|85:288,3,38.5000011749268,10|8|8|8,3:2|0:0|0:0|0:0,0:0:0:0:
62,257,14667,2,0,L|50:160,1,77.0000023498536,10|10,3:2|0:0,0:0:0:0:
37,96,14980,1,10,0:3:0:0:
103,42,15136,1,4,0:3:0:0:
103,42,15214,1,4,0:3:0:0:
103,42,15292,2,0,P|130:41|153:43,3,38.5000011749268,2|0|0|0,3:0|3:0|3:0|3:0,0:0:0:0:
180,43,15605,1,8,0:0:0:0:
466,296,17636,5,2,3:0:0:0:
466,296,17714,1,0,3:0:0:0:
466,296,17792,2,0,P|459:245|480:197,1,105,10|0,0:0|0:0,0:0:0:0:
510,168,18105,5,12,3:2:0:0:
461,106,18261,1,8,3:2:0:0:
396,149,18417,2,0,P|364:165|330:167,1,56,10|0,0:0|0:0,0:0:0:0:
275,128,18730,2,0,B|197:137|229:168|158:175,1,112,10|10,0:0|0:0,0:0:0:0:
97,166,19198,6,0,P|44:210|36:275,1,112,2|2,0:0|0:0,0:0:0:0:
50,327,19667,1,10,0:0:0:0:
123,298,19823,2,0,P|157:293|189:306,1,56,2|8,0:0|0:0,0:0:0:0:
235,352,20136,2,0,L|360:333,1,112,2|2,0:0|0:0,0:0:0:0:
449,310,20605,5,12,3:2:0:0:
419,237,20761,1,8,3:2:0:0:
466,174,20917,2,0,P|444:144|412:130,1,56,10|0,0:0|0:0,0:0:0:0:
354,107,21230,2,0,B|301:110|301:110|298:108|298:108|242:112,1,112,10|10,0:0|0:0,0:0:0:0:
170,140,21698,6,0,P|197:79|182:30,1,112,2|0,0:0|0:0,0:0:0:0:
116,0,22167,1,10,0:0:0:0:
48,40,22323,2,0,L|55:112,1,56,2|8,0:0|0:0,0:0:0:0:
93,175,22636,1,0,3:0:0:0:
93,175,22714,1,0,3:0:0:0:
93,175,22792,2,0,L|89:213,3,28,10|8|8|8,0:0|0:0|0:0|0:0,0:0:0:0:
87,240,23105,6,0,B|165:249|133:277|214:287,1,125.999996154785,6|8,3:2|0:0,0:0:0:0:
259,335,23573,2,0,P|241:269|277:211,1,125.999996154785,2|0,3:2|3:2,0:0:0:0:
337,196,24042,2,0,P|285:188|259:159,1,62.9999980773926,10|0,0:0|0:0,0:0:0:0:
257,109,24355,6,0,B|320:99|320:99|332:101|332:101|395:91,1,125.999996154785,2|8,3:2|0:0,0:0:0:0:
448,127,24823,2,0,P|486:184|477:251,1,125.999996154785,2|0,3:2|3:2,0:0:0:0:
438,300,25292,2,0,P|403:306|371:295,1,62.9999980773926,10|0,0:0|0:0,0:0:0:0:
314,255,25605,6,0,L|171:273,1,125.999996154785,2|8,3:2|0:0,0:0:0:0:
116,292,26073,2,0,P|68:242|69:174,1,125.999996154785,2|0,3:2|3:2,0:0:0:0:
81,113,26542,2,0,P|114:104|149:98,1,62.9999980773926,10|0,0:0|0:0,0:0:0:0:
198,47,26855,6,0,P|262:60|348:66,1,125.999996154785,6|0,3:2|3:2,0:0:0:0:
393,39,27323,1,10,0:0:0:0:
465,71,27480,2,0,L|468:105,3,31.4999990386963,8|8|4|4,0:3|0:3|0:3|0:3,0:0:0:0:
468,143,27792,2,0,P|441:188|401:208,1,94.499997116089,0|0,3:2|0:0,0:0:0:0:
362,209,28105,5,12,3:2:0:0:
285,192,28261,1,8,3:2:0:0:
247,123,28417,2,0,P|217:103|182:98,1,56,10|0,0:0|0:0,0:0:0:0:
119,104,28730,2,0,B|109:154|109:154|110:164|110:164|100:214,1,112,10|10,0:0|0:0,0:0:0:0:
104,291,29198,6,0,P|143:326|224:321,1,112,2|0,0:0|0:0,0:0:0:0:
280,314,29667,1,10,0:0:0:0:
280,314,29823,2,0,P|295:290|299:263,1,56,2|8,0:0|0:0,0:0:0:0:
272,189,30136,2,0,L|394:164,1,112,2|2,0:0|0:0,0:0:0:0:
485,140,30605,5,12,3:2:0:0:
507,214,30761,1,8,3:2:0:0:
446,263,30917,2,0,P|425:291|422:325,1,56,10|0,0:0|0:0,0:0:0:0:
479,363,31230,2,0,B|403:348|436:378|348:363,1,112,10|10,0:0|0:0,0:0:0:0:
296,333,31698,1,2,0:0:0:0:
222,361,31855,6,0,L|169:356,3,28,8|8|4|0,0:0|0:3|0:3|3:2,0:0:0:0:
160,338,32167,2,0,L|107:343,3,28,10|8|6|4,0:3|0:3|0:3|0:3,0:0:0:0:
95,356,32480,1,8,0:0:0:0:
37,287,32636,1,8,0:0:0:0:
77,205,32792,2,0,L|72:169,3,28,10|8|8|8,0:0|0:0|0:0|0:0,0:0:0:0:
63,140,33105,6,0,B|135:126|115:158|191:143,1,125.999996154785,6|8,3:2|0:0,0:0:0:0:
228,80,33573,2,0,P|295:65|352:103,1,125.999996154785,2|0,3:2|3:2,0:0:0:0:
389,150,34042,2,0,P|435:147|463:127,1,62.9999980773926,10|0,0:0|0:0,0:0:0:0:
504,87,34355,6,0,B|508:147|508:147|504:154|504:154|508:222,1,125.999996154785,2|8,3:2|0:0,0:0:0:0:
501,286,34823,2,0,P|440:317|375:295,1,125.999996154785,2|0,3:2|3:2,0:0:0:0:
327,258,35292,2,0,P|295:246|260:253,1,62.9999980773926,10|0,0:0|0:0,0:0:0:0:
200,286,35605,6,0,L|72:278,1,125.999996154785,2|8,3:2|0:0,0:0:0:0:
32,214,36073,2,0,P|76:161|69:101,1,125.999996154785,2|0,3:2|3:2,0:0:0:0:
12,59,36542,2,0,P|61:74|93:65,1,62.9999980773926,10|0,0:0|0:0,0:0:0:0:
137,34,36855,6,0,L|277:44,1,125.999996154785,6|0,3:2|3:2,0:0:0:0:
330,75,37323,1,10,0:0:0:0:
291,142,37480,2,0,L|239:145,2,41.9999987182618,8|8|8,0:3|0:3|0:3,0:0:0:0:
330,181,37792,2,0,L|377:185,2,41.9999987182618,6|4|4,0:3|0:3|0:3,0:0:0:0:
275,256,38105,5,6,3:2:0:0:
275,256,38261,2,0,B|219:247|236:270|175:262,2,97.9999970092774,0|10|8,3:2|0:0|0:0,0:0:0:0:
344,310,39042,5,6,3:2:0:0:
344,310,39198,2,0,P|405:325|446:301,1,97.9999970092774,0|8,3:2|0:0,0:0:0:0:
484,256,39667,2,0,L|476:190,1,48.9999985046387,0|8,0:0|0:0,0:0:0:0:
422,159,39980,2,0,L|352:167,1,48.9999985046387,0|0,3:2|3:2,0:0:0:0:
304,190,40292,1,8,0:0:0:0:
188,112,40605,5,6,3:2:0:0:
188,112,40761,2,0,B|193:61|193:61|192:55|192:55|197:5,2,97.9999970092774,0|10|8,3:2|0:0|0:0,0:0:0:0:
137,172,41542,5,6,3:2:0:0:
137,172,41698,2,0,P|77:181|37:147,1,97.9999970092774,0|8,3:2|0:0,0:0:0:0:
8,99,42167,2,0,L|15:28,1,48.9999985046387,0|8,0:0|0:0,0:0:0:0:
70,3,42480,2,0,L|137:11,1,48.9999985046387,8|8,0:3|0:3,0:0:0:0:
185,38,42792,1,4,0:3:0:0:
351,0,43105,5,6,3:2:0:0:
351,0,43261,2,0,B|411:-15|398:12|451:4,2,97.9999970092774,0|10|8,3:2|0:0|0:0,0:0:0:0:
288,54,44042,5,6,3:2:0:0:
288,54,44198,2,0,L|300:168,1,97.9999970092774,0|8,3:2|0:0,0:0:0:0:
341,211,44667,2,0,L|334:280,1,48.9999985046387,0|8,0:0|0:0,0:0:0:0:
306,339,44980,1,2,3:2:0:0:
306,339,45136,1,0,3:2:0:0:
223,310,45292,1,8,0:0:0:0:
92,384,45605,5,6,3:2:0:0:
92,384,45761,2,0,B|35:368|35:368|20:332,2,97.9999970092774,2|8|8,3:2|0:0|0:0,0:0:0:0:
156,330,46542,5,4,3:2:0:0:
156,330,46698,2,0,L|139:212,1,97.9999970092774,0|8,3:2|0:0,0:0:0:0:
163,162,47167,2,0,P|196:141|226:138,1,48.9999985046387,0|8,0:0|0:0,0:0:0:0:
276,121,47480,2,0,L|318:127,3,24.4999992523194,8|8|8|8,0:3|0:3|0:3|0:3,0:0:0:0:
334,136,47792,2,0,L|376:130,3,24.4999992523194,4|4|4|4,0:3|0:3|0:3|0:3,0:0:0:0:
403,128,48105,5,6,3:2:0:0:
403,128,48261,2,0,P|432:183|423:245,1,112,0|10,3:2|0:0,0:0:0:0:
374,288,48730,2,0,L|296:282,1,56,0|8,0:0|0:0,0:0:0:0:
254,248,49042,5,6,3:2:0:0:
254,248,49198,2,0,L|124:262,1,112,0|8,3:2|0:0,0:0:0:0:
64,264,49667,2,0,L|53:202,1,56,0|8,0:0|0:0,0:0:0:0:
30,133,49980,1,0,3:2:0:0:
82,75,50136,2,0,L|86:39,2,28,8|8|0,0:0|0:0|3:2,0:0:0:0:
147,117,50448,2,0,L|150:151,2,28,8|8|6,0:0|0:0|3:2,0:0:0:0:
213,75,50761,6,0,B|292:88|253:106|327:120,1,112,8|10,0:2|0:0,0:0:0:0:
382,157,51230,2,0,L|390:206,3,28,8|8|4|4,0:3|0:3|0:3|0:3,0:0:0:0:
391,223,51542,2,0,P|372:274|338:294,1,84,14|0,0:0|0:0,0:0:0:0:
313,296,51855,5,8,0:0:0:0:
313,296,52011,2,0,L|304:218,1,56,0|0,3:0|3:0,0:0:0:0:
244,202,52323,1,8,0:0:0:0:
244,202,52480,2,0,L|253:124,1,56,0|0,3:0|3:0,0:0:0:0:
180,112,52792,2,0,L|176:61,3,28,10|8|8|8,0:0|0:0|0:0|0:0,0:0:0:0:
171,34,53105,5,6,3:2:0:0:
247,7,53261,2,0,P|280:24|321:23,1,70,2|8,3:2|0:0,0:0:0:0:
391,7,53573,2,0,B|397:72|397:72|394:82|394:82|401:146,1,140,2|2,3:2|3:2,0:0:0:0:
457,204,54042,1,8,0:0:0:0:
428,285,54198,6,0,P|361:247|286:255,1,140,2|2,3:2|3:2,0:0:0:0:
239,304,54667,1,8,0:0:0:0:
239,304,54823,1,2,3:2:0:0:
162,274,54980,2,0,B|145:242|145:242|151:208,1,70,0|0,3:2|3:2,0:0:0:0:
181,136,55292,1,8,0:0:0:0:
181,136,55448,1,0,3:2:0:0:
155,39,55605,5,10,0:0:0:0:
155,39,55761,2,0,P|190:54|230:58,1,70,10|0,0:0|3:2,0:0:0:0:
310,42,56073,1,10,0:0:0:0:
314,46,56230,2,0,P|299:81|295:119,1,70,10|0,0:0|3:2,0:0:0:0:
325,203,56542,5,10,0:0:0:0:
325,203,56698,1,8,0:0:0:0:
273,278,56855,2,0,L|212:273,3,35,10|8|10|8,0:3|0:3|0:3|0:3,0:0:0:0:
198,252,57167,2,0,L|139:257,3,35,4|4|6|4,0:3|0:3|0:3|0:3,0:0:0:0:
122,277,57480,1,8,3:2:0:0:
149,370,57636,1,10,3:2:0:0:
13,140,58105,6,0,P|61:94|133:102,1,125.999996154785,4|0,3:2|0:0,0:0:0:0:
154,116,58417,2,0,P|194:128|237:121,1,83.9999974365235,10|0,0:0|3:0,0:0:0:0:
299,67,58730,2,0,P|339:54|382:61,1,83.9999974365235,2|0,3:0|3:0,0:0:0:0:
452,101,59042,2,0,L|464:234,1,125.999996154785,10|0,0:0|3:0,0:0:0:0:
469,268,59355,5,2,3:2:0:0:
420,336,59511,2,0,P|378:347|333:336,1,83.9999974365235,2|8,3:0|0:0,0:0:0:0:
282,269,59823,1,2,3:0:0:0:
282,269,59901,1,8,0:0:0:0:
282,269,59980,2,0,L|297:156,1,83.9999974365235,0|2,3:0|3:0,0:0:0:0:
250,105,60292,2,0,P|195:73|132:85,1,125.999996154785,8|0,0:0|3:0,0:0:0:0:
103,114,60605,6,0,L|95:221,1,83.9999974365235,2|0,3:2|3:0,0:0:0:0:
43,276,60917,2,0,P|82:294|127:286,1,83.9999974365235,10|0,0:0|3:0,0:0:0:0:
197,225,61230,2,0,P|238:208|281:214,1,83.9999974365235,2|0,3:0|3:0,0:0:0:0:
342,267,61542,2,0,B|365:223|365:223|336:121,1,125.999996154785,10|0,0:0|3:0,0:0:0:0:
314,113,61855,5,2,3:2:0:0:
377,46,62011,2,0,P|418:42|456:58,1,83.9999974365235,2|8,3:0|0:0,0:0:0:0:
508,136,62323,2,0,L|478:319,1,167.999994873047,2|2,3:0|3:0,0:0:0:0:
425,370,62792,1,8,0:0:0:0:
349,328,62948,1,8,0:0:0:0:
349,328,63026,1,8,0:0:0:0:
349,328,63105,6,0,L|239:313,1,83.9999974365235,6|0,3:2|3:0,0:0:0:0:
186,271,63417,1,8,0:0:0:0:
116,331,63573,2,0,P|69:263|83:183,1,167.999994873047,2|0,3:0|3:0,0:0:0:0:
125,97,64042,1,10,0:0:0:0:
210,152,64198,1,0,0:0:0:0:
210,152,64276,1,0,3:0:0:0:
210,152,64355,6,0,L|308:138,1,83.9999974365235,2|0,3:2|3:0,0:0:0:0:
384,160,64667,1,8,0:0:0:0:
428,74,64823,2,0,P|487:130|490:211,1,167.999994873047,2|0,3:0|3:0,0:0:0:0:
445,299,65292,2,0,P|365:284|301:283,1,125.999996154785,10|0,0:0|3:0,0:0:0:0:
281,254,65605,6,0,P|240:263|198:270,2,83.9999974365235,14|0|0,0:0|3:0|3:0,0:0:0:0:
349,177,66073,2,0,P|313:155|279:130,2,83.9999974365235,14|0|0,0:0|3:0|3:0,0:0:0:0:
448,190,66542,2,0,P|431:123|420:55,1,125.999996154785,14|0,0:0|3:0,0:0:0:0:
416,30,66855,6,0,P|345:-9|266:10,1,167.999994873047,14|14,0:0|0:0,0:0:0:0:
213,82,67323,1,10,0:0:0:0:
132,32,67480,2,0,L|125:73,3,41.9999987182618,8|8|10|8,0:0|0:0|0:0|0:0,0:0:0:0:
95,108,67792,2,0,L|101:149,3,41.9999987182618,8|8|8|8,0:3|0:3|0:3|0:3,0:0:0:0:
129,181,68105,6,0,B|121:242|121:242|124:245|124:245|116:304,1,125.999996154785,6|0,3:2|0:0,0:0:0:0:
117,346,68417,2,0,P|154:364|196:355,1,83.9999974365235,10|0,0:0|3:0,0:0:0:0:
276,301,68730,2,0,P|313:283|355:292,1,83.9999974365235,2|0,3:0|3:0,0:0:0:0:
442,330,69042,2,0,L|454:186,1,125.999996154785,10|0,0:0|3:0,0:0:0:0:
440,157,69355,5,2,3:2:0:0:
390,72,69511,2,0,P|352:52|312:60,1,83.9999974365235,2|8,3:0|0:0,0:0:0:0:
241,126,69823,1,2,3:0:0:0:
241,126,69901,1,8,0:0:0:0:
241,126,69980,2,0,L|235:221,1,83.9999974365235,0|2,3:0|3:0,0:0:0:0:
203,293,70292,2,0,P|143:316|86:292,1,125.999996154785,8|0,0:0|3:0,0:0:0:0:
57,257,70605,6,0,L|49:150,1,83.9999974365235,2|0,3:2|3:0,0:0:0:0:
2,89,70917,2,0,P|43:72|86:83,1,83.9999974365235,10|0,0:0|3:0,0:0:0:0:
156,146,71230,2,0,B|252:160|224:106|316:114,1,167.999994873047,2|8,3:0|0:0,0:0:0:0:
387,46,71698,5,2,0:0:0:0:
466,106,71855,1,2,3:2:0:0:
466,106,72011,2,0,P|485:141|487:182,1,83.9999974365235,2|8,3:0|0:0,0:0:0:0:
464,280,72323,2,0,L|283:292,1,167.999994873047,2|2,3:0|3:0,0:0:0:0:
251,207,72792,1,8,0:0:0:0:
168,236,72948,1,8,0:0:0:0:
168,236,73026,1,8,0:0:0:0:
168,236,73105,6,0,P|133:213|114:176,1,83.9999974365235,6|0,3:2|3:0,0:0:0:0:
74,89,73417,1,8,0:0:0:0:
159,45,73573,2,0,L|340:64,1,167.999994873047,2|0,3:0|3:0,0:0:0:0:
422,58,74042,1,10,0:0:0:0:
464,147,74198,1,0,0:0:0:0:
464,147,74276,1,0,3:0:0:0:
464,147,74355,6,0,P|471:194|456:231,1,83.9999974365235,2|0,3:2|3:0,0:0:0:0:
396,299,74667,1,8,0:0:0:0:
317,244,74823,2,0,L|150:263,1,167.999994873047,2|0,3:0|3:0,0:0:0:0:
84,338,75292,2,0,P|51:284|59:222,1,125.999996154785,10|0,0:0|3:0,0:0:0:0:
89,188,75605,5,14,0:0:0:0:
89,188,75761,1,0,3:0:0:0:
25,95,75917,1,12,0:0:0:0:
111,24,76073,1,2,3:0:0:0:
111,24,76151,1,0,3:0:0:0:
111,24,76230,2,0,L|172:32,3,41.9999987182618,8|8|4|4,0:3|0:3|0:3|0:3,0:0:0:0:
189,49,76542,2,0,L|289:39,1,83.9999974365235,14|8,0:0|0:0,0:0:0:0:
355,25,76855,6,0,P|412:78|396:172,1,167.999994873047,10|8,3:2|3:2,0:0:0:0:
338,215,77323,1,10,0:3:0:0:
382,295,77480,2,0,L|341:302,3,41.9999987182618,8|8|8|8,0:3|0:3|0:3|0:3,0:0:0:0:
304,331,77792,2,0,L|263:325,3,41.9999987182618,6|4|4|4,0:3|0:3|0:3|0:3,0:0:0:0:
224,304,78105,6,0,P|180:310|132:316,1,77.0000023498536,6|2,3:2|3:2,0:0:0:0:
70,344,78417,1,10,0:0:0:0:
70,344,78573,1,2,3:2:0:0:
25,271,78730,2,0,B|37:199|37:199|42:194|42:194|53:121,1,154.000004699707,2|10,3:2|0:0,0:0:0:0:
84,41,79198,6,0,P|163:20|238:74,1,154.000004699707,2|2,3:2|3:2,0:0:0:0:
290,113,79667,1,10,0:0:0:0:
290,113,79823,1,2,3:2:0:0:
216,155,79980,2,0,B|165:188|165:188|157:297,1,154.000004699707,2|10,3:2|0:0,0:0:0:0:
201,353,80448,1,0,3:2:0:0:
294,307,80605,6,0,P|337:313|385:319,1,77.0000023498536,2|2,3:2|3:2,0:0:0:0:
454,347,80917,1,10,0:0:0:0:
454,347,81073,1,2,3:2:0:0:
507,280,81230,2,0,B|493:205|493:205|489:200|489:200|476:125,1,154.000004699707,2|10,3:2|0:0,0:0:0:0:
429,60,81698,6,0,P|350:39|275:93,1,154.000004699707,2|2,3:2|3:2,0:0:0:0:
229,131,82167,1,8,0:0:0:0:
229,131,82323,1,2,3:2:0:0:
137,116,82480,2,0,P|148:157|152:206,1,77.0000023498536,2|0,3:2|3:2,0:0:0:0:
207,254,82792,2,0,P|198:285|194:324,3,38.5000011749268,10|8|8|8,0:0|0:0|0:0|0:0,0:0:0:0:
192,329,83105,6,0,B|277:332|277:332|280:336|280:336|358:338,1,168,6|0,3:2|0:0,0:0:0:0:
437,349,83730,2,0,P|465:257|418:201,1,168,6|0,3:2|0:0,0:0:0:0:
356,168,84355,6,0,B|271:171|271:171|268:175|268:175|190:177,1,168,6|0,3:2|0:0,0:0:0:0:
110,192,84980,2,0,P|81:146|92:93,1,112,6|0,3:2|0:0,0:0:0:0:
146,30,85448,5,0,3:2:0:0:
146,30,85526,1,0,3:2:0:0:
146,30,85605,1,10,0:0:0:0:
312,6,85917,1,10,0:0:0:0:
444,109,86230,1,10,0:0:0:0:
437,276,86542,1,14,0:0:0:0:
