osu file format v14

[General]
AudioFilename: audio.mp3
AudioLeadIn: 0
PreviewTime: 56386
Countdown: 0
SampleSet: Soft
StackLeniency: 0.7
Mode: 0
LetterboxInBreaks: 0
WidescreenStoryboard: 1

[Editor]
DistanceSpacing: 0.4
BeatDivisor: 4
GridSize: 4
TimelineZoom: 1.6

[Metadata]
Title:Red Criminal (TV Size)
TitleUnicode:Red Criminal (TV Size)
Artist:THE ORAL CIGARETTES
ArtistUnicode:THE ORAL CIGARETTES
Creator:Nevo
Version:A r M i N's Extra
Source:SCARLET NEXUS
Tags:anime japanese rock opening sotarks armin a_r_m_i_n nymphe kujinn reform aranel sytho jrock j-rock Kiyoshi Guarden op
BeatmapID:3086402
BeatmapSetID:1502178

[Difficulty]
HPDrainRate:5.8
CircleSize:3.8
OverallDifficulty:9
ApproachRate:9.2
SliderMultiplier:1.8
SliderTickRate:1

[Events]
//Background and Video events
0,0,"0dc90f89-1b2f-4f8b-8106-2a1b7111365e-min.png",0,0
Video,0,"redcrim.mp4"
//Break Periods
//Storyboard Layer 0 (Background)
//Storyboard Layer 1 (Fail)
//Storyboard Layer 2 (Pass)
//Storyboard Layer 3 (Foreground)
//Storyboard Layer 4 (Overlay)
//Storyboard Sound Samples

[TimingPoints]
605,312.5,4,2,1,80,1,0
605,-125,4,2,1,80,0,0
1151,-125,4,2,1,5,0,0
1230,-125,4,2,1,80,0,0
1776,-125,4,2,1,5,0,0
1855,-125,4,2,1,80,0,0
2401,-125,4,2,1,5,0,0
2480,-125,4,2,1,80,0,0
3339,-125,4,2,1,5,0,0
3417,-125,4,2,1,80,0,0
3651,-125,4,2,1,5,0,0
3730,-125,4,2,1,80,0,0
3964,-125,4,2,1,5,0,0
4042,-125,4,2,1,80,0,0
4355,-250,4,2,1,5,0,0
4511,-250,4,2,1,40,0,0
5605,-100,4,2,1,80,0,0
16855,-142.857142857143,4,2,1,50,0,0
18105,-111.111111111111,4,2,1,70,0,0
23105,-125,4,2,1,70,0,0
28105,-111.111111111111,4,2,1,70,0,0
33105,-125,4,2,1,70,0,0
38105,-125,4,2,1,70,0,0
53105,-111.111111111111,4,2,1,70,0,0
55292,-100,4,2,1,70,0,0
58105,-90.9090909090909,4,2,1,80,0,1
58417,-76.9230769230769,4,2,1,80,0,1
59042,-90.9090909090909,4,2,1,80,0,1
60917,-76.9230769230769,4,2,1,80,0,1
61542,-90.9090909090909,4,2,1,80,0,1
67480,-90.9090909090909,4,2,1,80,0,0
68105,-90.9090909090909,4,2,1,80,0,1
68417,-76.9230769230769,4,2,1,80,0,1
69042,-90.9090909090909,4,2,1,80,0,1
70917,-76.9230769230769,4,2,1,80,0,1
71542,-90.9090909090909,4,2,1,80,0,1
78105,-100,4,2,1,80,0,0
83105,-125,4,2,1,80,0,0
83651,-125,4,2,1,5,0,0
83730,-125,4,2,1,80,0,0
84276,-125,4,2,1,5,0,0
84355,-125,4,2,1,80,0,0
84901,-125,4,2,1,5,0,0
84980,-125,4,2,1,80,0,0
85839,-125,4,2,1,5,0,0
85917,-125,4,2,1,80,0,0
86151,-125,4,2,1,5,0,0
86230,-125,4,2,1,80,0,0
86464,-125,4,2,1,5,0,0
86542,-125,4,2,1,80,0,0
86854,-125,4,2,1,5,0,0

[Colours]
Combo1 : 128,128,255
Combo2 : 255,98,98
Combo3 : 111,165,255
Combo4 : 192,192,192

[HitObjects]
117,67,605,6,0,B|245:16|220:158|349:107,1,252,6|0,3:2|0:0,0:0:0:0:
395,17,1230,6,0,P|498:12|450:103,1,252,6|0,3:2|0:0,0:0:0:0:
348,108,1855,6,0,B|293:140|295:195|295:195|367:237|366:312,1,252,6|0,3:2|0:0,0:0:0:0:
291,378,2480,6,0,B|223:362|223:362|218:366|218:366|157:353|157:353|151:356|151:356|83:339,1,216,6|0,3:2|3:2,0:0:0:0:
17,261,3026,1,0,3:2:0:0:
17,261,3105,6,0,P|7:218|70:157,1,108,10|0,0:0|0:0,0:0:0:0:
136,124,3417,6,0,L|154:230,1,108,10|0,0:0|0:0,0:0:0:0:
240,286,3730,6,0,B|291:304|291:304|331:268,1,108,10|0,0:0|0:0,0:0:0:0:
365,171,4042,6,0,P|309:136|267:187,1,144,10|0,0:0|0:0,0:0:0:0:
410,377,4511,5,2,0:0:0:0:
410,377,4667,2,0,L|416:341,1,36,2|2,0:0|0:0,0:0:0:0:
476,223,4980,6,0,L|494:220,3,18,2|2|2|2,0:0|0:0|0:0|0:0,0:0:0:0:
413,145,5292,2,0,L|395:141,3,18,2|2|2|2,0:0|0:0|0:0|0:0,0:0:0:0:
493,82,5605,5,6,3:2:0:0:
421,309,5761,1,2,3:2:0:0:
311,85,5917,1,10,0:0:0:0:
409,284,6073,1,2,3:2:0:0:
401,39,6230,5,2,3:2:0:0:
316,245,6386,1,0,3:2:0:0:
251,3,6542,1,10,0:0:0:0:
396,183,6698,2,0,P|440:185|481:167,1,90,2|2,3:2|3:2,0:0:0:0:
311,85,7011,5,2,3:2:0:0:
409,284,7167,1,10,0:0:0:0:
228,142,7323,1,2,3:2:0:0:
396,183,7480,5,2,3:2:0:0:
167,222,7636,1,0,3:2:0:0:
316,363,7792,2,0,L|331:275,1,90,10|2,0:0|3:2,0:0:0:0:
475,120,8105,5,2,3:2:0:0:
413,335,8261,1,2,3:2:0:0:
376,98,8417,1,10,0:0:0:0:
508,302,8573,1,2,3:2:0:0:
444,23,8730,5,2,3:2:0:0:
390,236,8886,1,0,3:2:0:0:
345,1,9042,1,10,0:0:0:0:
292,206,9198,2,0,P|248:208|207:190,1,90,2|2,3:2|3:2,0:0:0:0:
15,45,9511,5,2,3:2:0:0:
89,256,9667,1,8,0:0:0:0:
5,18,9823,1,2,3:2:0:0:
194,97,9980,5,2,3:2:0:0:
11,191,10136,2,0,L|18:147,1,45,0|0,3:2|3:2,0:0:0:0:
152,5,10292,1,10,0:0:0:0:
184,0,10370,1,8,0:0:0:0:
217,0,10448,1,8,0:0:0:0:
248,10,10526,1,8,0:0:0:0:
272,34,10605,6,0,L|287:122,1,90,6|2,3:2|3:2,0:0:0:0:
451,230,10917,1,10,0:0:0:0:
369,63,11073,1,2,3:2:0:0:
370,289,11230,5,2,3:2:0:0:
461,103,11386,1,0,3:2:0:0:
462,331,11542,1,10,0:0:0:0:
319,152,11698,2,0,P|275:150|234:168,1,90,2|2,3:2|3:2,0:0:0:0:
81,357,12011,5,2,3:2:0:0:
298,246,12167,1,10,0:0:0:0:
101,151,12323,1,2,3:2:0:0:
181,351,12480,2,0,L|197:263,1,90,2|0,3:2|3:2,0:0:0:0:
414,187,12792,2,0,L|429:275,1,90,10|0,0:0|3:2,0:0:0:0:
287,96,13105,6,0,P|222:37|137:56,1,180,2|8,3:2|0:0,0:0:0:0:
261,195,13573,2,0,P|305:197|346:179,1,90,2|0,3:2|3:2,0:0:0:0:
178,283,13886,6,0,L|170:238,1,45,0|0,3:2|3:2,0:0:0:0:
0,91,14042,1,14,0:0:0:0:
114,373,14198,1,8,0:0:0:0:
93,143,14355,5,10,3:2:0:0:
93,143,14433,2,0,L|85:188,1,45,8|0,0:0|0:0,0:0:0:0:
269,240,14589,1,8,0:0:0:0:
269,240,14667,2,0,L|261:195,1,45,10|0,3:2|0:0,0:0:0:0:
62,287,14823,1,10,0:0:0:0:
252,369,14980,6,0,P|286:345|339:347,1,90,10|4,0:3|0:3,0:0:0:0:
416,384,15214,1,4,0:3:0:0:
416,384,15292,2,0,P|425:363|423:341,3,45,2|0|0|0,3:0|3:0|3:0|3:0,0:0:0:0:
376,269,15605,5,8,0:0:0:0:
240,101,16855,6,0,L|230:164,1,62.9999980773926,2|0,0:0|0:0,0:0:0:0:
139,213,17167,1,2,0:0:0:0:
139,213,17323,2,0,L|161:338,1,125.999996154785,2|2,0:0|3:0,0:0:0:0:
171,369,17714,1,0,3:0:0:0:
171,369,17792,1,10,0:0:0:0:
425,177,18105,5,12,3:2:0:0:
250,263,18261,1,8,3:2:0:0:
339,114,18417,6,0,L|325:195,1,80.9999975280763,10|0,0:0|0:0,0:0:0:0:
432,75,18730,2,0,P|411:42|377:20,1,80.9999975280763,10|0,0:0|0:0,0:0:0:0:
201,53,19042,1,10,0:0:0:0:
201,53,19198,6,0,P|242:52|278:34,1,80.9999975280763,2|8,0:0|0:0,0:0:0:0:
117,0,19511,1,2,0:0:0:0:
173,151,19667,1,10,0:0:0:0:
17,108,19823,2,0,P|53:90|94:89,1,80.9999975280763,2|8,0:0|0:0,0:0:0:0:
135,244,20136,2,0,P|101:222|80:189,1,80.9999975280763,2|8,0:0|0:0,0:0:0:0:
235,231,20448,1,2,0:0:0:0:
122,345,20605,5,12,3:2:0:0:
173,151,20761,1,8,3:2:0:0:
221,331,20917,6,0,P|261:329|297:311,1,80.9999975280763,10|0,0:0|0:0,0:0:0:0:
355,141,21230,2,0,P|337:176|335:217,1,80.9999975280763,10|0,0:0|0:0,0:0:0:0:
452,352,21542,1,10,0:0:0:0:
452,352,21698,6,0,P|430:319|397:297,1,80.9999975280763,2|8,0:0|0:0,0:0:0:0:
235,231,22011,1,0,0:0:0:0:
435,204,22167,1,10,0:0:0:0:
273,137,22323,2,0,L|287:57,1,80.9999975280763,2|8,0:0|0:0,0:0:0:0:
135,6,22636,6,0,L|96:17,1,40.4999987640381,0|0,3:0|3:0,0:0:0:0:
20,83,22792,1,10,0:0:0:0:
9,107,22870,1,8,0:0:0:0:
9,134,22948,1,8,0:0:0:0:
18,159,23026,1,8,0:0:0:0:
35,180,23105,6,0,P|50:250|61:321,1,144,6|8,3:2|0:0,0:0:0:0:
186,213,23573,2,0,P|256:198|314:243,1,144,2|0,3:2|3:2,0:0:0:0:
403,354,24042,2,0,P|407:314|413:283,1,72,10|0,0:0|0:0,0:0:0:0:
504,125,24355,6,0,P|501:68|423:63,1,144,2|8,3:2|0:0,0:0:0:0:
293,143,24823,2,0,B|220:161|231:99|156:117,1,144,2|0,3:2|3:2,0:0:0:0:
33,233,25292,2,0,P|26:198|19:163,1,72,10|0,0:0|0:0,0:0:0:0:
152,291,25605,6,0,B|192:260|239:278|239:278|256:299|282:304,1,144,2|8,3:2|0:0,0:0:0:0:
464,242,26073,2,0,P|450:312|444:384,1,144,2|0,3:2|3:2,0:0:0:0:
365,222,26542,2,0,P|358:187|347:143,1,72,10|0,0:0|0:0,0:0:0:0:
194,32,26855,6,0,P|162:88|174:135,1,108,6|2,3:2|0:0,0:0:0:0:
191,158,27167,1,0,3:2:0:0:
291,3,27323,1,10,0:0:0:0:
382,145,27480,6,0,P|399:139|416:134,3,36,8|8|4|4,0:3|0:3|0:3|0:3,0:0:0:0:
311,218,27792,2,0,P|293:212|276:207,3,36,0|0|0|0,3:2|0:0|0:0|0:0,0:0:0:0:
369,302,28105,5,12,3:2:0:0:
289,106,28261,1,8,3:2:0:0:
221,292,28417,6,0,L|141:278,1,80.9999975280763,10|0,0:0|0:0,0:0:0:0:
51,126,28730,2,0,P|84:147|106:181,1,80.9999975280763,10|0,0:0|0:0,0:0:0:0:
22,334,29042,1,10,0:0:0:0:
22,334,29198,6,0,P|23:294|42:259,1,80.9999975280763,2|8,0:0|0:0,0:0:0:0:
227,190,29511,1,0,0:0:0:0:
122,321,29667,1,10,0:0:0:0:
311,246,29823,2,0,L|325:166,1,80.9999975280763,2|8,0:0|0:0,0:0:0:0:
221,292,30136,2,0,L|235:372,1,80.9999975280763,2|8,0:0|0:0,0:0:0:0:
147,223,30448,1,2,0:0:0:0:
333,346,30605,5,12,3:2:0:0:
122,321,30761,1,8,3:2:0:0:
311,245,30917,6,0,P|351:245|388:260,1,80.9999975280763,10|0,0:0|0:0,0:0:0:0:
512,362,31230,2,0,P|491:327|486:288,1,80.9999975280763,10|0,0:0|0:0,0:0:0:0:
511,128,31542,1,10,0:0:0:0:
511,128,31698,6,0,P|492:164|460:189,1,80.9999975280763,2|8,0:0|0:0,0:0:0:0:
360,183,31933,2,0,P|330:154|315:113,1,80.9999975280763,8|0,0:3|3:2,0:0:0:0:
400,21,32167,2,0,L|408:62,3,40.4999987640381,10|8|6|4,0:3|0:3|0:3|0:3,0:0:0:0:
415,98,32479,5,8,0:0:0:0:
266,237,32636,1,8,0:0:0:0:
460,188,32792,1,10,0:0:0:0:
456,207,32870,1,8,0:0:0:0:
453,227,32948,1,8,0:0:0:0:
449,247,33026,1,8,0:0:0:0:
446,267,33105,6,0,P|398:318|327:314,1,144,6|8,3:2|0:0,0:0:0:0:
189,240,33573,2,0,P|180:311|171:382,1,144,2|0,3:2|3:2,0:0:0:0:
91,262,34042,2,0,P|88:227|107:184,1,72,10|0,0:0|0:0,0:0:0:0:
152,51,34355,6,0,B|225:33|214:95|287:77,1,144,2|8,3:2|0:0,0:0:0:0:
415,13,34823,2,0,P|473:43|453:106,1,144,2|0,3:2|3:2,0:0:0:0:
366,238,35292,2,0,P|377:278|383:324,1,72,10|0,0:0|0:0,0:0:0:0:
250,208,35605,6,0,P|196:173|150:182,1,108,2|2,3:2|0:0,0:0:0:0:
128,204,35917,1,8,0:0:0:0:
8,107,36073,2,0,P|21:177|33:248,1,144,2|0,3:2|3:2,0:0:0:0:
174,358,36542,2,0,P|179:322|186:287,1,72,10|0,0:0|0:0,0:0:0:0:
311,131,36855,6,0,P|347:165|342:228,1,108,6|2,3:2|0:0,0:0:0:0:
328,252,37167,1,0,3:2:0:0:
214,103,37323,1,10,0:0:0:0:
186,287,37480,6,0,P|201:313|206:337,2,48,8|8|8,0:3|0:3|0:3,0:0:0:0:
124,217,37792,6,0,P|100:212|79:201,2,48,6|4|4,0:3|0:3|0:3,0:0:0:0:
218,203,38105,5,6,3:2:0:0:
218,203,38261,2,0,L|230:132,1,72,0|0,3:2|0:0,0:0:0:0:
322,37,38573,2,0,P|389:33|434:93,1,144,10|8,0:0|0:0,0:0:0:0:
394,199,39042,5,6,3:2:0:0:
394,199,39198,2,0,P|354:183|319:183,1,72,0|0,3:2|0:0,0:0:0:0:
221,255,39511,2,0,P|212:197|196:113,1,144,8|8,0:0|0:0,0:0:0:0:
103,74,39980,6,0,P|98:109|94:145,1,72,0|0,3:2|3:2,0:0:0:0:
12,313,40292,1,8,0:0:0:0:
149,231,40448,1,8,0:0:0:0:
86,384,40605,5,6,3:2:0:0:
86,384,40761,2,0,P|118:369|154:367,1,72,0|0,3:2|0:0,0:0:0:0:
283,383,41073,2,0,P|328:336|316:261,1,144,10|8,0:0|0:0,0:0:0:0:
196,212,41542,5,6,3:2:0:0:
196,212,41698,2,0,P|205:250|211:288,1,72,0|0,3:2|0:0,0:0:0:0:
288,157,42011,2,0,B|361:139|350:201|423:183,1,144,8|8,0:0|0:0,0:0:0:0:
224,78,42480,5,8,0:3:0:0:
172,256,42636,1,8,0:3:0:0:
288,157,42792,1,4,0:3:0:0:
320,274,42948,1,4,0:3:0:0:
158,155,43105,5,6,3:2:0:0:
158,155,43261,2,0,L|87:167,1,72,0|0,3:2|0:0,0:0:0:0:
28,294,43573,2,0,P|76:343|144:333,1,144,10|8,0:0|0:0,0:0:0:0:
240,238,44042,5,6,3:2:0:0:
240,238,44198,2,0,P|247:273|253:308,1,72,0|0,3:2|0:0,0:0:0:0:
378,374,44511,2,0,B|392:355|416:345|416:345|392:253,1,144,8|8,0:0|0:0,0:0:0:0:
473,159,44980,6,0,L|480:87,1,72,2|0,3:2|3:2,0:0:0:0:
299,14,45292,1,8,0:0:0:0:
373,152,45448,1,8,0:0:0:0:
206,55,45605,5,6,3:2:0:0:
206,55,45761,2,0,P|170:57|137:71,1,72,2|0,3:2|0:0,0:0:0:0:
70,213,46073,2,0,B|110:182|157:200|157:200|174:221|200:226,1,144,8|8,0:0|0:0,0:0:0:0:
333,197,46542,5,4,3:2:0:0:
333,197,46698,2,0,P|328:232|324:268,1,72,0|0,3:2|0:0,0:0:0:0:
416,375,47011,2,0,P|461:339|463:245,1,144,8|8,0:0|0:0,0:0:0:0:
352,94,47480,6,0,P|334:99|317:104,3,36,8|8|8|8,0:3|0:3|0:3|0:3,0:0:0:0:
252,161,47792,2,0,P|234:156|217:151,3,36,4|4|4|4,0:3|0:3|0:3|0:3,0:0:0:0:
150,206,48105,5,6,3:2:0:0:
150,206,48261,2,0,P|135:238|139:274,1,72,0|0,3:2|0:0,0:0:0:0:
239,365,48573,2,0,P|309:352|381:343,1,144,10|8,0:0|0:0,0:0:0:0:
480,208,49042,5,6,3:2:0:0:
480,208,49198,2,0,P|445:202|410:192,1,72,0|0,3:2|0:0,0:0:0:0:
302,108,49511,2,0,B|252:115|252:115|213:100|213:100|162:107,1,144,8|8,0:0|0:0,0:0:0:0:
0,160,49980,5,0,3:2:0:0:
57,64,50136,1,8,0:0:0:0:
59,72,50214,1,8,0:0:0:0:
61,80,50292,1,0,3:2:0:0:
111,229,50448,1,8,0:0:0:0:
109,237,50526,1,8,0:0:0:0:
107,245,50604,5,6,3:2:0:0:
147,134,50761,2,0,P|179:118|214:117,1,72,8|0,0:2|0:0,0:0:0:0:
355,181,51073,1,10,0:0:0:0:
312,88,51230,2,0,L|317:52,3,36,8|8|4|4,0:3|0:3|0:3|0:3,0:0:0:0:
321,25,51542,2,0,L|391:12,1,72,14|0,0:0|0:0,0:0:0:0:
261,196,51855,5,8,0:0:0:0:
157,31,52011,1,0,3:0:0:0:
165,226,52167,1,0,3:0:0:0:
253,0,52323,5,8,0:0:0:0:
100,115,52480,1,0,3:0:0:0:
300,91,52636,1,0,3:0:0:0:
57,23,52792,5,10,0:0:0:0:
34,37,52870,1,8,0:0:0:0:
16,57,52948,1,8,0:0:0:0:
4,81,53026,1,8,0:0:0:0:
0,107,53105,6,0,L|14:186,1,80.9999975280763,6|2,3:2|3:2,0:0:0:0:
28,226,53339,1,0,0:0:0:0:
28,226,53417,1,8,0:0:0:0:
194,355,53573,2,0,L|208:276,1,80.9999975280763,2|0,3:2|3:2,0:0:0:0:
329,133,53886,1,2,3:2:0:0:
128,213,54042,1,8,0:0:0:0:
219,23,54198,6,0,L|233:102,1,80.9999975280763,2|0,3:2|3:2,0:0:0:0:
409,195,54511,2,0,P|427:159|428:119,1,80.9999975280763,2|8,3:2|0:0,0:0:0:0:
255,202,54823,1,2,3:2:0:0:
418,296,54980,1,0,3:2:0:0:
329,133,55136,1,0,3:2:0:0:
216,348,55292,2,0,P|169:351|130:335,1,90,8|0,0:0|3:2,0:0:0:0:
117,305,55526,1,0,3:2:0:0:
117,305,55605,5,10,0:0:0:0:
233,102,55761,2,0,L|248:190,1,90,10|0,0:0|3:2,0:0:0:0:
261,230,55995,1,0,3:2:0:0:
261,230,56073,5,10,0:0:0:0:
49,152,56230,2,0,P|46:105|62:66,1,90,10|0,0:0|3:2,0:0:0:0:
96,49,56464,1,0,3:2:0:0:
96,49,56542,5,10,0:0:0:0:
184,296,56698,1,8,0:0:0:0:
297,71,56855,5,10,0:3:0:0:
328,59,56933,1,8,0:3:0:0:
361,61,57011,1,10,0:3:0:0:
391,77,57089,1,8,0:3:0:0:
412,103,57167,2,0,L|419:147,3,45,4|4|6|4,0:3|0:3|0:3|0:3,0:0:0:0:
429,183,57480,5,8,3:2:0:0:
197,57,57636,1,10,3:2:0:0:
312,361,58105,6,0,L|329:262,1,99.0000030212403,4|0,3:2|3:0,0:0:0:0:
118,142,58417,2,0,P|117:208|164:253,1,116.999994644165,10|0,0:0|3:0,0:0:0:0:
243,211,58651,1,8,0:0:0:0:
243,211,58730,2,0,P|247:153|212:107,1,116.999994644165,2|0,3:0|3:0,0:0:0:0:
6,317,59042,2,0,P|79:330|152:342,1,148.50000453186,10|0,0:0|3:0,0:0:0:0:
235,356,59355,5,2,3:2:0:0:
118,142,59511,1,2,3:0:0:0:
310,288,59667,1,8,0:0:0:0:
192,74,59823,1,2,3:0:0:0:
192,74,59901,1,8,0:0:0:0:
192,74,59980,1,0,3:0:0:0:
146,308,60136,1,2,3:0:0:0:
284,115,60292,2,0,L|382:132,1,99.0000030212403,8|0,0:0|0:0,0:0:0:0:
311,384,60605,5,2,3:2:0:0:
203,175,60761,1,0,3:0:0:0:
392,323,60917,2,0,L|507:303,1,116.999994644165,10|0,0:0|3:0,0:0:0:0:
436,232,61151,1,8,0:0:0:0:
436,232,61230,2,0,P|379:221|326:245,1,116.999994644165,2|0,3:0|3:0,0:0:0:0:
136,384,61542,2,0,P|126:323|111:236,1,148.50000453186,10|0,0:0|3:0,0:0:0:0:
99,159,61855,5,2,3:2:0:0:
233,355,62011,1,2,3:0:0:0:
18,281,62167,1,8,0:0:0:0:
228,158,62323,2,0,L|211:256,1,99.0000030212403,2|0,3:0|3:0,0:0:0:0:
22,129,62636,1,2,3:0:0:0:
246,58,62792,1,8,0:0:0:0:
109,223,62948,1,8,0:0:0:0:
109,223,63026,1,8,0:0:0:0:
109,223,63105,6,0,L|126:321,1,99.0000030212403,6|0,3:2|3:0,0:0:0:0:
259,154,63417,1,8,0:0:0:0:
222,377,63573,1,2,3:0:0:0:
222,377,63651,1,8,0:0:0:0:
222,377,63730,1,0,3:0:0:0:
160,134,63886,1,0,3:0:0:0:
296,306,64042,2,0,P|347:308|390:284,1,99.0000030212403,10|0,0:0|0:0,0:0:0:0:
413,201,64276,1,0,3:0:0:0:
413,201,64355,6,0,L|315:184,1,99.0000030212403,2|0,3:2|3:0,0:0:0:0:
450,20,64667,1,8,0:0:0:0:
494,278,64823,1,2,3:0:0:0:
494,278,64901,1,8,0:0:0:0:
494,278,64980,1,0,3:0:0:0:
370,82,65136,1,0,3:0:0:0:
317,322,65292,5,10,0:0:0:0:
464,121,65448,1,0,3:0:0:0:
152,93,65605,5,14,0:0:0:0:
396,255,65761,1,0,3:0:0:0:
227,26,65917,1,0,3:0:0:0:
317,322,66073,5,14,0:0:0:0:
328,32,66230,1,0,3:0:0:0:
222,290,66386,1,0,3:0:0:0:
450,170,66542,5,14,0:0:0:0:
160,100,66698,1,0,3:0:0:0:
160,100,66776,1,0,3:0:0:0:
160,100,66855,2,0,P|109:98|66:122,1,99.0000030212403,14|0,0:0|3:0,0:0:0:0:
305,233,67167,1,14,0:0:0:0:
199,5,67323,1,10,0:0:0:0:
222,290,67480,5,8,0:0:0:0:
247,316,67558,1,8,0:0:0:0:
281,331,67636,1,10,0:0:0:0:
318,333,67714,1,8,0:0:0:0:
353,322,67792,2,0,P|356:303|365:272,3,49.5000015106202,8|8|8|8,0:3|0:3|0:3|0:3,0:0:0:0:
410,201,68105,6,0,L|508:218,1,99.0000030212403,6|0,3:2|3:0,0:0:0:0:
331,14,68417,2,0,P|265:13|220:60,1,116.999994644165,10|0,0:0|3:0,0:0:0:0:
264,139,68651,1,8,0:0:0:0:
264,139,68730,2,0,P|321:143|367:108,1,116.999994644165,2|0,3:0|3:0,0:0:0:0:
129,9,69042,2,0,P|122:82|115:156,1,148.50000453186,10|0,0:0|3:0,0:0:0:0:
109,241,69355,5,2,3:2:0:0:
227,44,69511,1,2,3:0:0:0:
16,143,69667,1,8,0:0:0:0:
234,248,69823,1,2,3:0:0:0:
234,248,69901,1,8,0:0:0:0:
234,248,69980,1,0,3:0:0:0:
100,47,70136,1,2,3:0:0:0:
16,259,70292,2,0,P|65:262|109:240,1,99.0000030212403,8|0,0:0|0:0,0:0:0:0:
301,71,70605,6,0,L|318:169,1,99.0000030212403,2|0,3:2|3:0,0:0:0:0:
508,347,70917,2,0,P|512:289|477:243,1,116.999994644165,10|0,0:0|3:0,0:0:0:0:
381,255,71151,1,8,0:0:0:0:
381,255,71230,2,0,L|361:370,1,116.999994644165,2|0,3:0|3:0,0:0:0:0:
196,194,71542,1,8,0:0:0:0:
420,161,71698,1,2,0:0:0:0:
420,161,71776,1,0,3:0:0:0:
420,161,71855,5,2,3:2:0:0:
266,335,72011,1,2,3:0:0:0:
335,89,72167,1,8,0:0:0:0:
190,268,72323,1,2,3:0:0:0:
190,268,72401,1,8,0:0:0:0:
190,268,72480,2,0,P|141:271|97:249,1,99.0000030212403,0|2,3:0|3:0,0:0:0:0:
235,78,72792,1,8,0:0:0:0:
274,342,72948,1,8,0:0:0:0:
274,342,73026,1,8,0:0:0:0:
274,342,73105,5,6,3:2:0:0:
161,170,73261,1,0,3:0:0:0:
355,282,73417,1,8,0:0:0:0:
223,90,73573,1,2,3:0:0:0:
223,90,73651,1,8,0:0:0:0:
223,90,73730,2,0,P|180:69|131:73,1,99.0000030212403,0|0,3:0|3:0,0:0:0:0:
263,240,74042,2,0,P|323:227|414:211,1,148.50000453186,10|0,0:0|3:0,0:0:0:0:
493,195,74355,5,2,3:2:0:0:
321,66,74511,1,0,3:0:0:0:
406,314,74667,1,8,0:0:0:0:
454,101,74823,1,2,3:0:0:0:
454,101,74901,1,8,0:0:0:0:
454,101,74980,2,0,L|471:3,1,99.0000030212403,0|0,3:0|3:0,0:0:0:0:
220,104,75292,1,10,0:0:0:0:
417,219,75448,1,0,3:0:0:0:
417,219,75526,1,0,3:0:0:0:
417,219,75605,5,14,0:0:0:0:
316,6,75761,2,0,L|308:55,1,49.5000015106202,0|0,3:0|3:0,0:0:0:0:
262,277,75917,5,12,0:0:0:0:
409,49,76073,2,0,L|417:98,1,49.5000015106202,2|0,3:0|3:0,0:0:0:0:
261,167,76230,5,8,0:3:0:0:
228,184,76308,1,8,0:3:0:0:
191,187,76386,1,4,0:3:0:0:
156,177,76464,1,4,0:3:0:0:
126,155,76542,1,14,0:0:0:0:
409,49,76698,1,8,0:0:0:0:
192,36,76855,5,10,3:2:0:0:
192,36,76933,2,0,L|200:85,1,49.5000015106202,8|8,0:0|0:0,0:0:0:0:
354,217,77089,1,8,0:0:0:0:
354,217,77167,2,0,L|362:168,1,49.5000015106202,8|0,3:2|0:0,0:0:0:0:
166,274,77323,1,10,0:3:0:0:
380,315,77480,5,8,0:3:0:0:
413,299,77558,1,8,0:3:0:0:
438,272,77636,1,8,0:3:0:0:
452,238,77714,1,8,0:3:0:0:
452,200,77792,2,0,P|445:177|442:152,3,49.5000015106202,6|4|4|4,0:3|0:3|0:3|0:3,0:0:0:0:
455,117,78105,5,6,3:2:0:0:
283,289,78261,1,2,3:2:0:0:
365,71,78417,1,10,0:0:0:0:
211,218,78573,1,2,3:2:0:0:
281,14,78730,5,2,3:2:0:0:
372,241,78886,1,0,3:2:0:0:
192,63,79042,1,10,0:0:0:0:
283,289,79198,2,0,P|313:324|368:342,1,90,2|2,3:2|3:2,0:0:0:0:
507,144,79511,5,2,3:2:0:0:
286,187,79667,1,10,0:0:0:0:
512,246,79823,1,2,3:2:0:0:
408,13,79980,5,2,3:2:0:0:
372,241,80136,1,0,3:2:0:0:
308,26,80292,2,0,P|264:24|223:42,1,90,10|0,0:0|3:2,0:0:0:0:
134,292,80605,5,2,3:2:0:0:
282,124,80761,1,2,3:2:0:0:
71,213,80917,1,10,0:0:0:0:
222,42,81073,1,2,3:2:0:0:
235,286,81230,5,2,3:2:0:0:
97,115,81386,1,0,3:2:0:0:
315,220,81542,1,10,0:0:0:0:
71,213,81698,2,0,P|30:191|5:156,1,90,2|2,3:2|3:2,0:0:0:0:
222,42,82011,5,2,3:2:0:0:
162,256,82167,1,8,0:0:0:0:
35,59,82323,1,2,3:2:0:0:
80,315,82480,5,2,3:2:0:0:
132,88,82636,1,0,3:2:0:0:
248,309,82792,1,10,0:0:0:0:
279,322,82870,1,8,0:0:0:0:
313,322,82948,1,8,0:0:0:0:
344,310,83026,1,8,0:0:0:0:
369,287,83105,6,0,B|389:125|389:125|391:176|433:200,1,252,6|0,3:2|0:0,0:0:0:0:
489,114,83730,6,0,P|501:6|393:22,1,252,6|0,3:2|0:0,0:0:0:0:
366,121,84355,6,0,B|237:74|260:208|134:163,1,252,6|0,3:2|0:0,0:0:0:0:
31,146,84980,6,0,B|39:174|60:296|60:296|90:266|120:265,1,216,6|0,3:2|3:2,0:0:0:0:
204,307,85527,1,0,3:2:0:0:
204,307,85605,6,0,B|256:320|256:320|300:289,1,108,10|0,0:0|0:0,0:0:0:0:
378,219,85917,6,0,P|371:176|361:110,1,108,10|0,0:0|0:0,0:0:0:0:
387,10,86230,6,0,P|435:-4|479:31,1,108,10|0,0:0|0:0,0:0:0:0:
498,147,86542,6,0,P|487:217|475:289,1,144,14|0,0:0|0:0,0:0:0:0:
