osu file format v14

[General]
AudioFilename: audio.mp3
AudioLeadIn: 0
PreviewTime: 67153
Countdown: 0
SampleSet: Soft
StackLeniency: 0.7
Mode: 3
LetterboxInBreaks: 0
SpecialStyle: 0
WidescreenStoryboard: 1

[Editor]
Bookmarks: 1362,6362,26362,28862,48862,63862,68862,88862,108862,126362,128862,148862,153862,171362,173862,193862,198862,203862,208862,228862,238862,258862
DistanceSpacing: 0.8
BeatDivisor: 4
GridSize: 32
TimelineZoom: 2.5

[Metadata]
Title:Red Criminal
TitleUnicode:Red Criminal
Artist:THE ORAL CIGARETTES
ArtistUnicode:THE ORAL CIGARETTES
Creator:Antipole
Version:Scarlet Eternity
Source:SCARLET NEXUS
Tags:symmatrix- symmatrix doctortetravoid famoss toc japanese rock jrock j-rock op opening anime video game yuito sumeragi kasane randall あきらかにあきら Akira Akirakani 中西雅哉 Masaya Nakanishi 山中拓也 Takuya Yamanaka 鈴木重伸 Shigenobu Suzuki full version
BeatmapID:3591051
BeatmapSetID:1536207

[Difficulty]
HPDrainRate:8
CircleSize:4
OverallDifficulty:8
ApproachRate:5
SliderMultiplier:1.4
SliderTickRate:1

[Events]
//Background and Video events
0,0,"bg.png",0,0
//Break Periods
//Storyboard Layer 0 (Background)
//Storyboard Layer 1 (Fail)
//Storyboard Layer 2 (Pass)
//Storyboard Layer 3 (Foreground)
//Storyboard Layer 4 (Overlay)
//Storyboard Sound Samples
Sample,26127,0,"tom4.wav",70
Sample,258627,0,"tom4.wav",70

[TimingPoints]
1362,312.5,4,2,1,50,1,0
1363,-52.6315789473684,4,2,1,50,0,0
1518,-142.857142857143,4,2,1,50,0,0
1830,-100,4,2,1,50,0,0
1987,-52.63157895,4,2,1,50,0,0
2142,-142.8571429,4,2,1,50,0,0
2454,-100,4,2,1,50,0,0
2612,-52.63157895,4,2,1,50,0,0
2767,-142.8571429,4,2,1,50,0,0
3079,-100,4,2,1,50,0,0
3237,-52.63157895,4,2,1,50,0,0
3392,-142.8571429,4,2,1,50,0,0
3704,-100,4,2,1,50,0,0
3862,-50,4,2,1,50,0,0
3940,-200,4,2,1,50,0,0
4096,-100,4,2,1,50,0,0
4174,-50,4,2,1,50,0,0
4252,-200,4,2,1,50,0,0
4408,-100,4,2,1,50,0,0
4487,-50,4,2,1,50,0,0
4565,-200,4,2,1,50,0,0
4721,-100,4,2,1,50,0,0
4799,-50,4,2,1,50,0,0
4877,-200,4,2,1,50,0,0
5033,-111.111111111111,4,2,1,50,0,0
5112,-125,4,2,1,50,0,0
6049,-123.4567898,4,2,1,50,0,0
6055,-121.0946958,4,2,1,50,0,0
6061,-118.8212927,4,2,1,50,0,0
6067,-116.6316772,4,2,1,50,0,0
6074,-114.521301,4,2,1,50,0,0
6080,-112.4859394,4,2,1,50,0,0
6086,-110.5216625,4,2,1,50,0,0
6092,-108.6248103,4,2,1,50,0,0
6099,-106.7919697,4,2,1,50,0,0
6105,-105.0199543,4,2,1,50,0,0
6111,-103.3057857,4,2,1,50,0,0
6117,-101.6466768,4,2,1,50,0,0
6124,-100.0400167,4,2,1,50,0,0
6130,-98.48335126,4,2,1,50,0,0
6136,-96.97439393,4,2,1,50,0,0
6142,-95.51097915,4,2,1,50,0,0
6149,-94.09107576,4,2,1,50,0,0
6155,-92.71277161,4,2,1,50,0,0
6161,-91.37426498,4,2,1,50,0,0
6167,-90.07385671,4,2,1,50,0,0
6174,-88.80994303,4,2,1,50,0,0
6180,-87.58100891,4,2,1,50,0,0
6186,-86.38562206,4,2,1,50,0,0
6192,-85.22242732,4,2,1,50,0,0
6199,-84.09014155,4,2,1,50,0,0
6205,-82.98754891,4,2,1,50,0,0
6211,-81.91349652,4,2,1,50,0,0
6218,-80.86689039,4,2,1,50,0,0
6224,-79.84669176,4,2,1,50,0,0
6230,-78.85191362,4,2,1,50,0,0
6236,-77.88161757,4,2,1,50,0,0
6243,-76.93491079,4,2,1,50,0,0
6249,-76.01094341,4,2,1,50,0,0
6255,-75.10890584,4,2,1,50,0,0
6261,-74.22802652,4,2,1,50,0,0
6268,-73.36756963,4,2,1,50,0,0
6274,-72.52683311,4,2,1,50,0,0
6280,-71.70514669,4,2,1,50,0,0
6286,-70.90187015,4,2,1,50,0,0
6293,-70.11639163,4,2,1,50,0,0
6299,-69.34812609,4,2,1,50,0,0
6305,-68.59651385,4,2,1,50,0,0
6311,-67.86101925,4,2,1,50,0,0
6318,-67.14112934,4,2,1,50,0,0
6324,-66.43635272,4,2,1,50,0,0
6330,-65.7462184,4,2,1,50,0,0
6336,-65.07027476,4,2,1,50,0,0
6343,-64.40808857,4,2,1,50,0,0
6349,-63.75924406,4,2,1,50,0,0
6355,-63.12334203,4,2,1,50,0,0
6362,-100,4,2,1,50,0,0
28549,-50,4,2,1,50,0,0
28555,-51.54639023,4,2,1,50,0,0
28561,-53.1914895,4,2,1,50,0,0
28567,-54.94505336,4,2,1,50,0,0
28573,-56.81818213,4,2,1,50,0,0
28580,-58.82352776,4,2,1,50,0,0
28586,-60.97561029,4,2,1,50,0,0
28592,-63.29113752,4,2,1,50,0,0
28598,-65.78947451,4,2,1,50,0,0
28605,-68.4931489,4,2,1,50,0,0
28611,-71.42857264,4,2,1,50,0,0
28617,-74.62686381,4,2,1,50,0,0
28623,-78.12500175,4,2,1,50,0,0
28630,-81.96721119,4,2,1,50,0,0
28636,-86.20689903,4,2,1,50,0,0
28642,-90.90908894,4,2,1,50,0,0
28648,-96.15384968,4,2,1,50,0,0
28655,-102.0408143,4,2,1,50,0,0
28661,-108.6956502,4,2,1,50,0,0
28667,-116.2790678,4,2,1,50,0,0
28673,-124.9999981,4,2,1,50,0,0
28680,-135.1351334,4,2,1,50,0,0
28686,-147.058822,4,2,1,50,0,0
28692,-161.2903213,4,2,1,50,0,0
28698,-178.5714278,4,2,1,50,0,0
28705,-200,4,2,1,50,0,0
28783,-196.078435,4,2,1,50,0,0
28788,-164.1137847,4,2,1,50,0,0
28793,-141.1100627,4,2,1,50,0,0
28798,-123.7623811,4,2,1,50,0,0
28804,-110.2130809,4,2,1,50,0,0
28809,-99.33774897,4,2,1,50,0,0
28814,-90.41591757,4,2,1,50,0,0
28819,-82.96460048,4,2,1,50,0,0
28825,-76.64793217,4,2,1,50,0,0
28830,-71.225069,4,2,1,50,0,0
28835,-66.51884715,4,2,1,50,0,0
28840,-62.39600861,4,2,1,50,0,0
28846,-58.75440582,4,2,1,50,0,0
28851,-55.51443453,4,2,1,50,0,0
28856,-52.6131169,4,2,1,50,0,0
28862,-100,4,2,1,50,0,0
68393,-66.6666666666667,4,2,1,50,0,0
68471,-200,4,2,1,50,0,0
68549,-196.078435,4,2,1,50,0,0
68556,-186.1330913,4,2,1,50,0,0
68564,-177.1479266,4,2,1,50,0,0
68572,-168.9902927,4,2,1,50,0,0
68580,-161.5508839,4,2,1,50,0,0
68588,-154.7388759,4,2,1,50,0,0
68595,-148.4780992,4,2,1,50,0,0
68603,-142.7042468,4,2,1,50,0,0
68611,-137.3626402,4,2,1,50,0,0
68619,-132.4064919,4,2,1,50,0,0
68627,-127.7955225,4,2,1,50,0,0
68635,-123.4949027,4,2,1,50,0,0
68642,-119.4743113,4,2,1,50,0,0
68650,-115.7072601,4,2,1,50,0,0
68658,-112.1704996,4,2,1,50,0,0
68666,-108.8435388,4,2,1,50,0,0
68674,-105.7082475,4,2,1,50,0,0
68682,-102.7485197,4,2,1,50,0,0
68689,-99.95002861,4,2,1,50,0,0
68697,-97.29992558,4,2,1,50,0,0
68705,-94.78672386,4,2,1,50,0,0
68713,-92.40009248,4,2,1,50,0,0
68721,-90.13068539,4,2,1,50,0,0
68728,-87.9700915,4,2,1,50,0,0
68736,-85.91065039,4,2,1,50,0,0
68744,-83.94543782,4,2,1,50,0,0
68752,-82.06811532,4,2,1,50,0,0
68760,-80.27292347,4,2,1,50,0,0
68768,-78.55459533,4,2,1,50,0,0
68775,-76.90828371,4,2,1,50,0,0
68783,-75.32956767,4,2,1,50,0,0
68791,-73.81435487,4,2,1,50,0,0
68799,-72.35890174,4,2,1,50,0,0
68807,-70.9597293,4,2,1,50,0,0
68815,-69.61364076,4,2,1,50,0,0
68822,-68.31767698,4,2,1,50,0,0
68830,-67.06907862,4,2,1,50,0,0
68838,-65.86530595,4,2,1,50,0,0
68846,-64.70397762,4,2,1,50,0,0
68854,-63.58289732,4,2,1,50,0,0
68862,-100,4,2,1,50,0,1
78237,-100,4,2,1,50,0,0
78862,-100,4,2,1,50,0,1
88862,-100,4,2,1,50,0,0
108237,-66.66666667,4,2,1,50,0,0
108243,-67.5675667,4,2,1,50,0,0
108249,-68.4931489,4,2,1,50,0,0
108255,-69.44444168,4,2,1,50,0,0
108261,-70.42253734,4,2,1,50,0,0
108268,-71.42857264,4,2,1,50,0,0
108274,-72.46376837,4,2,1,50,0,0
108280,-73.52941099,4,2,1,50,0,0
108286,-74.62686381,4,2,1,50,0,0
108293,-75.75757275,4,2,1,50,0,0
108299,-76.92307974,4,2,1,50,0,0
108305,-78.12500175,4,2,1,50,0,0
108311,-79.36507997,4,2,1,50,0,0
108318,-80.64516067,4,2,1,50,0,0
108324,-81.96721119,4,2,1,50,0,0
108330,-83.33333002,4,2,1,50,0,0
108336,-84.74576648,4,2,1,50,0,0
108343,-86.20689903,4,2,1,50,0,0
108349,-87.71929935,4,2,1,50,0,0
108355,-89.28571391,4,2,1,50,0,0
108361,-90.90908894,4,2,1,50,0,0
108368,-92.59258891,4,2,1,50,0,0
108374,-94.33962773,4,2,1,50,0,0
108380,-96.15384968,4,2,1,50,0,0
108386,-98.03921752,4,2,1,50,0,0
108393,-100,4,2,1,50,0,0
108399,-102.0408143,4,2,1,50,0,0
108405,-104.166669,4,2,1,50,0,0
108411,-106.382979,4,2,1,50,0,0
108417,-108.6956502,4,2,1,50,0,0
108424,-111.1111141,4,2,1,50,0,0
108430,-113.6363643,4,2,1,50,0,0
108436,-116.2790678,4,2,1,50,0,0
108442,-119.0476228,4,2,1,50,0,0
108449,-121.9512206,4,2,1,50,0,0
108455,-124.9999981,4,2,1,50,0,0
108461,-128.2051329,4,2,1,50,0,0
108467,-131.578949,4,2,1,50,0,0
108474,-135.1351334,4,2,1,50,0,0
108480,-138.8888834,4,2,1,50,0,0
108486,-142.8571453,4,2,1,50,0,0
108492,-147.058822,4,2,1,50,0,0
108499,-151.5151455,4,2,1,50,0,0
108505,-156.2500035,4,2,1,50,0,0
108511,-161.2903213,4,2,1,50,0,0
108517,-166.66666,4,2,1,50,0,0
108524,-172.4137981,4,2,1,50,0,0
108530,-178.5714278,4,2,1,50,0,0
108536,-185.1851778,4,2,1,50,0,0
108542,-192.3076994,4,2,1,50,0,0
108549,-200,4,2,1,50,0,0
108555,-192.3076994,4,2,1,50,0,0
108561,-185.1851778,4,2,1,50,0,0
108567,-178.5714278,4,2,1,50,0,0
108574,-172.4137981,4,2,1,50,0,0
108580,-166.66666,4,2,1,50,0,0
108586,-161.2903213,4,2,1,50,0,0
108592,-156.2500035,4,2,1,50,0,0
108599,-151.5151455,4,2,1,50,0,0
108605,-147.058822,4,2,1,50,0,0
108611,-142.8571453,4,2,1,50,0,0
108617,-138.8888834,4,2,1,50,0,0
108624,-135.1351334,4,2,1,50,0,0
108630,-131.578949,4,2,1,50,0,0
108636,-128.2051329,4,2,1,50,0,0
108642,-124.9999981,4,2,1,50,0,0
108649,-121.9512206,4,2,1,50,0,0
108655,-119.0476228,4,2,1,50,0,0
108661,-116.2790678,4,2,1,50,0,0
108667,-113.6363643,4,2,1,50,0,0
108674,-111.1111141,4,2,1,50,0,0
108680,-108.6956502,4,2,1,50,0,0
108686,-106.382979,4,2,1,50,0,0
108692,-104.166669,4,2,1,50,0,0
108699,-102.0408143,4,2,1,50,0,0
108705,-100,4,2,1,50,0,0
108711,-98.03921752,4,2,1,50,0,0
108718,-96.15384968,4,2,1,50,0,0
108724,-94.33962773,4,2,1,50,0,0
108730,-92.59258891,4,2,1,50,0,0
108736,-90.90908894,4,2,1,50,0,0
108743,-89.28571391,4,2,1,50,0,0
108749,-87.71929935,4,2,1,50,0,0
108755,-86.20689903,4,2,1,50,0,0
108761,-84.74576648,4,2,1,50,0,0
108768,-83.33333002,4,2,1,50,0,0
108774,-81.96721119,4,2,1,50,0,0
108780,-80.64516067,4,2,1,50,0,0
108786,-79.36507997,4,2,1,50,0,0
108793,-78.12500175,4,2,1,50,0,0
108799,-76.92307974,4,2,1,50,0,0
108805,-75.75757275,4,2,1,50,0,0
108811,-74.62686381,4,2,1,50,0,0
108818,-73.52941099,4,2,1,50,0,0
108824,-72.46376837,4,2,1,50,0,0
108830,-71.42857264,4,2,1,50,0,0
108836,-70.42253734,4,2,1,50,0,0
108843,-69.44444168,4,2,1,50,0,0
108849,-68.4931489,4,2,1,50,0,0
108855,-67.5675667,4,2,1,50,0,0
108862,-100,4,2,1,50,0,0
128862,-100,4,2,1,50,0,1
138237,-100,4,2,1,50,0,0
138862,-100,4,2,1,50,0,1
148862,-125,4,2,1,50,0,0
151362,-117.647058823529,4,2,1,50,0,0
151987,-111.111111111111,4,2,1,50,0,0
152612,-105.263157894737,4,2,1,50,0,0
153237,-100,4,2,1,50,0,0
173862,-100,4,2,1,50,0,1
178862,-100,4,2,1,50,0,0
183862,-100,4,2,1,50,0,1
188862,-100,4,2,1,50,0,0
198393,-66.6666666666667,4,2,1,50,0,0
198471,-200,4,2,1,50,0,0
198549,-196.078435,4,2,1,50,0,0
198556,-186.1330913,4,2,1,50,0,0
198564,-177.1479266,4,2,1,50,0,0
198572,-168.9902927,4,2,1,50,0,0
198580,-161.5508839,4,2,1,50,0,0
198588,-154.7388759,4,2,1,50,0,0
198595,-148.4780992,4,2,1,50,0,0
198603,-142.7042468,4,2,1,50,0,0
198611,-137.3626402,4,2,1,50,0,0
198619,-132.4064919,4,2,1,50,0,0
198627,-127.7955225,4,2,1,50,0,0
198635,-123.4949027,4,2,1,50,0,0
198642,-119.4743113,4,2,1,50,0,0
198650,-115.7072601,4,2,1,50,0,0
198658,-112.1704996,4,2,1,50,0,0
198666,-108.8435388,4,2,1,50,0,0
198674,-105.7082475,4,2,1,50,0,0
198682,-102.7485197,4,2,1,50,0,0
198689,-99.95002861,4,2,1,50,0,0
198697,-97.29992558,4,2,1,50,0,0
198705,-94.78672386,4,2,1,50,0,0
198713,-92.40009248,4,2,1,50,0,0
198721,-90.13068539,4,2,1,50,0,0
198728,-87.9700915,4,2,1,50,0,0
198736,-85.91065039,4,2,1,50,0,0
198744,-83.94543782,4,2,1,50,0,0
198752,-82.06811532,4,2,1,50,0,0
198760,-80.27292347,4,2,1,50,0,0
198768,-78.55459533,4,2,1,50,0,0
198775,-76.90828371,4,2,1,50,0,0
198783,-75.32956767,4,2,1,50,0,0
198791,-73.81435487,4,2,1,50,0,0
198799,-72.35890174,4,2,1,50,0,0
198807,-70.9597293,4,2,1,50,0,0
198815,-69.61364076,4,2,1,50,0,0
198822,-68.31767698,4,2,1,50,0,0
198830,-67.06907862,4,2,1,50,0,0
198838,-65.86530595,4,2,1,50,0,0
198846,-64.70397762,4,2,1,50,0,0
198854,-63.58289732,4,2,1,50,0,0
198862,-100,4,2,1,50,0,0
208393,-66.6666666666667,4,2,1,50,0,0
208471,-200,4,2,1,50,0,0
208549,-196.078435,4,2,1,50,0,0
208556,-186.1330913,4,2,1,50,0,0
208564,-177.1479266,4,2,1,50,0,0
208572,-168.9902927,4,2,1,50,0,0
208580,-161.5508839,4,2,1,50,0,0
208588,-154.7388759,4,2,1,50,0,0
208595,-148.4780992,4,2,1,50,0,0
208603,-142.7042468,4,2,1,50,0,0
208611,-137.3626402,4,2,1,50,0,0
208619,-132.4064919,4,2,1,50,0,0
208627,-127.7955225,4,2,1,50,0,0
208635,-123.4949027,4,2,1,50,0,0
208642,-119.4743113,4,2,1,50,0,0
208650,-115.7072601,4,2,1,50,0,0
208658,-112.1704996,4,2,1,50,0,0
208666,-108.8435388,4,2,1,50,0,0
208674,-105.7082475,4,2,1,50,0,0
208682,-102.7485197,4,2,1,50,0,0
208689,-99.95002861,4,2,1,50,0,0
208697,-97.29992558,4,2,1,50,0,0
208705,-94.78672386,4,2,1,50,0,0
208713,-92.40009248,4,2,1,50,0,0
208721,-90.13068539,4,2,1,50,0,0
208728,-87.9700915,4,2,1,50,0,0
208736,-85.91065039,4,2,1,50,0,0
208744,-83.94543782,4,2,1,50,0,0
208752,-82.06811532,4,2,1,50,0,0
208760,-80.27292347,4,2,1,50,0,0
208768,-78.55459533,4,2,1,50,0,0
208775,-76.90828371,4,2,1,50,0,0
208783,-75.32956767,4,2,1,50,0,0
208791,-73.81435487,4,2,1,50,0,0
208799,-72.35890174,4,2,1,50,0,0
208807,-70.9597293,4,2,1,50,0,0
208815,-69.61364076,4,2,1,50,0,0
208822,-68.31767698,4,2,1,50,0,0
208830,-67.06907862,4,2,1,50,0,0
208838,-65.86530595,4,2,1,50,0,0
208846,-64.70397762,4,2,1,50,0,0
208854,-63.58289732,4,2,1,50,0,0
208862,-100,4,2,1,50,0,1
218237,-100,4,2,1,50,0,0
218862,-100,4,2,1,50,0,1
228237,-100,4,2,1,50,0,0
228862,-100,4,2,1,50,0,1
238862,-100,4,2,1,50,0,0
258862,-52.63157895,4,2,1,50,0,0
259018,-142.8571429,4,2,1,50,0,0
259330,-100,4,2,1,50,0,0
259487,-52.63157895,4,2,1,50,0,0
259642,-142.8571429,4,2,1,50,0,0
259954,-100,4,2,1,50,0,0
260112,-52.63157895,4,2,1,50,0,0
260267,-142.8571429,4,2,1,50,0,0
260579,-100,4,2,1,50,0,0
260737,-52.63157895,4,2,1,50,0,0
260892,-142.8571429,4,2,1,50,0,0
261204,-100,4,2,1,50,0,0
261362,-50,4,2,1,50,0,0
261440,-200,4,2,1,50,0,0
261596,-100,4,2,1,50,0,0
261674,-50,4,2,1,50,0,0
261752,-200,4,2,1,50,0,0
261908,-100,4,2,1,50,0,0
261987,-50,4,2,1,50,0,0
262065,-200,4,2,1,50,0,0
262221,-100,4,2,1,50,0,0
262299,-37.037037037037,4,2,1,50,0,0
262377,-166.666666666667,4,2,1,50,0,0
262612,-111.1111111,4,2,1,50,0,0

[HitObjects]
64,192,1362,128,2,1908:0:0:0:0:
320,192,1362,128,4,1908:0:0:0:0:
448,192,1362,128,0,1908:0:0:0:0:
64,192,1987,128,2,2533:0:0:0:0:
192,192,1987,128,4,2533:0:0:0:0:
448,192,1987,128,0,2533:0:0:0:0:
192,192,2612,128,2,3158:0:0:0:0:
320,192,2612,128,4,3158:0:0:0:0:
448,192,2612,128,0,3158:0:0:0:0:
64,192,3237,128,4,3705:0:0:0:0:
192,192,3237,128,2,3705:0:0:0:0:
320,192,3237,128,0,3627:0:0:0:0:
320,192,3705,1,2,0:0:0:0:
448,192,3705,1,0,0:0:0:0:
192,192,3783,1,2,0:0:0:0:
64,192,3862,128,8,4096:0:0:0:0:
320,192,3862,128,2,4096:0:0:0:0:
448,192,3862,128,0,4096:0:0:0:0:
64,192,4174,128,2,4408:0:0:0:0:
320,192,4174,128,8,4408:0:0:0:0:
448,192,4174,128,0,4408:0:0:0:0:
64,192,4487,128,2,4721:0:0:0:0:
192,192,4487,128,8,4721:0:0:0:0:
320,192,4487,128,0,4721:0:0:0:0:
192,192,4799,128,2,5033:0:0:0:0:
320,192,4799,128,8,5033:0:0:0:0:
448,192,4799,128,0,5033:0:0:0:0:
64,192,5268,1,0,0:0:0:0:
192,192,5346,1,0,0:0:0:0:
320,192,5424,128,0,5580:0:0:0:0:
448,192,5580,128,0,6049:0:0:0:0:
64,192,5737,128,0,6049:0:0:0:0:
192,192,6049,128,0,6362:0:0:0:0:
64,192,6362,1,2,0:0:0:0:
320,192,6362,1,4,0:0:0:0:
448,192,6362,128,0,6440:0:0:0:0:
192,192,6518,1,2,0:0:0:0:
448,192,6518,128,0,6674:0:0:0:0:
64,192,6674,1,8,0:0:0:0:
192,192,6674,128,2,6830:0:0:0:0:
320,192,6830,128,2,6987:0:0:0:0:
448,192,6830,1,0,0:0:0:0:
64,192,6987,128,2,7299:0:0:0:0:
192,192,6987,1,0,0:0:0:0:
320,192,7143,1,2,0:0:0:0:
448,192,7143,1,0,0:0:0:0:
192,192,7299,1,8,0:0:0:0:
448,192,7299,128,2,7533:0:0:0:0:
64,192,7455,1,2,0:0:0:0:
320,192,7455,128,0,7533:0:0:0:0:
320,192,7612,1,2,0:0:0:0:
448,192,7612,128,0,7690:0:0:0:0:
64,192,7768,128,2,7924:0:0:0:0:
192,192,7768,1,0,0:0:0:0:
320,192,7924,128,8,8080:0:0:0:0:
448,192,7924,1,2,0:0:0:0:
64,192,8080,1,2,0:0:0:0:
192,192,8080,128,0,8237:0:0:0:0:
320,192,8237,1,2,0:0:0:0:
448,192,8237,128,0,8549:0:0:0:0:
64,192,8393,1,2,0:0:0:0:
320,192,8393,1,0,0:0:0:0:
64,192,8549,128,8,8862:0:0:0:0:
192,192,8549,1,2,0:0:0:0:
192,192,8705,1,2,0:0:0:0:
320,192,8705,1,0,0:0:0:0:
320,192,8862,1,2,0:0:0:0:
448,192,8862,128,0,8940:0:0:0:0:
192,192,9018,1,2,0:0:0:0:
448,192,9018,128,0,9174:0:0:0:0:
64,192,9174,1,8,0:0:0:0:
192,192,9174,128,2,9330:0:0:0:0:
320,192,9330,128,2,9487:0:0:0:0:
448,192,9330,1,0,0:0:0:0:
64,192,9487,128,2,9799:0:0:0:0:
192,192,9487,1,0,0:0:0:0:
320,192,9643,1,2,0:0:0:0:
448,192,9643,1,0,0:0:0:0:
192,192,9799,1,8,0:0:0:0:
448,192,9799,128,2,10033:0:0:0:0:
64,192,9955,128,2,10112:0:0:0:0:
320,192,9955,128,0,10033:0:0:0:0:
320,192,10112,1,2,0:0:0:0:
448,192,10112,128,0,10268:0:0:0:0:
64,192,10268,128,2,10424:0:0:0:0:
192,192,10268,1,0,0:0:0:0:
320,192,10424,128,8,10580:0:0:0:0:
448,192,10424,1,2,0:0:0:0:
64,192,10580,1,2,0:0:0:0:
192,192,10580,128,0,10737:0:0:0:0:
320,192,10737,1,2,0:0:0:0:
448,192,10737,128,0,10893:0:0:0:0:
64,192,10893,1,2,0:0:0:0:
192,192,10971,1,2,0:0:0:0:
320,192,11049,1,8,0:0:0:0:
448,192,11049,1,2,0:0:0:0:
64,192,11127,1,2,0:0:0:0:
192,192,11127,1,8,0:0:0:0:
320,192,11205,1,8,0:0:0:0:
448,192,11205,1,2,0:0:0:0:
192,192,11283,1,10,0:0:0:0:
64,192,11362,128,2,11440:0:0:0:0:
320,192,11362,1,4,0:0:0:0:
448,192,11362,1,0,0:0:0:0:
64,192,11518,128,2,11674:0:0:0:0:
192,192,11518,1,0,0:0:0:0:
320,192,11674,128,8,11830:0:0:0:0:
448,192,11674,1,2,0:0:0:0:
64,192,11830,1,2,0:0:0:0:
192,192,11830,128,0,11987:0:0:0:0:
320,192,11987,1,2,0:0:0:0:
448,192,11987,128,0,12299:0:0:0:0:
64,192,12143,1,2,0:0:0:0:
192,192,12143,1,0,0:0:0:0:
64,192,12299,128,2,12533:0:0:0:0:
320,192,12299,1,8,0:0:0:0:
192,192,12455,128,2,12533:0:0:0:0:
448,192,12455,128,0,12612:0:0:0:0:
64,192,12612,1,2,0:0:0:0:
192,192,12612,1,0,0:0:0:0:
320,192,12768,1,2,0:0:0:0:
448,192,12768,128,0,12924:0:0:0:0:
64,192,12924,1,8,0:0:0:0:
192,192,12924,128,2,13080:0:0:0:0:
320,192,13080,128,2,13237:0:0:0:0:
448,192,13080,1,0,0:0:0:0:
64,192,13237,128,2,13549:0:0:0:0:
192,192,13237,1,0,0:0:0:0:
192,192,13393,1,2,0:0:0:0:
448,192,13393,1,0,0:0:0:0:
320,192,13549,1,2,0:0:0:0:
448,192,13549,128,8,13862:0:0:0:0:
64,192,13705,1,2,0:0:0:0:
192,192,13705,1,0,0:0:0:0:
64,192,13862,1,2,0:0:0:0:
320,192,13862,128,0,13940:0:0:0:0:
192,192,13940,128,0,14018:0:0:0:0:
320,192,14018,1,2,0:0:0:0:
448,192,14018,128,0,14174:0:0:0:0:
64,192,14174,1,2,0:0:0:0:
192,192,14174,128,8,14330:0:0:0:0:
320,192,14330,1,2,0:0:0:0:
448,192,14330,128,0,14408:0:0:0:0:
64,192,14487,1,2,0:0:0:0:
192,192,14487,1,0,0:0:0:0:
448,192,14487,128,0,14799:0:0:0:0:
192,192,14643,1,2,0:0:0:0:
320,192,14643,1,0,0:0:0:0:
64,192,14799,128,8,15112:0:0:0:0:
320,192,14799,1,2,0:0:0:0:
192,192,14955,128,2,15112:0:0:0:0:
448,192,14955,1,0,0:0:0:0:
320,192,15112,128,2,15268:0:0:0:0:
448,192,15112,1,0,0:0:0:0:
64,192,15268,1,2,0:0:0:0:
192,192,15268,1,0,0:0:0:0:
192,192,15424,1,8,0:0:0:0:
320,192,15424,1,2,0:0:0:0:
448,192,15424,1,0,0:0:0:0:
64,192,15580,1,2,0:0:0:0:
448,192,15580,1,0,0:0:0:0:
320,192,15658,1,2,0:0:0:0:
64,192,15737,1,2,0:0:0:0:
192,192,15737,1,8,0:0:0:0:
448,192,15737,1,4,0:0:0:0:
192,192,15893,1,2,0:0:0:0:
320,192,15893,1,0,0:0:0:0:
448,192,15971,1,2,0:0:0:0:
64,192,16049,1,2,0:0:0:0:
192,192,16049,1,8,0:0:0:0:
320,192,16127,1,2,0:0:0:0:
448,192,16127,1,8,0:0:0:0:
64,192,16205,1,2,0:0:0:0:
192,192,16205,1,8,0:0:0:0:
320,192,16283,1,10,0:0:0:0:
64,192,16362,1,2,0:0:0:0:
192,192,16362,1,4,0:0:0:0:
448,192,16362,128,0,16440:0:0:0:0:
320,192,16518,1,2,0:0:0:0:
448,192,16518,128,0,16674:0:0:0:0:
64,192,16674,1,8,0:0:0:0:
192,192,16674,128,2,16830:0:0:0:0:
320,192,16830,128,2,16987:0:0:0:0:
448,192,16830,1,0,0:0:0:0:
64,192,16987,128,2,17299:0:0:0:0:
192,192,16987,1,0,0:0:0:0:
320,192,17143,1,2,0:0:0:0:
448,192,17143,1,0,0:0:0:0:
192,192,17299,1,2,0:0:0:0:
448,192,17299,128,8,17533:0:0:0:0:
64,192,17455,128,2,17612:0:0:0:0:
320,192,17455,128,0,17533:0:0:0:0:
320,192,17612,1,2,0:0:0:0:
448,192,17612,1,0,0:0:0:0:
64,192,17768,128,2,17924:0:0:0:0:
192,192,17768,1,0,0:0:0:0:
320,192,17924,128,8,18080:0:0:0:0:
448,192,17924,1,2,0:0:0:0:
64,192,18080,1,2,0:0:0:0:
192,192,18080,128,0,18237:0:0:0:0:
320,192,18237,1,2,0:0:0:0:
448,192,18237,128,0,18549:0:0:0:0:
64,192,18393,1,2,0:0:0:0:
320,192,18393,1,0,0:0:0:0:
64,192,18549,128,2,18862:0:0:0:0:
192,192,18549,1,8,0:0:0:0:
192,192,18705,1,2,0:0:0:0:
320,192,18705,1,0,0:0:0:0:
320,192,18862,1,2,0:0:0:0:
448,192,18862,128,0,18940:0:0:0:0:
192,192,19018,1,2,0:0:0:0:
448,192,19018,128,0,19174:0:0:0:0:
64,192,19174,1,2,0:0:0:0:
192,192,19174,128,8,19330:0:0:0:0:
320,192,19330,128,2,19487:0:0:0:0:
448,192,19330,1,0,0:0:0:0:
64,192,19487,128,2,19799:0:0:0:0:
192,192,19487,1,0,0:0:0:0:
320,192,19643,1,2,0:0:0:0:
448,192,19643,1,0,0:0:0:0:
192,192,19799,1,8,0:0:0:0:
448,192,19799,128,2,20033:0:0:0:0:
64,192,19955,128,2,20112:0:0:0:0:
320,192,19955,128,0,20033:0:0:0:0:
320,192,20112,1,2,0:0:0:0:
448,192,20112,1,0,0:0:0:0:
64,192,20268,128,2,20424:0:0:0:0:
192,192,20268,1,0,0:0:0:0:
320,192,20424,128,8,20580:0:0:0:0:
448,192,20424,1,2,0:0:0:0:
64,192,20580,1,2,0:0:0:0:
192,192,20580,128,0,20737:0:0:0:0:
320,192,20737,1,2,0:0:0:0:
448,192,20737,128,0,20893:0:0:0:0:
64,192,20893,1,2,0:0:0:0:
192,192,20971,1,2,0:0:0:0:
320,192,21049,1,2,0:0:0:0:
448,192,21049,1,8,0:0:0:0:
64,192,21127,1,2,0:0:0:0:
192,192,21127,1,8,0:0:0:0:
320,192,21205,1,2,0:0:0:0:
448,192,21205,1,8,0:0:0:0:
192,192,21283,1,10,0:0:0:0:
64,192,21362,128,2,21440:0:0:0:0:
320,192,21362,1,4,0:0:0:0:
448,192,21362,1,0,0:0:0:0:
64,192,21518,128,2,21674:0:0:0:0:
192,192,21518,1,0,0:0:0:0:
320,192,21674,128,8,21830:0:0:0:0:
448,192,21674,1,2,0:0:0:0:
64,192,21830,1,2,0:0:0:0:
192,192,21830,128,0,21987:0:0:0:0:
320,192,21987,1,2,0:0:0:0:
448,192,21987,128,0,22299:0:0:0:0:
64,192,22143,1,2,0:0:0:0:
192,192,22143,1,0,0:0:0:0:
64,192,22299,128,2,22533:0:0:0:0:
320,192,22299,1,8,0:0:0:0:
192,192,22455,128,2,22533:0:0:0:0:
448,192,22455,128,0,22612:0:0:0:0:
64,192,22612,1,2,0:0:0:0:
192,192,22612,1,0,0:0:0:0:
320,192,22768,1,2,0:0:0:0:
448,192,22768,128,0,22924:0:0:0:0:
64,192,22924,1,8,0:0:0:0:
192,192,22924,128,2,23080:0:0:0:0:
320,192,23080,128,2,23237:0:0:0:0:
448,192,23080,1,0,0:0:0:0:
64,192,23237,128,2,23549:0:0:0:0:
192,192,23237,1,0,0:0:0:0:
192,192,23393,1,2,0:0:0:0:
448,192,23393,1,0,0:0:0:0:
320,192,23549,1,2,0:0:0:0:
448,192,23549,128,8,23862:0:0:0:0:
64,192,23705,1,2,0:0:0:0:
192,192,23705,1,0,0:0:0:0:
64,192,23862,1,2,0:0:0:0:
320,192,23862,128,0,23940:0:0:0:0:
192,192,23940,128,0,24018:0:0:0:0:
320,192,24018,1,2,0:0:0:0:
448,192,24018,128,0,24174:0:0:0:0:
64,192,24174,1,2,0:0:0:0:
192,192,24174,128,8,24330:0:0:0:0:
320,192,24330,1,2,0:0:0:0:
448,192,24330,128,0,24408:0:0:0:0:
64,192,24487,1,2,0:0:0:0:
192,192,24487,1,0,0:0:0:0:
448,192,24487,128,0,24643:0:0:0:0:
64,192,24643,1,2,0:0:0:0:
320,192,24643,1,0,0:0:0:0:
192,192,24721,1,2,0:0:0:0:
64,192,24799,1,8,0:0:0:0:
320,192,24799,1,2,0:0:0:0:
448,192,24799,1,0,0:0:0:0:
192,192,24955,1,8,0:0:0:0:
320,192,24955,1,2,0:0:0:0:
448,192,24955,1,0,0:0:0:0:
64,192,25112,1,2,0:0:0:0:
192,192,25112,1,0,0:0:0:0:
320,192,25190,1,8,0:0:0:0:
448,192,25190,1,0,0:0:0:0:
64,192,25346,1,2,0:0:0:0:
448,192,25346,1,0,0:0:0:0:
192,192,25424,1,8,0:0:0:0:
320,192,25424,1,0,0:0:0:0:
64,192,25580,1,8,0:0:0:0:
320,192,25580,1,2,0:0:0:0:
448,192,25580,1,0,0:0:0:0:
192,192,25737,1,0,0:0:0:70:tom1.wav
448,192,25737,1,0,0:0:0:0:
320,192,25815,1,0,0:0:0:70:tom2.wav
64,192,25893,1,0,0:0:0:70:tom1.wav
192,192,25893,1,0,0:0:0:0:
320,192,25971,1,0,0:0:0:70:tom2.wav
64,192,26049,1,0,0:0:0:70:tom3.wav
448,192,26049,1,0,0:0:0:0:
192,192,26127,1,2,0:0:0:0:
320,192,26205,1,2,0:0:0:0:
448,192,26205,1,0,0:0:0:0:
192,192,26283,1,2,0:0:0:0:
64,192,26362,1,8,0:0:0:0:
320,192,26362,1,0,0:0:0:0:
448,192,26362,1,0,0:0:0:0:
192,192,26674,128,0,26987:0:0:0:0:
320,192,26830,128,0,27143:0:0:0:0:
64,192,27143,128,0,27455:0:0:0:0:
448,192,27299,128,0,27612:0:0:0:0:
320,192,27455,128,0,27612:0:0:0:0:
64,192,27612,128,0,28002:0:0:0:0:
192,192,27612,128,0,28002:0:0:0:0:
320,192,27768,128,0,28315:0:0:0:0:
448,192,27924,128,0,28315:0:0:0:0:
64,192,28080,128,0,28393:0:0:0:0:
192,192,28080,128,0,28393:0:0:0:0:
320,192,28393,1,2,0:0:0:0:
448,192,28393,1,0,0:0:0:0:
192,192,28471,1,2,0:0:0:0:
64,192,28549,1,2,0:0:0:0:
320,192,28549,1,0,0:0:0:70:h05.wav
448,192,28549,1,0,0:0:0:0:
64,192,28862,128,2,28940:0:0:0:0:
192,192,28862,128,4,28940:0:0:0:0:
448,192,28862,128,8,28940:0:0:0:0:
64,192,29018,128,2,29096:0:0:0:0:
192,192,29018,128,8,29096:0:0:0:0:
448,192,29018,128,0,29096:0:0:0:0:
64,192,29174,128,8,29408:0:0:0:0:
320,192,29174,1,2,0:0:0:0:
448,192,29174,1,0,0:0:0:0:
320,192,29330,1,0,0:0:0:0:
64,192,29487,1,8,0:0:0:0:
192,192,29487,1,0,0:0:0:0:
448,192,29487,128,0,29721:0:0:0:0:
192,192,29643,1,0,0:0:0:0:
64,192,29799,1,8,0:0:0:0:
320,192,29799,1,0,0:0:0:0:
448,192,29799,1,0,0:0:0:0:
448,192,29955,1,0,0:0:0:0:
64,192,30112,1,8,0:0:0:0:
192,192,30112,1,0,0:0:0:0:
320,192,30112,1,0,0:0:0:0:
64,192,30268,1,0,0:0:0:0:
192,192,30424,1,8,0:0:0:0:
320,192,30424,1,0,0:0:0:0:
448,192,30424,1,0,0:0:0:0:
320,192,30580,1,0,0:0:0:0:
64,192,30737,1,8,0:0:0:0:
192,192,30737,1,0,0:0:0:0:
448,192,30737,1,0,0:0:0:0:
192,192,30893,1,0,0:0:0:0:
64,192,31049,1,8,0:0:0:0:
320,192,31049,1,0,0:0:0:0:
448,192,31049,1,0,0:0:0:0:
320,192,31205,1,0,0:0:0:0:
64,192,31362,128,2,31440:0:0:0:0:
192,192,31362,128,0,31440:0:0:0:0:
448,192,31362,128,0,31440:0:0:0:0:
64,192,31518,128,2,31596:0:0:0:0:
192,192,31518,128,0,31596:0:0:0:0:
448,192,31518,128,0,31596:0:0:0:0:
64,192,31674,128,2,31908:0:0:0:0:
320,192,31674,1,8,0:0:0:0:
448,192,31674,1,0,0:0:0:0:
320,192,31830,1,0,0:0:0:0:
64,192,31987,1,8,0:0:0:0:
192,192,31987,1,0,0:0:0:0:
448,192,31987,128,0,32221:0:0:0:0:
192,192,32143,1,0,0:0:0:0:
64,192,32299,1,8,0:0:0:0:
320,192,32299,1,0,0:0:0:0:
448,192,32299,1,0,0:0:0:0:
448,192,32455,1,0,0:0:0:0:
64,192,32612,1,8,0:0:0:0:
192,192,32612,1,0,0:0:0:0:
320,192,32612,1,0,0:0:0:0:
64,192,32768,1,0,0:0:0:0:
192,192,32924,1,8,0:0:0:0:
320,192,32924,1,0,0:0:0:0:
448,192,32924,1,0,0:0:0:0:
320,192,33080,1,0,0:0:0:0:
64,192,33237,1,8,0:0:0:0:
192,192,33237,1,0,0:0:0:0:
448,192,33237,1,0,0:0:0:0:
64,192,33393,1,2,0:0:0:0:
320,192,33393,1,0,0:0:0:0:
192,192,33471,1,2,0:0:0:0:
320,192,33549,1,8,0:0:0:0:
448,192,33549,1,2,0:0:0:0:
64,192,33627,1,2,0:0:0:0:
192,192,33627,1,0,0:0:0:0:
320,192,33705,1,2,0:0:0:0:
448,192,33705,1,0,0:0:0:0:
192,192,33783,1,2,0:0:0:0:
64,192,33862,1,2,0:0:0:0:
320,192,33862,1,4,0:0:0:0:
448,192,33862,128,0,34174:0:0:0:0:
64,192,34174,1,2,0:0:0:0:
192,192,34174,1,8,0:0:0:0:
320,192,34174,1,0,0:0:0:0:
192,192,34330,128,2,34643:0:0:0:0:
320,192,34330,1,0,0:0:0:0:
64,192,34487,128,0,34643:0:0:0:0:
320,192,34643,1,2,0:0:0:0:
448,192,34643,1,0,0:0:0:0:
64,192,34799,1,2,0:0:0:0:
192,192,34799,1,8,0:0:0:0:
320,192,34799,128,0,34955:0:0:0:0:
448,192,34877,128,0,35033:0:0:0:0:
64,192,35112,128,2,35424:0:0:0:0:
320,192,35112,1,0,0:0:0:0:
192,192,35268,1,0,0:0:0:0:
192,192,35424,1,2,0:0:0:0:
320,192,35424,1,8,0:0:0:0:
448,192,35424,1,0,0:0:0:0:
64,192,35580,1,2,0:0:0:0:
320,192,35580,128,0,35893:0:0:0:0:
192,192,35737,128,0,35893:0:0:0:0:
64,192,35893,1,2,0:0:0:0:
448,192,35893,1,0,0:0:0:0:
192,192,36049,128,2,36205:0:0:0:0:
320,192,36049,1,8,0:0:0:0:
448,192,36049,1,0,0:0:0:0:
64,192,36127,128,0,36283:0:0:0:0:
192,192,36362,1,2,0:0:0:0:
448,192,36362,128,0,36674:0:0:0:0:
320,192,36518,1,0,0:0:0:0:
64,192,36674,1,2,0:0:0:0:
192,192,36674,1,8,0:0:0:0:
320,192,36674,1,0,0:0:0:0:
192,192,36830,128,2,37143:0:0:0:0:
448,192,36830,1,0,0:0:0:0:
64,192,36987,128,0,37143:0:0:0:0:
320,192,37143,1,2,0:0:0:0:
448,192,37143,1,0,0:0:0:0:
64,192,37299,1,2,0:0:0:0:
320,192,37299,128,8,37846:0:0:0:0:
448,192,37299,1,0,0:0:0:0:
64,192,37612,128,2,37846:0:0:0:0:
192,192,37612,128,4,37846:0:0:0:0:
448,192,37612,128,0,37924:0:0:0:0:
64,192,37924,1,2,0:0:0:0:
192,192,37924,1,0,0:0:0:0:
64,192,38080,1,8,0:0:0:0:
320,192,38080,1,2,0:0:0:0:
448,192,38080,1,0,0:0:0:0:
192,192,38237,1,2,0:0:0:0:
448,192,38237,1,0,0:0:0:0:
320,192,38315,1,0,0:0:0:70:tom1.wav
64,192,38393,1,0,0:0:0:70:tom2.wav
320,192,38471,1,0,0:0:0:70:tom3.wav
64,192,38549,1,2,0:0:0:0:
192,192,38549,128,0,38862:0:0:0:0:
448,192,38549,1,0,0:0:0:0:
64,192,38862,128,2,38940:0:0:0:0:
320,192,38862,128,8,38940:0:0:0:0:
448,192,38862,128,0,38940:0:0:0:0:
64,192,39018,128,2,39096:0:0:0:0:
320,192,39018,128,8,39096:0:0:0:0:
448,192,39018,128,0,39096:0:0:0:0:
64,192,39174,1,2,0:0:0:0:
192,192,39174,1,8,0:0:0:0:
448,192,39174,128,0,39408:0:0:0:0:
192,192,39330,1,0,0:0:0:0:
64,192,39487,128,8,39721:0:0:0:0:
320,192,39487,1,0,0:0:0:0:
448,192,39487,1,0,0:0:0:0:
320,192,39643,1,0,0:0:0:0:
64,192,39799,1,8,0:0:0:0:
192,192,39799,1,0,0:0:0:0:
448,192,39799,1,0,0:0:0:0:
64,192,39955,1,0,0:0:0:0:
192,192,40112,1,8,0:0:0:0:
320,192,40112,1,0,0:0:0:0:
448,192,40112,1,0,0:0:0:0:
448,192,40268,1,0,0:0:0:0:
64,192,40424,1,8,0:0:0:0:
192,192,40424,1,0,0:0:0:0:
320,192,40424,1,0,0:0:0:0:
192,192,40580,1,0,0:0:0:0:
64,192,40737,1,8,0:0:0:0:
320,192,40737,1,0,0:0:0:0:
448,192,40737,1,0,0:0:0:0:
320,192,40893,1,0,0:0:0:0:
64,192,41049,1,8,0:0:0:0:
192,192,41049,1,0,0:0:0:0:
448,192,41049,1,0,0:0:0:0:
192,192,41205,1,0,0:0:0:0:
64,192,41362,128,2,41440:0:0:0:0:
320,192,41362,128,0,41440:0:0:0:0:
448,192,41362,128,0,41440:0:0:0:0:
64,192,41518,128,2,41596:0:0:0:0:
320,192,41518,128,0,41596:0:0:0:0:
448,192,41518,128,0,41596:0:0:0:0:
64,192,41674,1,8,0:0:0:0:
192,192,41674,1,2,0:0:0:0:
448,192,41674,128,0,41908:0:0:0:0:
192,192,41830,1,0,0:0:0:0:
64,192,41987,128,8,42221:0:0:0:0:
320,192,41987,1,0,0:0:0:0:
448,192,41987,1,0,0:0:0:0:
320,192,42143,1,0,0:0:0:0:
64,192,42299,1,8,0:0:0:0:
192,192,42299,1,0,0:0:0:0:
448,192,42299,1,0,0:0:0:0:
192,192,42455,1,0,0:0:0:0:
64,192,42612,1,8,0:0:0:0:
320,192,42612,1,0,0:0:0:0:
448,192,42612,1,0,0:0:0:0:
192,192,42690,1,0,0:0:0:70:tom1.wav
320,192,42846,1,2,0:0:0:0:
448,192,42846,1,0,0:0:0:0:
64,192,42924,1,2,0:0:0:0:
192,192,42924,1,0,0:0:0:0:
448,192,43002,1,2,0:0:0:0:
64,192,43080,1,2,0:0:0:0:
320,192,43080,1,0,0:0:0:0:
192,192,43158,1,2,0:0:0:0:
64,192,43237,1,8,0:0:0:0:
320,192,43237,1,4,0:0:0:0:
448,192,43237,1,0,0:0:0:0:
64,192,43393,1,8,0:0:0:0:
192,192,43393,1,4,0:0:0:0:
448,192,43393,1,0,0:0:0:0:
320,192,43549,1,2,0:0:0:0:
448,192,43549,1,8,0:0:0:0:
64,192,43627,1,2,0:0:0:0:
192,192,43627,1,8,0:0:0:0:
320,192,43705,1,2,0:0:0:0:
448,192,43705,1,8,0:0:0:0:
192,192,43783,1,10,0:0:0:0:
64,192,43862,1,4,0:0:0:0:
320,192,43862,1,2,0:0:0:0:
448,192,43862,128,0,44174:0:0:0:0:
64,192,44174,1,8,0:0:0:0:
192,192,44174,1,2,0:0:0:0:
320,192,44174,1,0,0:0:0:0:
192,192,44330,128,2,44643:0:0:0:0:
320,192,44330,1,0,0:0:0:0:
64,192,44487,128,0,44643:0:0:0:0:
320,192,44643,1,2,0:0:0:0:
448,192,44643,1,0,0:0:0:0:
64,192,44799,1,8,0:0:0:0:
192,192,44799,1,2,0:0:0:0:
320,192,44799,128,0,44955:0:0:0:0:
448,192,44877,128,0,45033:0:0:0:0:
64,192,45112,128,2,45424:0:0:0:0:
320,192,45112,1,0,0:0:0:0:
192,192,45268,1,0,0:0:0:0:
192,192,45424,1,8,0:0:0:0:
320,192,45424,1,2,0:0:0:0:
448,192,45424,1,0,0:0:0:0:
64,192,45580,1,2,0:0:0:0:
320,192,45580,128,0,45893:0:0:0:0:
192,192,45737,128,0,45893:0:0:0:0:
64,192,45893,1,2,0:0:0:0:
448,192,45893,1,0,0:0:0:0:
192,192,46049,128,8,46205:0:0:0:0:
320,192,46049,1,2,0:0:0:0:
448,192,46049,1,0,0:0:0:0:
64,192,46127,128,0,46283:0:0:0:0:
64,192,46362,128,2,46518:0:0:0:0:
192,192,46362,1,0,0:0:0:0:
320,192,46518,1,0,0:0:0:0:
192,192,46596,128,0,46674:0:0:0:0:
64,192,46674,1,8,0:0:0:0:
320,192,46674,1,2,0:0:0:0:
448,192,46674,1,0,0:0:0:0:
192,192,46830,1,2,0:0:0:0:
320,192,46830,128,0,47143:0:0:0:0:
448,192,46987,128,0,47143:0:0:0:0:
64,192,47143,1,2,0:0:0:0:
192,192,47143,1,0,0:0:0:0:
64,192,47299,1,8,0:0:0:0:
320,192,47299,128,2,47846:0:0:0:0:
448,192,47299,1,0,0:0:0:0:
64,192,47612,128,4,47924:0:0:0:0:
192,192,47612,128,2,47846:0:0:0:0:
448,192,47612,128,0,47846:0:0:0:0:
192,192,47924,1,2,0:0:0:0:
320,192,47924,1,4,0:0:0:0:
448,192,47924,1,0,0:0:0:0:
64,192,48080,1,2,0:0:0:0:
192,192,48080,1,8,0:0:0:0:
448,192,48080,1,0,0:0:0:0:
64,192,48237,1,2,0:0:0:0:
192,192,48237,1,8,0:0:0:0:
448,192,48237,1,0,0:0:0:0:
320,192,48341,1,0,0:0:0:70:tom1.wav
64,192,48445,1,0,0:0:0:70:tom1.wav
448,192,48549,1,0,0:0:0:70:tom2.wav
192,192,48653,1,0,0:0:0:70:tom3.wav
320,192,48757,1,0,0:0:0:70:tom4.wav
64,192,48862,128,2,48940:0:0:0:0:
192,192,48862,128,4,48940:0:0:0:0:
448,192,48862,128,0,49174:0:0:0:0:
64,192,49018,128,2,49174:0:0:0:0:
192,192,49018,128,0,49174:0:0:0:0:
320,192,49174,1,0,0:0:0:0:
64,192,49330,128,8,49643:0:0:0:0:
192,192,49330,1,0,0:0:0:0:
448,192,49330,1,0,0:0:0:0:
320,192,49487,1,0,0:0:0:0:
192,192,49643,1,8,0:0:0:0:
320,192,49643,1,0,0:0:0:0:
448,192,49643,1,0,0:0:0:0:
64,192,49799,128,2,49877:0:0:0:0:
192,192,49799,128,4,49877:0:0:0:0:
448,192,49799,128,0,50112:0:0:0:0:
64,192,49955,128,2,50112:0:0:0:0:
192,192,49955,128,0,50112:0:0:0:0:
320,192,50112,1,0,0:0:0:0:
64,192,50268,128,8,50580:0:0:0:0:
192,192,50268,1,0,0:0:0:0:
448,192,50268,1,0,0:0:0:0:
320,192,50424,1,0,0:0:0:0:
192,192,50580,1,8,0:0:0:0:
320,192,50580,1,0,0:0:0:0:
448,192,50580,128,0,50893:0:0:0:0:
64,192,50737,1,2,0:0:0:0:
192,192,50737,1,0,0:0:0:0:
320,192,50893,1,2,0:0:0:0:
64,192,51049,1,8,0:0:0:0:
192,192,51049,1,0,0:0:0:0:
448,192,51049,1,0,0:0:0:0:
64,192,51205,1,8,0:0:0:0:
192,192,51205,1,0,0:0:0:0:
320,192,51205,1,0,0:0:0:0:
64,192,51362,128,4,51674:0:0:0:0:
320,192,51362,128,2,51440:0:0:0:0:
448,192,51362,128,0,51440:0:0:0:0:
320,192,51518,128,2,51674:0:0:0:0:
448,192,51518,128,0,51674:0:0:0:0:
192,192,51674,1,0,0:0:0:0:
64,192,51830,1,8,0:0:0:0:
320,192,51830,1,0,0:0:0:0:
448,192,51830,128,0,52143:0:0:0:0:
192,192,51987,1,0,0:0:0:0:
64,192,52143,1,8,0:0:0:0:
192,192,52143,1,0,0:0:0:0:
320,192,52143,1,0,0:0:0:0:
64,192,52299,128,4,52612:0:0:0:0:
320,192,52299,128,2,52377:0:0:0:0:
448,192,52299,128,0,52377:0:0:0:0:
320,192,52455,128,2,52612:0:0:0:0:
448,192,52455,128,0,52612:0:0:0:0:
192,192,52612,1,0,0:0:0:0:
64,192,52768,1,8,0:0:0:0:
320,192,52768,1,0,0:0:0:0:
448,192,52768,128,0,53080:0:0:0:0:
192,192,52924,1,0,0:0:0:0:
64,192,53080,1,8,0:0:0:0:
192,192,53080,1,0,0:0:0:0:
320,192,53080,1,0,0:0:0:0:
320,192,53237,1,0,0:0:0:70:tom1.wav
448,192,53237,1,0,0:0:0:0:
320,192,53393,1,0,0:0:0:70:tom1.wav
448,192,53393,1,0,0:0:0:0:
64,192,53549,1,0,0:0:0:70:tom2.wav
192,192,53549,1,0,0:0:0:0:
64,192,53705,1,0,0:0:0:70:tom2.wav
192,192,53705,1,0,0:0:0:0:
64,192,53862,128,2,54174:0:0:0:0:
320,192,53862,128,4,53940:0:0:0:0:
448,192,53862,128,0,53940:0:0:0:0:
320,192,54018,128,2,54174:0:0:0:0:
448,192,54018,128,0,54174:0:0:0:0:
192,192,54174,1,0,0:0:0:0:
64,192,54330,1,8,0:0:0:0:
320,192,54330,1,0,0:0:0:0:
448,192,54330,128,0,54643:0:0:0:0:
192,192,54487,1,0,0:0:0:0:
64,192,54643,1,8,0:0:0:0:
192,192,54643,1,0,0:0:0:0:
320,192,54643,1,0,0:0:0:0:
64,192,54799,128,2,55112:0:0:0:0:
320,192,54799,128,4,54877:0:0:0:0:
448,192,54799,128,0,54877:0:0:0:0:
320,192,54955,128,2,55112:0:0:0:0:
448,192,54955,128,0,55112:0:0:0:0:
192,192,55112,1,0,0:0:0:0:
64,192,55268,1,8,0:0:0:0:
320,192,55268,1,0,0:0:0:0:
448,192,55268,128,0,55580:0:0:0:0:
192,192,55424,1,0,0:0:0:0:
64,192,55580,128,8,55893:0:0:0:0:
192,192,55580,1,0,0:0:0:0:
320,192,55580,1,0,0:0:0:0:
320,192,55737,1,2,0:0:0:0:
448,192,55737,1,0,0:0:0:0:
192,192,55893,1,2,0:0:0:0:
64,192,56049,1,8,0:0:0:0:
320,192,56049,1,0,0:0:0:0:
448,192,56049,1,0,0:0:0:0:
192,192,56205,1,8,0:0:0:0:
320,192,56205,1,0,0:0:0:0:
448,192,56205,1,0,0:0:0:0:
64,192,56362,128,4,56440:0:0:0:0:
192,192,56362,128,2,56440:0:0:0:0:
448,192,56362,128,0,56674:0:0:0:0:
64,192,56518,128,2,56674:0:0:0:0:
192,192,56518,128,0,56674:0:0:0:0:
320,192,56674,1,0,0:0:0:0:
64,192,56830,128,8,57143:0:0:0:0:
192,192,56830,1,0,0:0:0:0:
448,192,56830,1,0,0:0:0:0:
320,192,56987,1,0,0:0:0:0:
192,192,57143,1,8,0:0:0:0:
320,192,57143,1,0,0:0:0:0:
448,192,57143,1,0,0:0:0:0:
64,192,57299,128,4,57377:0:0:0:0:
192,192,57299,128,2,57377:0:0:0:0:
448,192,57299,128,0,57612:0:0:0:0:
64,192,57455,128,2,57612:0:0:0:0:
192,192,57455,128,0,57612:0:0:0:0:
320,192,57612,1,0,0:0:0:0:
64,192,57768,128,8,58080:0:0:0:0:
192,192,57768,1,0,0:0:0:0:
448,192,57768,1,0,0:0:0:0:
320,192,57924,1,0,0:0:0:0:
192,192,58080,1,8,0:0:0:0:
320,192,58080,1,0,0:0:0:0:
448,192,58080,1,0,0:0:0:0:
64,192,58237,1,0,0:0:0:70:tom2.wav
448,192,58237,1,0,0:0:0:0:
320,192,58315,1,0,0:0:0:70:tom1.wav
192,192,58393,1,0,0:0:0:70:tom2.wav
448,192,58471,1,0,0:0:0:70:tom1.wav
64,192,58549,1,0,0:0:0:70:tom4.wav
192,192,58549,1,0,0:0:0:0:
320,192,58627,1,0,0:0:0:70:tom3.wav
64,192,58705,1,0,0:0:0:70:tom4.wav
192,192,58783,1,0,0:0:0:70:tom3.wav
64,192,58862,128,4,59174:0:0:0:0:
320,192,58862,128,2,58940:0:0:0:0:
448,192,58862,128,0,58940:0:0:0:0:
320,192,59018,128,2,59174:0:0:0:0:
448,192,59018,128,0,59174:0:0:0:0:
192,192,59174,1,0,0:0:0:0:
64,192,59330,1,8,0:0:0:0:
320,192,59330,1,0,0:0:0:0:
448,192,59330,128,0,59643:0:0:0:0:
192,192,59487,1,0,0:0:0:0:
64,192,59643,1,8,0:0:0:0:
192,192,59643,1,0,0:0:0:0:
320,192,59643,1,0,0:0:0:0:
64,192,59799,128,4,60112:0:0:0:0:
320,192,59799,128,2,59877:0:0:0:0:
448,192,59799,128,0,59877:0:0:0:0:
320,192,59955,128,2,60112:0:0:0:0:
448,192,59955,128,0,60112:0:0:0:0:
192,192,60112,1,0,0:0:0:0:
64,192,60268,1,8,0:0:0:0:
320,192,60268,1,0,0:0:0:0:
448,192,60268,128,0,60580:0:0:0:0:
192,192,60424,1,0,0:0:0:0:
64,192,60580,1,8,0:0:0:0:
192,192,60580,1,0,0:0:0:0:
320,192,60580,1,0,0:0:0:0:
64,192,60737,1,2,0:0:0:0:
448,192,60737,1,0,0:0:0:0:
320,192,60893,1,8,0:0:0:0:
448,192,60893,1,0,0:0:0:0:
64,192,60971,1,8,0:0:0:0:
192,192,60971,1,0,0:0:0:0:
320,192,61049,1,2,0:0:0:0:
448,192,61049,1,8,0:0:0:0:
64,192,61205,1,8,0:0:0:0:
192,192,61205,1,0,0:0:0:0:
320,192,61283,1,8,0:0:0:0:
448,192,61283,1,0,0:0:0:0:
64,192,61362,1,2,0:0:0:0:
192,192,61362,1,4,0:0:0:0:
64,192,61518,1,8,0:0:0:0:
320,192,61518,1,0,0:0:0:0:
448,192,61518,128,0,61830:0:0:0:0:
192,192,61674,1,0,0:0:0:0:
64,192,61830,1,8,0:0:0:0:
192,192,61830,1,0,0:0:0:0:
320,192,61830,1,0,0:0:0:0:
64,192,61987,1,0,0:0:0:70:tom1.wav
448,192,61987,1,0,0:0:0:0:
192,192,62065,1,0,0:0:0:70:tom2.wav
320,192,62143,1,0,0:0:0:70:tom3.wav
448,192,62143,1,0,0:0:0:0:
192,192,62221,1,0,0:0:0:70:tom4.wav
64,192,62299,128,8,62533:0:0:0:0:
320,192,62299,128,4,62533:0:0:0:0:
448,192,62299,128,0,62533:0:0:0:0:
64,192,62612,1,8,0:0:0:0:
320,192,62612,1,4,0:0:0:0:
448,192,62612,1,0,0:0:0:0:
192,192,62768,1,2,0:0:0:0:
320,192,62768,1,0,0:0:0:0:
64,192,62924,1,2,0:0:0:0:
192,192,62924,1,0,0:0:0:0:
64,192,63080,1,8,0:0:0:0:
320,192,63080,1,4,0:0:0:0:
448,192,63080,1,0,0:0:0:0:
192,192,63237,1,2,0:0:0:0:
448,192,63237,1,0,0:0:0:0:
64,192,63393,1,2,0:0:0:0:
320,192,63393,1,0,0:0:0:0:
64,192,63549,1,8,0:0:0:0:
192,192,63549,1,2,0:0:0:0:
320,192,63627,1,8,0:0:0:0:
448,192,63627,1,2,0:0:0:0:
64,192,63705,1,8,0:0:0:0:
192,192,63705,1,2,0:0:0:0:
320,192,63783,1,10,0:0:0:0:
64,192,63862,1,2,0:0:0:0:
192,192,63862,1,4,0:0:0:0:
448,192,63862,1,0,0:0:0:0:
320,192,64018,1,2,0:0:0:0:
448,192,64018,1,0,0:0:0:0:
64,192,64174,1,8,0:0:0:0:
192,192,64174,1,2,0:0:0:0:
320,192,64174,1,0,0:0:0:0:
192,192,64330,1,2,0:0:0:0:
448,192,64330,1,0,0:0:0:0:
320,192,64487,1,2,0:0:0:0:
448,192,64487,1,0,0:0:0:0:
64,192,64643,1,2,0:0:0:0:
192,192,64643,1,0,0:0:0:0:
64,192,64799,1,2,0:0:0:0:
320,192,64799,1,8,0:0:0:0:
448,192,64799,1,0,0:0:0:0:
192,192,64955,1,2,0:0:0:0:
320,192,64955,1,0,0:0:0:0:
64,192,65112,1,2,0:0:0:0:
192,192,65112,1,0,0:0:0:0:
320,192,65268,1,2,0:0:0:0:
448,192,65268,1,0,0:0:0:0:
64,192,65424,1,8,0:0:0:0:
192,192,65424,1,2,0:0:0:0:
448,192,65424,1,0,0:0:0:0:
64,192,65580,1,2,0:0:0:0:
320,192,65580,1,0,0:0:0:0:
192,192,65737,1,2,0:0:0:0:
448,192,65737,1,0,0:0:0:0:
192,192,65893,1,2,0:0:0:0:
320,192,65893,1,0,0:0:0:0:
64,192,66049,1,2,0:0:0:0:
320,192,66049,1,8,0:0:0:0:
448,192,66049,1,0,0:0:0:0:
192,192,66205,1,2,0:0:0:0:
448,192,66205,1,0,0:0:0:0:
320,192,66283,1,2,0:0:0:0:
64,192,66362,1,2,0:0:0:0:
192,192,66362,1,8,0:0:0:0:
448,192,66362,1,0,0:0:0:0:
64,192,66518,1,2,0:0:0:0:
192,192,66518,1,8,0:0:0:0:
448,192,66518,1,0,0:0:0:0:
64,192,66674,1,2,0:0:0:0:
320,192,66674,1,0,0:0:0:0:
192,192,66752,1,2,0:0:0:0:
64,192,66830,1,2,0:0:0:0:
320,192,66830,1,8,0:0:0:0:
448,192,66830,1,0,0:0:0:0:
64,192,66987,1,2,0:0:0:0:
320,192,66987,1,8,0:0:0:0:
448,192,66987,1,0,0:0:0:0:
192,192,67143,1,2,0:0:0:0:
448,192,67143,1,0,0:0:0:0:
320,192,67221,1,2,0:0:0:0:
64,192,67299,1,8,0:0:0:0:
192,192,67299,1,2,0:0:0:0:
448,192,67299,1,0,0:0:0:0:
64,192,67455,1,2,0:0:0:0:
192,192,67455,1,8,0:0:0:0:
448,192,67455,1,0,0:0:0:0:
64,192,67612,1,0,0:0:0:70:tom1.wav
320,192,67612,1,0,0:0:0:0:
192,192,67690,1,0,0:0:0:70:tom1.wav
320,192,67768,1,0,0:0:0:70:tom2.wav
448,192,67768,1,0,0:0:0:0:
64,192,67846,1,0,0:0:0:70:tom2.wav
192,192,67924,1,0,0:0:0:70:tom3.wav
320,192,67924,1,0,0:0:0:0:
448,192,68002,1,0,0:0:0:70:tom4.wav
64,192,68080,1,2,0:0:0:0:
192,192,68080,1,0,0:0:0:0:
320,192,68158,1,2,0:0:0:0:
64,192,68237,1,2,0:0:0:0:
192,192,68237,1,8,0:0:0:0:
448,192,68237,1,0,0:0:0:0:
64,192,68393,1,8,0:0:0:0:
320,192,68393,1,2,0:0:0:0:
448,192,68393,1,0,0:0:0:0:
64,192,68862,1,2,0:0:0:0:
320,192,68862,1,4,0:0:0:0:
448,192,68862,1,0,0:0:0:0:
192,192,69018,1,2,0:0:0:0:
320,192,69018,1,0,0:0:0:0:
64,192,69174,1,8,0:0:0:0:
192,192,69174,1,2,0:0:0:0:
448,192,69174,1,0,0:0:0:0:
320,192,69330,1,0,0:0:0:0:
64,192,69408,1,8,0:0:0:0:
192,192,69408,1,0,0:0:0:0:
320,192,69487,1,2,0:0:0:0:
448,192,69487,1,0,0:0:0:0:
64,192,69643,1,2,0:0:0:0:
192,192,69643,1,0,0:0:0:0:
64,192,69799,1,2,0:0:0:0:
320,192,69799,1,8,0:0:0:0:
448,192,69799,1,0,0:0:0:0:
192,192,69955,1,0,0:0:0:0:
320,192,70033,1,2,0:0:0:0:
448,192,70033,1,0,0:0:0:0:
64,192,70112,1,2,0:0:0:0:
192,192,70112,1,0,0:0:0:0:
320,192,70268,1,2,0:0:0:0:
448,192,70268,1,0,0:0:0:0:
64,192,70424,1,8,0:0:0:0:
192,192,70424,1,2,0:0:0:0:
448,192,70424,1,0,0:0:0:0:
320,192,70580,1,0,0:0:0:0:
192,192,70658,1,0,0:0:0:70:tom2.wav
448,192,70658,1,0,0:0:0:0:
64,192,70737,1,2,0:0:0:0:
320,192,70737,1,0,0:0:0:0:
192,192,70893,1,2,0:0:0:0:
448,192,70893,1,0,0:0:0:0:
64,192,71049,1,8,0:0:0:0:
320,192,71049,1,2,0:0:0:0:
448,192,71049,1,0,0:0:0:0:
192,192,71205,1,0,0:0:0:0:
64,192,71283,1,8,0:0:0:0:
320,192,71283,1,0,0:0:0:0:
192,192,71362,1,2,0:0:0:0:
448,192,71362,1,0,0:0:0:0:
64,192,71518,1,2,0:0:0:0:
320,192,71518,1,0,0:0:0:0:
64,192,71674,1,2,0:0:0:0:
192,192,71674,1,8,0:0:0:0:
448,192,71674,1,0,0:0:0:0:
320,192,71830,1,0,0:0:0:0:
64,192,71908,1,8,0:0:0:0:
192,192,71908,1,0,0:0:0:0:
320,192,71987,1,2,0:0:0:0:
448,192,71987,1,0,0:0:0:0:
64,192,72143,1,2,0:0:0:0:
192,192,72143,1,0,0:0:0:0:
64,192,72299,1,8,0:0:0:0:
320,192,72299,1,2,0:0:0:0:
448,192,72299,1,0,0:0:0:0:
192,192,72455,1,0,0:0:0:0:
320,192,72533,1,2,0:0:0:0:
448,192,72533,1,0,0:0:0:0:
64,192,72612,1,2,0:0:0:0:
192,192,72612,1,0,0:0:0:0:
320,192,72768,1,2,0:0:0:0:
448,192,72768,1,0,0:0:0:0:
64,192,72924,1,2,0:0:0:0:
192,192,72924,1,8,0:0:0:0:
448,192,72924,1,0,0:0:0:0:
320,192,73080,1,0,0:0:0:0:
192,192,73158,1,8,0:0:0:0:
448,192,73158,1,0,0:0:0:0:
64,192,73237,1,2,0:0:0:0:
320,192,73237,1,0,0:0:0:0:
64,192,73393,1,2,0:0:0:0:
192,192,73393,1,0,0:0:0:0:
192,192,73549,1,2,0:0:0:0:
320,192,73549,1,8,0:0:0:0:
448,192,73549,1,0,0:0:0:0:
320,192,73705,1,2,0:0:0:0:
448,192,73705,1,8,0:0:0:0:
64,192,73783,1,2,0:0:0:0:
192,192,73783,1,8,0:0:0:0:
320,192,73862,1,4,0:0:0:0:
448,192,73862,1,2,0:0:0:0:
64,192,74018,1,2,0:0:0:0:
192,192,74018,1,0,0:0:0:0:
64,192,74174,1,2,0:0:0:0:
320,192,74174,1,8,0:0:0:0:
448,192,74174,1,0,0:0:0:0:
192,192,74330,1,0,0:0:0:0:
320,192,74408,1,8,0:0:0:0:
448,192,74408,1,0,0:0:0:0:
64,192,74487,1,2,0:0:0:0:
192,192,74487,1,0,0:0:0:0:
320,192,74643,1,2,0:0:0:0:
448,192,74643,1,0,0:0:0:0:
64,192,74799,1,8,0:0:0:0:
192,192,74799,1,2,0:0:0:0:
448,192,74799,1,0,0:0:0:0:
320,192,74955,1,0,0:0:0:0:
64,192,75033,1,2,0:0:0:0:
192,192,75033,1,0,0:0:0:0:
320,192,75112,1,2,0:0:0:0:
448,192,75112,1,0,0:0:0:0:
64,192,75268,1,2,0:0:0:0:
192,192,75268,1,0,0:0:0:0:
64,192,75424,1,2,0:0:0:0:
320,192,75424,1,8,0:0:0:0:
448,192,75424,1,0,0:0:0:0:
192,192,75580,1,0,0:0:0:0:
320,192,75658,1,8,0:0:0:0:
448,192,75658,1,0,0:0:0:0:
64,192,75737,1,2,0:0:0:0:
192,192,75737,1,0,0:0:0:0:
64,192,75893,1,2,0:0:0:0:
320,192,75893,1,0,0:0:0:0:
192,192,76049,1,2,0:0:0:0:
320,192,76049,1,8,0:0:0:0:
448,192,76049,1,0,0:0:0:0:
64,192,76205,1,2,0:0:0:0:
192,192,76205,1,0,0:0:0:0:
64,192,76362,1,2,0:0:0:0:
320,192,76362,1,8,0:0:0:0:
448,192,76362,1,4,0:0:0:0:
192,192,76518,1,2,0:0:0:0:
448,192,76518,1,0,0:0:0:0:
64,192,76674,1,2,0:0:0:0:
320,192,76674,1,0,0:0:0:0:
192,192,76830,1,2,0:0:0:0:
320,192,76830,1,8,0:0:0:0:
448,192,76830,1,4,0:0:0:0:
64,192,76987,1,2,0:0:0:0:
192,192,76987,1,0,0:0:0:0:
320,192,77143,1,2,0:0:0:0:
448,192,77143,1,0,0:0:0:0:
64,192,77299,1,2,0:0:0:0:
192,192,77299,1,8,0:0:0:0:
448,192,77299,1,4,0:0:0:0:
64,192,77455,1,2,0:0:0:0:
320,192,77455,1,0,0:0:0:0:
192,192,77533,1,2,0:0:0:0:
64,192,77612,1,2,0:0:0:0:
320,192,77612,1,4,0:0:0:0:
448,192,77612,1,8,0:0:0:0:
192,192,77768,1,2,0:0:0:0:
448,192,77768,1,0,0:0:0:0:
320,192,77846,1,2,0:0:0:0:
64,192,77924,1,8,0:0:0:0:
192,192,77924,1,2,0:0:0:0:
448,192,77924,1,4,0:0:0:0:
64,192,78080,1,2,0:0:0:0:
192,192,78080,1,8,0:0:0:0:
320,192,78080,1,0,0:0:0:0:
320,192,78237,1,2,0:0:0:0:
448,192,78237,1,8,0:0:0:0:
64,192,78315,1,2,0:0:0:0:
192,192,78315,1,8,0:0:0:0:
320,192,78393,1,2,0:0:0:0:
448,192,78393,1,8,0:0:0:0:
64,192,78471,1,2,0:0:0:0:
192,192,78471,1,8,0:0:0:0:
320,192,78549,1,0,0:0:0:70:tom1.wav
448,192,78549,1,0,0:0:0:0:
192,192,78627,1,0,0:0:0:70:tom2.wav
64,192,78705,1,0,0:0:0:70:tom3.wav
448,192,78705,1,0,0:0:0:0:
320,192,78783,1,0,0:0:0:70:tom4.wav
64,192,78862,1,2,0:0:0:0:
192,192,78862,1,4,0:0:0:0:
448,192,78862,128,0,79096:0:0:0:0:
192,192,79018,1,2,0:0:0:0:
320,192,79018,1,0,0:0:0:0:
64,192,79174,128,8,79408:0:0:0:0:
320,192,79174,1,2,0:0:0:0:
448,192,79174,1,0,0:0:0:0:
320,192,79408,128,8,79565:0:0:0:0:
448,192,79408,128,0,79487:0:0:0:0:
64,192,79487,128,2,79721:0:0:0:0:
192,192,79487,128,0,79565:0:0:0:0:
320,192,79643,1,2,0:0:0:0:
448,192,79643,1,0,0:0:0:0:
64,192,79799,1,2,0:0:0:0:
192,192,79799,1,8,0:0:0:0:
448,192,79799,128,0,80033:0:0:0:0:
64,192,80033,1,2,0:0:0:0:
192,192,80033,1,0,0:0:0:0:
320,192,80112,128,2,80190:0:0:0:0:
448,192,80112,1,0,0:0:0:0:
64,192,80268,1,2,0:0:0:0:
192,192,80268,128,0,80346:0:0:0:0:
64,192,80424,1,8,0:0:0:0:
320,192,80424,1,2,0:0:0:0:
448,192,80424,1,0,0:0:0:0:
448,192,80580,1,0,0:0:0:0:
64,192,80658,1,0,0:0:0:70:tom2.wav
192,192,80658,1,0,0:0:0:0:
320,192,80737,1,2,0:0:0:0:
448,192,80737,1,0,0:0:0:0:
64,192,80893,1,2,0:0:0:0:
192,192,80893,128,0,81127:0:0:0:0:
64,192,81049,128,8,81205:0:0:0:0:
320,192,81049,1,2,0:0:0:0:
448,192,81049,1,0,0:0:0:0:
320,192,81283,1,8,0:0:0:0:
448,192,81283,1,0,0:0:0:0:
64,192,81362,1,2,0:0:0:0:
192,192,81362,128,0,81596:0:0:0:0:
320,192,81518,1,2,0:0:0:0:
448,192,81518,1,0,0:0:0:0:
64,192,81674,1,2,0:0:0:0:
192,192,81674,1,8,0:0:0:0:
448,192,81674,128,0,81908:0:0:0:0:
64,192,81908,128,8,81987:0:0:0:0:
192,192,81908,128,0,82065:0:0:0:0:
320,192,81987,128,2,82065:0:0:0:0:
448,192,81987,128,0,82221:0:0:0:0:
64,192,82143,1,2,0:0:0:0:
192,192,82143,1,0,0:0:0:0:
64,192,82299,1,8,0:0:0:0:
320,192,82299,1,2,0:0:0:0:
448,192,82299,1,0,0:0:0:0:
192,192,82455,128,0,82533:0:0:0:0:
320,192,82533,1,2,0:0:0:0:
448,192,82533,1,0,0:0:0:0:
64,192,82612,1,2,0:0:0:0:
192,192,82612,128,0,82690:0:0:0:0:
320,192,82768,1,2,0:0:0:0:
448,192,82768,128,0,82924:0:0:0:0:
64,192,82924,1,2,0:0:0:0:
192,192,82924,1,8,0:0:0:0:
320,192,82924,1,0,0:0:0:0:
64,192,83080,1,0,0:0:0:0:
320,192,83158,1,8,0:0:0:0:
448,192,83158,1,0,0:0:0:0:
64,192,83237,1,2,0:0:0:0:
192,192,83237,1,0,0:0:0:0:
192,192,83393,1,2,0:0:0:0:
320,192,83393,1,0,0:0:0:0:
64,192,83549,1,2,0:0:0:0:
320,192,83549,1,8,0:0:0:0:
448,192,83549,1,0,0:0:0:0:
64,192,83705,1,2,0:0:0:0:
192,192,83705,1,8,0:0:0:0:
320,192,83783,1,2,0:0:0:0:
448,192,83783,1,8,0:0:0:0:
64,192,83862,1,4,0:0:0:0:
192,192,83862,128,2,84096:0:0:0:0:
320,192,84018,1,2,0:0:0:0:
448,192,84018,1,0,0:0:0:0:
64,192,84174,1,2,0:0:0:0:
192,192,84174,1,8,0:0:0:0:
448,192,84174,1,0,0:0:0:0:
320,192,84330,1,0,0:0:0:0:
64,192,84408,1,8,0:0:0:0:
192,192,84408,1,0,0:0:0:0:
320,192,84487,1,2,0:0:0:0:
448,192,84487,1,0,0:0:0:0:
192,192,84643,1,2,0:0:0:0:
448,192,84643,1,0,0:0:0:0:
64,192,84799,128,8,85033:0:0:0:0:
192,192,84799,1,2,0:0:0:0:
320,192,84799,1,0,0:0:0:0:
320,192,85033,1,2,0:0:0:0:
448,192,85033,1,0,0:0:0:0:
64,192,85112,1,2,0:0:0:0:
192,192,85112,128,0,85346:0:0:0:0:
320,192,85268,1,2,0:0:0:0:
448,192,85268,1,0,0:0:0:0:
64,192,85424,1,2,0:0:0:0:
192,192,85424,1,8,0:0:0:0:
448,192,85424,1,0,0:0:0:0:
320,192,85580,1,0,0:0:0:0:
64,192,85658,1,8,0:0:0:0:
192,192,85658,1,0,0:0:0:0:
320,192,85737,1,2,0:0:0:0:
448,192,85737,1,0,0:0:0:0:
64,192,85893,1,2,0:0:0:0:
192,192,85893,1,0,0:0:0:0:
64,192,86049,1,2,0:0:0:0:
320,192,86049,1,8,0:0:0:0:
448,192,86049,1,0,0:0:0:0:
192,192,86205,1,2,0:0:0:0:
448,192,86205,1,0,0:0:0:0:
320,192,86283,1,2,0:0:0:0:
64,192,86362,1,2,0:0:0:0:
192,192,86362,1,8,0:0:0:0:
448,192,86362,1,4,0:0:0:0:
64,192,86518,1,2,0:0:0:0:
320,192,86518,1,0,0:0:0:0:
192,192,86596,1,2,0:0:0:0:
64,192,86674,1,2,0:0:0:0:
320,192,86674,1,8,0:0:0:0:
448,192,86674,1,0,0:0:0:0:
192,192,86830,1,2,0:0:0:0:
448,192,86830,1,0,0:0:0:0:
320,192,86908,1,2,0:0:0:0:
64,192,86987,1,2,0:0:0:0:
192,192,86987,1,0,0:0:0:0:
448,192,87065,1,2,0:0:0:0:
64,192,87143,1,2,0:0:0:0:
192,192,87143,1,0,0:0:0:0:
320,192,87221,1,2,0:0:0:0:
64,192,87299,1,8,0:0:0:0:
192,192,87299,1,2,0:0:0:0:
448,192,87299,1,0,0:0:0:0:
64,192,87455,1,2,0:0:0:0:
320,192,87455,1,8,0:0:0:0:
448,192,87455,1,0,0:0:0:0:
192,192,87612,1,6,0:0:0:0:
448,192,87612,1,8,0:0:0:0:
64,192,87690,1,8,0:0:0:0:
320,192,87690,1,0,0:0:0:0:
64,192,87846,1,8,0:0:0:0:
448,192,87846,1,0,0:0:0:0:
192,192,87924,1,8,0:0:0:0:
320,192,87924,1,2,0:0:0:0:
64,192,88080,1,2,0:0:0:0:
320,192,88080,1,8,0:0:0:0:
448,192,88080,1,4,0:0:0:0:
64,192,88237,1,2,0:0:0:0:
192,192,88237,1,0,0:0:0:0:
320,192,88315,1,2,0:0:0:0:
448,192,88315,1,0,0:0:0:0:
64,192,88393,1,2,0:0:0:0:
192,192,88393,1,0,0:0:0:0:
320,192,88471,1,2,0:0:0:0:
448,192,88471,1,0,0:0:0:0:
64,192,88549,1,0,0:0:0:70:tom1.wav
192,192,88549,1,0,0:0:0:0:
320,192,88627,1,0,0:0:0:70:tom2.wav
64,192,88705,1,0,0:0:0:70:tom3.wav
448,192,88705,1,0,0:0:0:0:
192,192,88783,1,0,0:0:0:70:tom4.wav
64,192,88862,1,4,0:0:0:0:
320,192,88862,1,2,0:0:0:0:
448,192,88862,128,0,88940:0:0:0:0:
192,192,89018,1,2,0:0:0:0:
448,192,89018,128,0,89174:0:0:0:0:
64,192,89174,1,2,0:0:0:0:
192,192,89174,128,8,89330:0:0:0:0:
320,192,89330,128,2,89487:0:0:0:0:
448,192,89330,1,0,0:0:0:0:
64,192,89487,128,2,89799:0:0:0:0:
192,192,89487,1,0,0:0:0:0:
320,192,89643,1,2,0:0:0:0:
448,192,89643,1,0,0:0:0:0:
192,192,89799,1,8,0:0:0:0:
448,192,89799,128,2,90033:0:0:0:0:
64,192,89955,128,2,90112:0:0:0:0:
320,192,89955,128,0,90033:0:0:0:0:
320,192,90112,1,2,0:0:0:0:
448,192,90112,1,0,0:0:0:0:
64,192,90268,128,2,90424:0:0:0:0:
192,192,90268,1,0,0:0:0:0:
320,192,90424,128,2,90580:0:0:0:0:
448,192,90424,1,8,0:0:0:0:
64,192,90580,1,2,0:0:0:0:
192,192,90580,128,0,90737:0:0:0:0:
320,192,90737,1,2,0:0:0:0:
448,192,90737,128,0,91049:0:0:0:0:
64,192,90893,1,2,0:0:0:0:
320,192,90893,1,0,0:0:0:0:
64,192,91049,128,8,91362:0:0:0:0:
192,192,91049,1,2,0:0:0:0:
192,192,91205,1,2,0:0:0:0:
320,192,91205,1,0,0:0:0:0:
320,192,91362,1,2,0:0:0:0:
448,192,91362,128,0,91440:0:0:0:0:
192,192,91518,1,2,0:0:0:0:
448,192,91518,128,0,91674:0:0:0:0:
64,192,91674,1,8,0:0:0:0:
192,192,91674,128,2,91830:0:0:0:0:
320,192,91830,128,2,91987:0:0:0:0:
448,192,91830,1,0,0:0:0:0:
64,192,91987,128,2,92299:0:0:0:0:
192,192,91987,1,0,0:0:0:0:
320,192,92143,1,2,0:0:0:0:
448,192,92143,1,0,0:0:0:0:
192,192,92299,1,2,0:0:0:0:
448,192,92299,128,8,92533:0:0:0:0:
64,192,92455,128,2,92612:0:0:0:0:
320,192,92455,128,0,92533:0:0:0:0:
320,192,92612,1,2,0:0:0:0:
448,192,92612,128,0,92690:0:0:0:0:
64,192,92768,128,2,92924:0:0:0:0:
192,192,92768,1,0,0:0:0:0:
320,192,92924,128,2,93080:0:0:0:0:
448,192,92924,1,8,0:0:0:0:
64,192,93080,1,2,0:0:0:0:
192,192,93080,128,0,93237:0:0:0:0:
320,192,93237,1,2,0:0:0:0:
448,192,93237,128,0,93393:0:0:0:0:
64,192,93393,1,2,0:0:0:0:
192,192,93471,1,2,0:0:0:0:
320,192,93549,1,8,0:0:0:0:
448,192,93549,1,2,0:0:0:0:
64,192,93627,1,8,0:0:0:0:
192,192,93627,1,2,0:0:0:0:
320,192,93705,1,8,0:0:0:0:
448,192,93705,1,2,0:0:0:0:
192,192,93783,1,10,0:0:0:0:
64,192,93862,128,4,93940:0:0:0:0:
320,192,93862,1,2,0:0:0:0:
448,192,93862,1,0,0:0:0:0:
64,192,94018,128,2,94174:0:0:0:0:
192,192,94018,1,0,0:0:0:0:
320,192,94174,128,2,94330:0:0:0:0:
448,192,94174,1,8,0:0:0:0:
64,192,94330,1,2,0:0:0:0:
192,192,94330,128,0,94487:0:0:0:0:
320,192,94487,1,2,0:0:0:0:
448,192,94487,128,0,94799:0:0:0:0:
64,192,94643,1,2,0:0:0:0:
192,192,94643,1,0,0:0:0:0:
64,192,94799,128,8,95033:0:0:0:0:
320,192,94799,1,2,0:0:0:0:
192,192,94955,128,2,95033:0:0:0:0:
448,192,94955,128,0,95112:0:0:0:0:
64,192,95112,1,2,0:0:0:0:
192,192,95112,1,0,0:0:0:0:
320,192,95268,1,2,0:0:0:0:
448,192,95268,128,0,95424:0:0:0:0:
64,192,95424,1,2,0:0:0:0:
192,192,95424,128,8,95580:0:0:0:0:
320,192,95580,128,2,95737:0:0:0:0:
448,192,95580,1,0,0:0:0:0:
64,192,95737,128,2,96049:0:0:0:0:
192,192,95737,1,0,0:0:0:0:
192,192,95893,1,2,0:0:0:0:
448,192,95893,1,0,0:0:0:0:
320,192,96049,1,8,0:0:0:0:
448,192,96049,128,2,96362:0:0:0:0:
64,192,96205,1,2,0:0:0:0:
192,192,96205,1,0,0:0:0:0:
64,192,96362,1,2,0:0:0:0:
320,192,96362,128,0,96440:0:0:0:0:
192,192,96440,128,0,96518:0:0:0:0:
320,192,96518,1,2,0:0:0:0:
448,192,96518,128,0,96674:0:0:0:0:
64,192,96674,1,8,0:0:0:0:
192,192,96674,128,2,96830:0:0:0:0:
320,192,96830,1,2,0:0:0:0:
448,192,96830,128,0,96908:0:0:0:0:
64,192,96987,1,2,0:0:0:0:
192,192,96987,1,0,0:0:0:0:
448,192,96987,128,0,97299:0:0:0:0:
192,192,97143,1,2,0:0:0:0:
320,192,97143,1,0,0:0:0:0:
64,192,97299,128,2,97612:0:0:0:0:
320,192,97299,1,8,0:0:0:0:
192,192,97455,128,2,97612:0:0:0:0:
448,192,97455,1,0,0:0:0:0:
320,192,97612,128,2,97768:0:0:0:0:
448,192,97612,1,0,0:0:0:0:
64,192,97768,1,2,0:0:0:0:
192,192,97768,1,0,0:0:0:0:
192,192,97924,1,2,0:0:0:0:
320,192,97924,1,8,0:0:0:0:
448,192,97924,1,0,0:0:0:0:
64,192,98080,1,2,0:0:0:0:
448,192,98080,1,0,0:0:0:0:
320,192,98158,1,2,0:0:0:0:
64,192,98237,1,8,0:0:0:0:
192,192,98237,1,2,0:0:0:0:
448,192,98237,1,4,0:0:0:0:
192,192,98393,1,2,0:0:0:0:
320,192,98393,1,0,0:0:0:0:
448,192,98471,1,2,0:0:0:0:
64,192,98549,1,8,0:0:0:0:
192,192,98549,1,2,0:0:0:0:
320,192,98627,1,8,0:0:0:0:
448,192,98627,1,2,0:0:0:0:
64,192,98705,1,8,0:0:0:0:
192,192,98705,1,2,0:0:0:0:
320,192,98783,1,10,0:0:0:0:
64,192,98862,1,4,0:0:0:0:
192,192,98862,1,2,0:0:0:0:
448,192,98862,128,0,98940:0:0:0:0:
320,192,99018,1,2,0:0:0:0:
448,192,99018,128,0,99174:0:0:0:0:
64,192,99174,1,2,0:0:0:0:
192,192,99174,128,8,99330:0:0:0:0:
320,192,99330,128,2,99487:0:0:0:0:
448,192,99330,1,0,0:0:0:0:
64,192,99487,128,2,99799:0:0:0:0:
192,192,99487,1,0,0:0:0:0:
320,192,99643,1,2,0:0:0:0:
448,192,99643,1,0,0:0:0:0:
192,192,99799,1,8,0:0:0:0:
448,192,99799,128,2,100033:0:0:0:0:
64,192,99955,128,2,100112:0:0:0:0:
320,192,99955,128,0,100033:0:0:0:0:
320,192,100112,1,2,0:0:0:0:
448,192,100112,1,0,0:0:0:0:
64,192,100268,128,2,100424:0:0:0:0:
192,192,100268,1,0,0:0:0:0:
320,192,100424,128,2,100580:0:0:0:0:
448,192,100424,1,8,0:0:0:0:
64,192,100580,1,2,0:0:0:0:
192,192,100580,128,0,100737:0:0:0:0:
320,192,100737,1,2,0:0:0:0:
448,192,100737,128,0,101049:0:0:0:0:
64,192,100893,1,2,0:0:0:0:
320,192,100893,1,0,0:0:0:0:
64,192,101049,128,8,101362:0:0:0:0:
192,192,101049,1,2,0:0:0:0:
192,192,101205,1,2,0:0:0:0:
320,192,101205,1,0,0:0:0:0:
320,192,101362,1,2,0:0:0:0:
448,192,101362,128,0,101440:0:0:0:0:
192,192,101518,1,2,0:0:0:0:
448,192,101518,128,0,101674:0:0:0:0:
64,192,101674,1,8,0:0:0:0:
192,192,101674,128,2,101830:0:0:0:0:
320,192,101830,128,2,101987:0:0:0:0:
448,192,101830,1,0,0:0:0:0:
64,192,101987,128,2,102299:0:0:0:0:
192,192,101987,1,0,0:0:0:0:
320,192,102143,1,2,0:0:0:0:
448,192,102143,1,0,0:0:0:0:
192,192,102299,1,2,0:0:0:0:
448,192,102299,128,8,102533:0:0:0:0:
64,192,102455,128,2,102612:0:0:0:0:
320,192,102455,128,0,102533:0:0:0:0:
320,192,102612,1,2,0:0:0:0:
448,192,102612,1,0,0:0:0:0:
64,192,102768,128,2,102924:0:0:0:0:
192,192,102768,1,0,0:0:0:0:
320,192,102924,128,2,103080:0:0:0:0:
448,192,102924,1,8,0:0:0:0:
64,192,103080,1,2,0:0:0:0:
192,192,103080,128,0,103237:0:0:0:0:
320,192,103237,1,2,0:0:0:0:
448,192,103237,128,0,103393:0:0:0:0:
64,192,103393,1,2,0:0:0:0:
192,192,103471,1,2,0:0:0:0:
320,192,103549,1,8,0:0:0:0:
448,192,103549,1,2,0:0:0:0:
64,192,103627,1,8,0:0:0:0:
192,192,103627,1,2,0:0:0:0:
320,192,103705,1,8,0:0:0:0:
448,192,103705,1,2,0:0:0:0:
192,192,103783,1,10,0:0:0:0:
64,192,103862,128,4,103940:0:0:0:0:
320,192,103862,1,2,0:0:0:0:
448,192,103862,1,0,0:0:0:0:
64,192,104018,128,2,104174:0:0:0:0:
192,192,104018,1,0,0:0:0:0:
320,192,104174,128,2,104330:0:0:0:0:
448,192,104174,1,8,0:0:0:0:
64,192,104330,1,2,0:0:0:0:
192,192,104330,128,0,104487:0:0:0:0:
320,192,104487,1,2,0:0:0:0:
448,192,104487,128,0,104799:0:0:0:0:
64,192,104643,1,2,0:0:0:0:
192,192,104643,1,0,0:0:0:0:
64,192,104799,128,8,105033:0:0:0:0:
320,192,104799,1,2,0:0:0:0:
192,192,104955,128,2,105033:0:0:0:0:
448,192,104955,128,0,105112:0:0:0:0:
64,192,105112,1,2,0:0:0:0:
192,192,105112,1,0,0:0:0:0:
320,192,105268,128,2,105424:0:0:0:0:
448,192,105268,1,0,0:0:0:0:
64,192,105424,1,2,0:0:0:0:
192,192,105424,1,8,0:0:0:0:
448,192,105424,1,0,0:0:0:0:
64,192,105580,1,2,0:0:0:0:
320,192,105580,1,0,0:0:0:0:
192,192,105658,1,2,0:0:0:0:
64,192,105737,1,2,0:0:0:0:
320,192,105737,1,8,0:0:0:0:
448,192,105737,1,0,0:0:0:0:
192,192,105893,1,2,0:0:0:0:
448,192,105893,1,0,0:0:0:0:
320,192,105971,1,2,0:0:0:0:
64,192,106049,1,8,0:0:0:0:
192,192,106049,1,2,0:0:0:0:
448,192,106049,1,0,0:0:0:0:
320,192,106127,1,2,0:0:0:0:
64,192,106205,1,2,0:0:0:0:
192,192,106205,1,0,0:0:0:0:
64,192,106362,128,2,106440:0:0:0:0:
320,192,106362,128,8,106440:0:0:0:0:
448,192,106362,128,0,106440:0:0:0:0:
64,192,106518,128,2,106674:0:0:0:0:
320,192,106518,128,8,106674:0:0:0:0:
448,192,106518,128,0,106674:0:0:0:0:
64,192,106830,1,2,0:0:0:0:
192,192,106830,1,8,0:0:0:0:
320,192,106908,1,2,0:0:0:0:
448,192,106908,1,8,0:0:0:0:
64,192,106987,1,2,0:0:0:0:
192,192,106987,1,8,0:0:0:0:
64,192,107143,1,2,0:0:0:0:
320,192,107143,1,8,0:0:0:0:
448,192,107143,1,0,0:0:0:0:
192,192,107299,1,0,0:0:0:70:tom1.wav
320,192,107299,1,0,0:0:0:0:
64,192,107455,1,2,0:0:0:0:
192,192,107455,1,8,0:0:0:0:
448,192,107455,1,0,0:0:0:0:
320,192,107612,1,8,0:0:0:0:
448,192,107612,1,2,0:0:0:0:
64,192,107716,1,8,0:0:0:0:
192,192,107716,1,2,0:0:0:0:
448,192,107820,1,0,0:0:0:70:tom1.wav
64,192,107924,1,0,0:0:0:70:tom2.wav
320,192,107924,1,0,0:0:0:0:
192,192,108028,1,0,0:0:0:70:tom3.wav
320,192,108132,1,0,0:0:0:70:tom4.wav
64,192,108237,128,8,108783:0:0:0:0:
192,192,108237,128,4,108783:0:0:0:0:
448,192,108237,128,0,108783:0:0:0:0:
320,192,108549,128,0,108783:0:0:0:0:
64,192,108862,1,0,0:0:0:0:
192,192,108862,1,0,0:0:0:0:
320,192,108862,128,4,109174:0:0:0:0:
448,192,108862,128,2,109174:0:0:0:0:
192,192,109174,1,2,0:0:0:0:
64,192,109174,1,0,0:0:0:0:
448,192,109330,1,2,0:0:0:0:
192,192,109330,128,0,109643:0:0:0:0:
64,192,109487,128,8,109643:0:0:0:0:
320,192,109487,1,0,0:0:0:0:
448,192,109643,128,0,109721:0:0:0:0:
448,192,109799,128,0,110268:0:0:0:0:
64,192,109955,1,8,0:0:0:0:
192,192,109955,1,0,0:0:0:0:
192,192,110112,1,2,0:0:0:0:
320,192,110112,1,0,0:0:0:0:
64,192,110268,1,8,0:0:0:0:
320,192,110268,1,0,0:0:0:0:
64,192,110424,128,2,110893:0:0:0:0:
192,192,110424,1,0,0:0:0:0:
320,192,110580,1,2,0:0:0:0:
448,192,110580,1,0,0:0:0:0:
192,192,110737,128,8,110893:0:0:0:0:
448,192,110737,128,0,111049:0:0:0:0:
64,192,111049,1,0,0:0:0:0:
192,192,111205,128,8,111283:0:0:0:0:
448,192,111205,1,0,0:0:0:0:
64,192,111362,128,2,111674:0:0:0:0:
320,192,111362,1,0,0:0:0:0:
320,192,111518,1,8,0:0:0:0:
448,192,111518,1,0,0:0:0:0:
192,192,111674,1,2,0:0:0:0:
448,192,111674,1,0,0:0:0:0:
64,192,111830,1,2,0:0:0:0:
192,192,111830,128,0,112143:0:0:0:0:
320,192,111987,1,8,0:0:0:0:
448,192,111987,1,0,0:0:0:0:
64,192,112143,1,2,0:0:0:0:
320,192,112143,1,0,0:0:0:0:
192,192,112299,1,0,0:0:0:0:
448,192,112299,128,0,112768:0:0:0:0:
64,192,112455,1,8,0:0:0:0:
320,192,112455,1,0,0:0:0:0:
64,192,112612,1,2,0:0:0:0:
192,192,112612,1,0,0:0:0:0:
192,192,112768,1,8,0:0:0:0:
320,192,112768,1,0,0:0:0:0:
64,192,112924,128,2,113549:0:0:0:0:
320,192,112924,1,0,0:0:0:0:
192,192,113080,1,2,0:0:0:0:
448,192,113080,1,0,0:0:0:0:
320,192,113237,1,8,0:0:0:0:
448,192,113237,1,0,0:0:0:0:
192,192,113393,128,8,113549:0:0:0:0:
448,192,113393,128,0,113705:0:0:0:0:
320,192,113549,1,0,0:0:0:0:
64,192,113705,1,8,0:0:0:0:
192,192,113705,1,0,0:0:0:0:
64,192,113862,1,2,0:0:0:0:
320,192,113862,128,0,114174:0:0:0:0:
448,192,113862,1,0,0:0:0:0:
64,192,114174,1,2,0:0:0:0:
192,192,114174,1,0,0:0:0:0:
192,192,114330,128,2,114487:0:0:0:0:
448,192,114330,1,0,0:0:0:0:
320,192,114487,1,8,0:0:0:0:
448,192,114487,1,0,0:0:0:0:
192,192,114721,128,0,114877:0:0:0:0:
64,192,114799,128,0,115112:0:0:0:0:
320,192,114955,1,8,0:0:0:0:
448,192,114955,1,0,0:0:0:0:
192,192,115112,1,2,0:0:0:0:
448,192,115112,128,0,115737:0:0:0:0:
64,192,115268,1,8,0:0:0:0:
320,192,115268,1,0,0:0:0:0:
192,192,115424,1,2,0:0:0:0:
320,192,115424,1,0,0:0:0:0:
64,192,115580,1,2,0:0:0:0:
192,192,115580,1,0,0:0:0:0:
64,192,115737,1,8,0:0:0:0:
320,192,115737,1,0,0:0:0:0:
192,192,116049,1,0,0:0:0:0:
320,192,116205,1,8,0:0:0:0:
448,192,116205,1,0,0:0:0:0:
64,192,116362,1,2,0:0:0:0:
192,192,116362,128,0,116674:0:0:0:0:
320,192,116518,128,8,116830:0:0:0:0:
448,192,116518,1,0,0:0:0:0:
64,192,116674,1,2,0:0:0:0:
448,192,116674,1,0,0:0:0:0:
64,192,116830,128,2,116987:0:0:0:0:
192,192,116830,1,0,0:0:0:0:
320,192,116987,1,8,0:0:0:0:
448,192,116987,128,0,117299:0:0:0:0:
64,192,117143,1,2,0:0:0:0:
192,192,117143,1,0,0:0:0:0:
192,192,117299,1,0,0:0:0:0:
320,192,117455,128,8,117612:0:0:0:0:
448,192,117455,1,0,0:0:0:0:
64,192,117612,128,2,117690:0:0:0:0:
192,192,117612,1,0,0:0:0:0:
64,192,117768,128,8,118237:0:0:0:0:
320,192,117768,1,0,0:0:0:0:
448,192,117768,1,0,0:0:0:0:
192,192,117924,1,2,0:0:0:0:
448,192,117924,1,0,0:0:0:0:
192,192,118080,1,2,0:0:0:0:
320,192,118080,1,0,0:0:0:0:
320,192,118237,1,0,0:0:0:70:tom1.wav
448,192,118237,1,0,0:0:0:0:
192,192,118393,1,0,0:0:0:70:tom2.wav
448,192,118393,1,0,0:0:0:0:
64,192,118549,1,0,0:0:0:70:tom3.wav
192,192,118549,1,0,0:0:0:0:
64,192,118705,1,0,0:0:0:70:tom4.wav
320,192,118705,1,0,0:0:0:0:
320,192,118862,128,4,119174:0:0:0:0:
448,192,118862,128,0,119174:0:0:0:0:
192,192,118862,1,2,0:0:0:0:
64,192,119174,1,2,0:0:0:0:
192,192,119174,1,0,0:0:0:0:
320,192,119330,128,0,119643:0:0:0:0:
64,192,119330,1,2,0:0:0:0:
192,192,119487,1,8,0:0:0:0:
448,192,119487,128,0,119643:0:0:0:0:
64,192,119643,128,0,120112:0:0:0:0:
192,192,119799,1,0,0:0:0:0:
320,192,119955,1,8,0:0:0:0:
448,192,119955,1,0,0:0:0:0:
192,192,120112,1,2,0:0:0:0:
320,192,120112,1,0,0:0:0:0:
192,192,120268,1,8,0:0:0:0:
448,192,120268,1,0,0:0:0:0:
320,192,120424,1,2,0:0:0:0:
448,192,120424,128,0,120893:0:0:0:0:
64,192,120580,1,2,0:0:0:0:
192,192,120580,1,0,0:0:0:0:
64,192,120737,128,8,121049:0:0:0:0:
320,192,120737,128,0,120893:0:0:0:0:
448,192,121049,1,0,0:0:0:0:
64,192,121205,1,8,0:0:0:0:
320,192,121205,128,0,121283:0:0:0:0:
192,192,121362,1,2,0:0:0:0:
448,192,121362,128,0,121596:0:0:0:0:
64,192,121518,1,8,0:0:0:0:
192,192,121518,1,0,0:0:0:0:
64,192,121674,128,2,121752:0:0:0:0:
320,192,121674,1,0,0:0:0:0:
320,192,121830,128,2,122065:0:0:0:0:
448,192,121830,1,0,0:0:0:0:
64,192,121987,1,8,0:0:0:0:
192,192,121987,1,0,0:0:0:0:
192,192,122143,128,2,122221:0:0:0:0:
448,192,122143,1,0,0:0:0:0:
64,192,122299,128,0,122768:0:0:0:0:
320,192,122299,1,0,0:0:0:0:
192,192,122455,1,8,0:0:0:0:
448,192,122455,1,0,0:0:0:0:
320,192,122612,1,2,0:0:0:0:
448,192,122612,1,0,0:0:0:0:
192,192,122768,1,8,0:0:0:0:
320,192,122768,1,0,0:0:0:0:
192,192,122924,1,2,0:0:0:0:
448,192,122924,128,0,123549:0:0:0:0:
64,192,123080,1,2,0:0:0:0:
320,192,123080,1,0,0:0:0:0:
64,192,123237,1,8,0:0:0:0:
192,192,123237,1,0,0:0:0:0:
64,192,123393,128,8,123705:0:0:0:0:
320,192,123393,128,0,123549:0:0:0:0:
192,192,123549,1,0,0:0:0:0:
320,192,123705,1,8,0:0:0:0:
448,192,123705,1,0,0:0:0:0:
64,192,123862,1,2,0:0:0:0:
192,192,123862,1,4,0:0:0:0:
448,192,123862,128,0,124018:0:0:0:0:
64,192,124018,1,8,0:0:0:0:
320,192,124018,1,0,0:0:0:0:
192,192,124174,1,2,0:0:0:0:
448,192,124174,1,0,0:0:0:0:
64,192,124330,1,2,0:0:0:0:
320,192,124330,128,0,124487:0:0:0:0:
64,192,124487,1,8,0:0:0:0:
192,192,124487,1,0,0:0:0:0:
192,192,124643,1,8,0:0:0:0:
448,192,124643,1,0,0:0:0:0:
64,192,124799,128,0,125112:0:0:0:0:
192,192,124955,1,8,0:0:0:0:
320,192,124955,1,0,0:0:0:0:
320,192,125112,1,2,0:0:0:0:
448,192,125112,1,0,0:0:0:0:
64,192,125190,1,8,0:0:0:0:
192,192,125190,1,0,0:0:0:0:
320,192,125268,1,8,0:0:0:0:
448,192,125268,1,0,0:0:0:0:
64,192,125346,1,8,0:0:0:0:
192,192,125346,1,0,0:0:0:0:
320,192,125424,1,2,0:0:0:0:
448,192,125424,1,8,0:0:0:0:
64,192,125580,128,2,125737:0:0:0:0:
192,192,125580,128,0,125737:0:0:0:0:
448,192,125580,128,0,125737:0:0:0:0:
64,192,125893,128,2,126049:0:0:0:0:
320,192,125893,128,0,126049:0:0:0:0:
448,192,125893,128,0,126049:0:0:0:0:
192,192,126049,1,0,0:0:0:70:tom1.wav
64,192,126127,1,0,0:0:0:70:tom2.wav
320,192,126205,1,0,0:0:0:70:tom3.wav
448,192,126205,1,0,0:0:0:0:
192,192,126283,1,0,0:0:0:70:tom4.wav
64,192,126362,1,2,0:0:0:0:
320,192,126362,1,8,0:0:0:0:
448,192,126362,1,4,0:0:0:0:
64,192,126518,1,2,0:0:0:0:
192,192,126518,1,0,0:0:0:0:
192,192,126674,1,2,0:0:0:0:
320,192,126674,1,8,0:0:0:0:
448,192,126674,1,0,0:0:0:0:
64,192,126830,1,2,0:0:0:0:
320,192,126830,1,0,0:0:0:0:
64,192,126987,1,8,0:0:0:0:
192,192,126987,1,2,0:0:0:0:
448,192,126987,1,0,0:0:0:0:
192,192,127143,1,2,0:0:0:0:
320,192,127143,1,0,0:0:0:0:
64,192,127299,1,2,0:0:0:0:
320,192,127299,1,8,0:0:0:0:
448,192,127299,1,0,0:0:0:0:
192,192,127455,1,2,0:0:0:0:
448,192,127455,1,0,0:0:0:0:
64,192,127612,128,2,127924:0:0:0:0:
320,192,127612,128,8,127846:0:0:0:0:
448,192,127612,128,4,127846:0:0:0:0:
320,192,127924,1,2,0:0:0:0:
448,192,127924,1,8,0:0:0:0:
64,192,128002,1,2,0:0:0:0:
192,192,128002,1,8,0:0:0:0:
320,192,128080,1,8,0:0:0:0:
448,192,128080,1,2,0:0:0:0:
64,192,128158,1,2,0:0:0:0:
192,192,128158,1,8,0:0:0:0:
320,192,128237,1,2,0:0:0:0:
448,192,128237,1,8,0:0:0:0:
64,192,128315,1,2,0:0:0:0:
192,192,128315,1,8,0:0:0:0:
320,192,128393,1,2,0:0:0:0:
448,192,128393,1,8,0:0:0:0:
64,192,128471,1,2,0:0:0:0:
192,192,128471,1,8,0:0:0:0:
320,192,128549,1,0,0:0:0:70:tom1.wav
448,192,128549,1,0,0:0:0:0:
192,192,128627,1,0,0:0:0:70:tom2.wav
64,192,128705,1,0,0:0:0:70:tom3.wav
448,192,128705,1,0,0:0:0:0:
320,192,128783,1,0,0:0:0:70:tom4.wav
64,192,128862,1,2,0:0:0:0:
192,192,128862,1,4,0:0:0:0:
448,192,128862,1,0,0:0:0:0:
192,192,129018,1,2,0:0:0:0:
320,192,129018,1,0,0:0:0:0:
64,192,129174,1,8,0:0:0:0:
192,192,129174,1,2,0:0:0:0:
448,192,129174,1,0,0:0:0:0:
320,192,129330,1,0,0:0:0:0:
64,192,129408,1,8,0:0:0:0:
192,192,129408,1,0,0:0:0:0:
320,192,129487,1,2,0:0:0:0:
448,192,129487,1,0,0:0:0:0:
64,192,129643,1,2,0:0:0:0:
192,192,129643,1,0,0:0:0:0:
64,192,129799,1,2,0:0:0:0:
320,192,129799,1,8,0:0:0:0:
448,192,129799,1,0,0:0:0:0:
192,192,129955,1,0,0:0:0:0:
320,192,130033,1,2,0:0:0:0:
448,192,130033,1,0,0:0:0:0:
64,192,130112,1,2,0:0:0:0:
192,192,130112,1,0,0:0:0:0:
320,192,130268,1,2,0:0:0:0:
448,192,130268,1,0,0:0:0:0:
64,192,130424,1,8,0:0:0:0:
192,192,130424,1,2,0:0:0:0:
448,192,130424,1,0,0:0:0:0:
320,192,130580,1,0,0:0:0:0:
192,192,130658,1,0,0:0:0:70:tom2.wav
448,192,130658,1,0,0:0:0:0:
64,192,130737,1,2,0:0:0:0:
320,192,130737,1,0,0:0:0:0:
192,192,130893,1,2,0:0:0:0:
448,192,130893,1,0,0:0:0:0:
64,192,131049,1,8,0:0:0:0:
320,192,131049,1,2,0:0:0:0:
448,192,131049,1,0,0:0:0:0:
192,192,131205,1,0,0:0:0:0:
64,192,131283,1,8,0:0:0:0:
320,192,131283,1,0,0:0:0:0:
192,192,131362,1,2,0:0:0:0:
448,192,131362,1,0,0:0:0:0:
64,192,131518,1,2,0:0:0:0:
320,192,131518,1,0,0:0:0:0:
64,192,131674,1,2,0:0:0:0:
192,192,131674,1,8,0:0:0:0:
448,192,131674,1,0,0:0:0:0:
320,192,131830,1,0,0:0:0:0:
64,192,131908,1,8,0:0:0:0:
192,192,131908,1,0,0:0:0:0:
320,192,131987,1,2,0:0:0:0:
448,192,131987,1,0,0:0:0:0:
64,192,132143,1,2,0:0:0:0:
192,192,132143,1,0,0:0:0:0:
64,192,132299,1,8,0:0:0:0:
320,192,132299,1,2,0:0:0:0:
448,192,132299,1,0,0:0:0:0:
192,192,132455,1,0,0:0:0:0:
320,192,132533,1,2,0:0:0:0:
448,192,132533,1,0,0:0:0:0:
64,192,132612,1,2,0:0:0:0:
192,192,132612,1,0,0:0:0:0:
320,192,132768,1,2,0:0:0:0:
448,192,132768,1,0,0:0:0:0:
64,192,132924,1,2,0:0:0:0:
192,192,132924,1,8,0:0:0:0:
448,192,132924,1,0,0:0:0:0:
320,192,133080,1,0,0:0:0:0:
192,192,133158,1,8,0:0:0:0:
448,192,133158,1,0,0:0:0:0:
64,192,133237,1,2,0:0:0:0:
320,192,133237,1,0,0:0:0:0:
64,192,133393,1,2,0:0:0:0:
192,192,133393,1,0,0:0:0:0:
192,192,133549,1,2,0:0:0:0:
320,192,133549,1,8,0:0:0:0:
448,192,133549,1,0,0:0:0:0:
320,192,133705,1,2,0:0:0:0:
448,192,133705,1,8,0:0:0:0:
64,192,133783,1,2,0:0:0:0:
192,192,133783,1,8,0:0:0:0:
320,192,133862,1,4,0:0:0:0:
448,192,133862,1,2,0:0:0:0:
64,192,134018,1,2,0:0:0:0:
192,192,134018,1,0,0:0:0:0:
64,192,134174,1,2,0:0:0:0:
320,192,134174,1,8,0:0:0:0:
448,192,134174,1,0,0:0:0:0:
192,192,134330,1,0,0:0:0:0:
320,192,134408,1,8,0:0:0:0:
448,192,134408,1,0,0:0:0:0:
64,192,134487,1,2,0:0:0:0:
192,192,134487,1,0,0:0:0:0:
320,192,134643,1,2,0:0:0:0:
448,192,134643,1,0,0:0:0:0:
64,192,134799,1,8,0:0:0:0:
192,192,134799,1,2,0:0:0:0:
448,192,134799,1,0,0:0:0:0:
320,192,134955,1,0,0:0:0:0:
64,192,135033,1,2,0:0:0:0:
192,192,135033,1,0,0:0:0:0:
320,192,135112,1,2,0:0:0:0:
448,192,135112,1,0,0:0:0:0:
64,192,135268,1,2,0:0:0:0:
192,192,135268,1,0,0:0:0:0:
64,192,135424,1,2,0:0:0:0:
320,192,135424,1,8,0:0:0:0:
448,192,135424,1,0,0:0:0:0:
192,192,135580,1,0,0:0:0:0:
320,192,135658,1,8,0:0:0:0:
448,192,135658,1,0,0:0:0:0:
64,192,135737,1,2,0:0:0:0:
192,192,135737,1,0,0:0:0:0:
64,192,135893,1,2,0:0:0:0:
320,192,135893,1,0,0:0:0:0:
192,192,136049,1,2,0:0:0:0:
320,192,136049,1,8,0:0:0:0:
448,192,136049,1,0,0:0:0:0:
64,192,136205,1,2,0:0:0:0:
192,192,136205,1,0,0:0:0:0:
64,192,136362,1,2,0:0:0:0:
320,192,136362,1,8,0:0:0:0:
448,192,136362,1,4,0:0:0:0:
192,192,136518,1,2,0:0:0:0:
448,192,136518,1,0,0:0:0:0:
64,192,136674,1,2,0:0:0:0:
320,192,136674,1,0,0:0:0:0:
192,192,136830,1,2,0:0:0:0:
320,192,136830,1,8,0:0:0:0:
448,192,136830,1,4,0:0:0:0:
64,192,136987,1,2,0:0:0:0:
192,192,136987,1,0,0:0:0:0:
320,192,137143,1,2,0:0:0:0:
448,192,137143,1,0,0:0:0:0:
64,192,137299,1,2,0:0:0:0:
192,192,137299,1,8,0:0:0:0:
448,192,137299,1,4,0:0:0:0:
64,192,137455,1,2,0:0:0:0:
320,192,137455,1,0,0:0:0:0:
192,192,137533,1,2,0:0:0:0:
64,192,137612,1,2,0:0:0:0:
320,192,137612,1,4,0:0:0:0:
448,192,137612,1,8,0:0:0:0:
192,192,137768,1,2,0:0:0:0:
448,192,137768,1,0,0:0:0:0:
320,192,137846,1,2,0:0:0:0:
64,192,137924,1,8,0:0:0:0:
192,192,137924,1,2,0:0:0:0:
448,192,137924,1,4,0:0:0:0:
64,192,138080,1,2,0:0:0:0:
192,192,138080,1,8,0:0:0:0:
320,192,138080,1,0,0:0:0:0:
320,192,138237,1,2,0:0:0:0:
448,192,138237,1,8,0:0:0:0:
64,192,138315,1,2,0:0:0:0:
192,192,138315,1,8,0:0:0:0:
320,192,138393,1,2,0:0:0:0:
448,192,138393,1,8,0:0:0:0:
64,192,138471,1,2,0:0:0:0:
192,192,138471,1,8,0:0:0:0:
320,192,138549,1,0,0:0:0:70:tom1.wav
448,192,138549,1,0,0:0:0:0:
192,192,138627,1,0,0:0:0:70:tom2.wav
64,192,138705,1,0,0:0:0:70:tom3.wav
448,192,138705,1,0,0:0:0:0:
320,192,138783,1,0,0:0:0:70:tom4.wav
64,192,138862,1,2,0:0:0:0:
192,192,138862,1,4,0:0:0:0:
448,192,138862,128,0,139096:0:0:0:0:
192,192,139018,1,2,0:0:0:0:
320,192,139018,1,0,0:0:0:0:
64,192,139174,128,8,139408:0:0:0:0:
320,192,139174,1,2,0:0:0:0:
448,192,139174,1,0,0:0:0:0:
320,192,139408,128,8,139565:0:0:0:0:
448,192,139408,128,0,139487:0:0:0:0:
64,192,139487,128,2,139721:0:0:0:0:
192,192,139487,128,0,139565:0:0:0:0:
320,192,139643,1,2,0:0:0:0:
448,192,139643,1,0,0:0:0:0:
64,192,139799,1,2,0:0:0:0:
192,192,139799,1,8,0:0:0:0:
448,192,139799,128,0,140033:0:0:0:0:
64,192,140033,1,2,0:0:0:0:
192,192,140033,1,0,0:0:0:0:
320,192,140112,128,2,140190:0:0:0:0:
448,192,140112,1,0,0:0:0:0:
64,192,140268,1,2,0:0:0:0:
192,192,140268,128,0,140346:0:0:0:0:
64,192,140424,1,8,0:0:0:0:
320,192,140424,1,2,0:0:0:0:
448,192,140424,1,0,0:0:0:0:
448,192,140580,1,0,0:0:0:0:
64,192,140658,1,0,0:0:0:70:tom2.wav
192,192,140658,1,0,0:0:0:0:
320,192,140737,1,2,0:0:0:0:
448,192,140737,1,0,0:0:0:0:
64,192,140893,1,2,0:0:0:0:
192,192,140893,128,0,141127:0:0:0:0:
64,192,141049,128,8,141205:0:0:0:0:
320,192,141049,1,2,0:0:0:0:
448,192,141049,1,0,0:0:0:0:
320,192,141283,1,8,0:0:0:0:
448,192,141283,1,0,0:0:0:0:
64,192,141362,1,2,0:0:0:0:
192,192,141362,128,0,141596:0:0:0:0:
320,192,141518,1,2,0:0:0:0:
448,192,141518,1,0,0:0:0:0:
64,192,141674,1,2,0:0:0:0:
192,192,141674,1,8,0:0:0:0:
448,192,141674,128,0,141908:0:0:0:0:
64,192,141908,128,8,141987:0:0:0:0:
192,192,141908,128,0,142065:0:0:0:0:
320,192,141987,128,2,142065:0:0:0:0:
448,192,141987,128,0,142221:0:0:0:0:
64,192,142143,1,2,0:0:0:0:
192,192,142143,1,0,0:0:0:0:
64,192,142299,1,8,0:0:0:0:
320,192,142299,1,2,0:0:0:0:
448,192,142299,1,0,0:0:0:0:
192,192,142455,128,0,142533:0:0:0:0:
320,192,142533,1,2,0:0:0:0:
448,192,142533,1,0,0:0:0:0:
64,192,142612,1,2,0:0:0:0:
192,192,142612,128,0,142690:0:0:0:0:
320,192,142768,1,2,0:0:0:0:
448,192,142768,128,0,142924:0:0:0:0:
64,192,142924,1,2,0:0:0:0:
192,192,142924,1,8,0:0:0:0:
320,192,142924,1,0,0:0:0:0:
64,192,143080,1,0,0:0:0:0:
320,192,143158,1,8,0:0:0:0:
448,192,143158,1,0,0:0:0:0:
64,192,143237,1,2,0:0:0:0:
192,192,143237,1,0,0:0:0:0:
192,192,143393,1,2,0:0:0:0:
320,192,143393,1,0,0:0:0:0:
64,192,143549,1,2,0:0:0:0:
320,192,143549,1,8,0:0:0:0:
448,192,143549,1,0,0:0:0:0:
64,192,143705,1,2,0:0:0:0:
192,192,143705,1,8,0:0:0:0:
320,192,143783,1,2,0:0:0:0:
448,192,143783,1,8,0:0:0:0:
64,192,143862,1,4,0:0:0:0:
192,192,143862,128,2,144096:0:0:0:0:
320,192,144018,1,2,0:0:0:0:
448,192,144018,1,0,0:0:0:0:
64,192,144174,1,2,0:0:0:0:
192,192,144174,1,8,0:0:0:0:
448,192,144174,1,0,0:0:0:0:
320,192,144330,1,0,0:0:0:0:
64,192,144408,1,8,0:0:0:0:
192,192,144408,1,0,0:0:0:0:
320,192,144487,1,2,0:0:0:0:
448,192,144487,1,0,0:0:0:0:
192,192,144643,1,2,0:0:0:0:
448,192,144643,1,0,0:0:0:0:
64,192,144799,128,8,145033:0:0:0:0:
192,192,144799,1,2,0:0:0:0:
320,192,144799,1,0,0:0:0:0:
320,192,145033,1,2,0:0:0:0:
448,192,145033,1,0,0:0:0:0:
64,192,145112,1,2,0:0:0:0:
192,192,145112,128,0,145346:0:0:0:0:
320,192,145268,1,2,0:0:0:0:
448,192,145268,1,0,0:0:0:0:
64,192,145424,1,2,0:0:0:0:
192,192,145424,1,8,0:0:0:0:
448,192,145424,1,0,0:0:0:0:
320,192,145580,1,0,0:0:0:0:
64,192,145658,1,8,0:0:0:0:
192,192,145658,1,0,0:0:0:0:
320,192,145737,1,2,0:0:0:0:
448,192,145737,1,0,0:0:0:0:
64,192,145893,1,2,0:0:0:0:
192,192,145893,1,0,0:0:0:0:
64,192,146049,1,2,0:0:0:0:
320,192,146049,1,8,0:0:0:0:
448,192,146049,1,0,0:0:0:0:
192,192,146205,1,2,0:0:0:0:
448,192,146205,1,0,0:0:0:0:
320,192,146283,1,2,0:0:0:0:
64,192,146362,1,2,0:0:0:0:
192,192,146362,1,8,0:0:0:0:
448,192,146362,1,4,0:0:0:0:
64,192,146518,1,2,0:0:0:0:
320,192,146518,1,0,0:0:0:0:
192,192,146596,1,2,0:0:0:0:
64,192,146674,1,2,0:0:0:0:
320,192,146674,1,8,0:0:0:0:
448,192,146674,1,0,0:0:0:0:
192,192,146830,1,2,0:0:0:0:
448,192,146830,1,0,0:0:0:0:
320,192,146908,1,2,0:0:0:0:
64,192,146987,1,2,0:0:0:0:
192,192,146987,1,0,0:0:0:0:
448,192,147065,1,2,0:0:0:0:
64,192,147143,1,2,0:0:0:0:
192,192,147143,1,0,0:0:0:0:
320,192,147221,1,2,0:0:0:0:
64,192,147299,1,8,0:0:0:0:
192,192,147299,1,2,0:0:0:0:
448,192,147299,1,0,0:0:0:0:
64,192,147455,1,2,0:0:0:0:
320,192,147455,1,8,0:0:0:0:
448,192,147455,1,0,0:0:0:0:
192,192,147612,1,6,0:0:0:0:
448,192,147612,1,8,0:0:0:0:
64,192,147690,1,8,0:0:0:0:
320,192,147690,1,0,0:0:0:0:
64,192,147846,1,8,0:0:0:0:
448,192,147846,1,0,0:0:0:0:
192,192,147924,1,8,0:0:0:0:
320,192,147924,1,2,0:0:0:0:
64,192,148080,1,2,0:0:0:0:
320,192,148080,1,8,0:0:0:0:
448,192,148080,1,4,0:0:0:0:
64,192,148237,1,2,0:0:0:0:
192,192,148237,1,0,0:0:0:0:
320,192,148315,1,2,0:0:0:0:
448,192,148315,1,0,0:0:0:0:
64,192,148393,1,2,0:0:0:0:
192,192,148393,1,0,0:0:0:0:
320,192,148471,1,2,0:0:0:0:
448,192,148471,1,0,0:0:0:0:
64,192,148549,1,0,0:0:0:70:tom1.wav
192,192,148549,1,0,0:0:0:0:
320,192,148627,1,0,0:0:0:70:tom2.wav
64,192,148705,1,0,0:0:0:70:tom3.wav
448,192,148705,1,0,0:0:0:0:
192,192,148783,1,0,0:0:0:70:tom4.wav
64,192,148862,1,8,0:0:0:0:
320,192,148862,1,0,0:0:0:0:
448,192,148862,1,0,0:0:0:0:
192,192,149018,1,0,0:0:0:0:
448,192,149174,128,0,149252:0:0:0:0:
320,192,149330,1,0,0:0:0:0:
64,192,149487,128,0,149565:0:0:0:0:
64,192,149643,128,0,150112:0:0:0:0:
448,192,150112,128,0,150190:0:0:0:0:
192,192,150268,1,0,0:0:0:0:
320,192,150424,128,0,150502:0:0:0:0:
64,192,150580,1,0,0:0:0:0:
448,192,150737,128,0,150815:0:0:0:0:
448,192,150893,128,0,151362:0:0:0:0:
64,192,151362,128,0,151440:0:0:0:0:
64,192,151518,1,0,0:0:0:0:
320,192,151674,128,0,151752:0:0:0:0:
320,192,151830,128,0,151869:0:0:0:0:
192,192,151987,128,0,152065:0:0:0:0:
192,192,152143,128,0,152221:0:0:0:0:
448,192,152299,128,0,152377:0:0:0:0:
448,192,152455,128,0,152572:0:0:0:0:
64,192,152612,128,0,152690:0:0:0:0:
64,192,152768,128,0,152924:0:0:0:0:
320,192,152924,128,0,153002:0:0:0:0:
64,192,153080,1,2,0:0:0:0:
320,192,153080,1,0,0:0:0:0:
192,192,153158,1,2,0:0:0:0:
64,192,153237,1,2,0:0:0:0:
320,192,153237,1,8,0:0:0:0:
448,192,153237,1,0,0:0:0:0:
192,192,153393,1,2,0:0:0:0:
448,192,153393,1,0,0:0:0:0:
320,192,153549,128,0,153783:0:0:0:0:
192,192,153705,128,0,153862:0:0:0:0:
64,192,153862,1,2,0:0:0:0:
320,192,153862,1,4,0:0:0:0:
448,192,153862,128,0,154330:0:0:0:0:
64,192,154018,1,2,0:0:0:0:
192,192,154018,1,0,0:0:0:0:
192,192,154174,1,2,0:0:0:0:
320,192,154174,1,0,0:0:0:0:
64,192,154330,1,2,0:0:0:0:
320,192,154330,1,0,0:0:0:0:
192,192,154487,128,8,154721:0:0:0:0:
448,192,154487,1,0,0:0:0:0:
64,192,154643,128,2,154721:0:0:0:0:
320,192,154643,1,0,0:0:0:0:
448,192,154643,1,0,0:0:0:0:
192,192,154799,128,0,154877:0:0:0:0:
64,192,154955,1,2,0:0:0:0:
448,192,154955,128,0,155112:0:0:0:0:
320,192,155033,128,0,155268:0:0:0:0:
192,192,155112,1,0,0:0:0:0:
64,192,155268,128,2,155424:0:0:0:0:
448,192,155268,1,0,0:0:0:0:
192,192,155424,1,2,0:0:0:0:
320,192,155424,1,0,0:0:0:0:
192,192,155580,128,2,155737:0:0:0:0:
448,192,155580,1,0,0:0:0:0:
64,192,155737,1,8,0:0:0:0:
320,192,155737,1,0,0:0:0:0:
448,192,155893,128,0,156049:0:0:0:0:
64,192,156049,128,0,156205:0:0:0:0:
320,192,156205,1,8,0:0:0:0:
448,192,156205,1,0,0:0:0:0:
64,192,156362,128,2,156830:0:0:0:0:
192,192,156362,1,4,0:0:0:0:
448,192,156362,1,0,0:0:0:0:
192,192,156518,1,2,0:0:0:0:
320,192,156518,1,0,0:0:0:0:
320,192,156674,1,2,0:0:0:0:
448,192,156674,1,0,0:0:0:0:
192,192,156830,1,2,0:0:0:0:
448,192,156830,1,0,0:0:0:0:
64,192,156987,1,8,0:0:0:0:
320,192,156987,128,0,157143:0:0:0:0:
192,192,157143,128,2,157299:0:0:0:0:
448,192,157143,1,0,0:0:0:0:
448,192,157299,128,0,157377:0:0:0:0:
64,192,157455,1,2,0:0:0:0:
320,192,157455,128,0,157612:0:0:0:0:
192,192,157612,1,0,0:0:0:0:
320,192,157768,1,2,0:0:0:0:
448,192,157768,128,0,157924:0:0:0:0:
64,192,157924,1,2,0:0:0:0:
192,192,157924,1,0,0:0:0:0:
320,192,158080,128,2,158237:0:0:0:0:
448,192,158158,128,0,158549:0:0:0:0:
64,192,158237,1,8,0:0:0:0:
192,192,158237,1,0,0:0:0:0:
320,192,158393,1,0,0:0:0:0:
64,192,158549,1,8,0:0:0:0:
192,192,158549,1,0,0:0:0:0:
64,192,158705,1,8,0:0:0:0:
192,192,158705,1,0,0:0:0:0:
64,192,158862,1,4,0:0:0:0:
320,192,158862,1,2,0:0:0:0:
448,192,158862,1,0,0:0:0:0:
192,192,159018,1,2,0:0:0:0:
448,192,159018,1,0,0:0:0:0:
320,192,159096,128,0,159174:0:0:0:0:
64,192,159174,1,2,0:0:0:0:
192,192,159174,1,0,0:0:0:0:
320,192,159330,1,2,0:0:0:0:
448,192,159330,128,0,159408:0:0:0:0:
64,192,159487,1,8,0:0:0:0:
192,192,159487,128,0,159643:0:0:0:0:
320,192,159643,1,2,0:0:0:0:
448,192,159643,1,0,0:0:0:0:
64,192,159721,128,0,159955:0:0:0:0:
192,192,159955,1,2,0:0:0:0:
448,192,159955,128,0,160033:0:0:0:0:
320,192,160112,128,0,160268:0:0:0:0:
64,192,160268,1,2,0:0:0:0:
192,192,160268,128,0,160424:0:0:0:0:
320,192,160424,1,2,0:0:0:0:
448,192,160424,128,0,160658:0:0:0:0:
64,192,160580,128,2,160737:0:0:0:0:
192,192,160580,1,0,0:0:0:0:
320,192,160737,1,8,0:0:0:0:
448,192,160737,1,0,0:0:0:0:
192,192,161049,128,0,161127:0:0:0:0:
320,192,161205,128,0,161283:0:0:0:0:
64,192,161362,1,2,0:0:0:0:
192,192,161362,1,4,0:0:0:0:
448,192,161362,128,0,161518:0:0:0:0:
64,192,161518,1,2,0:0:0:0:
320,192,161518,1,0,0:0:0:0:
192,192,161596,128,0,161674:0:0:0:0:
320,192,161674,1,2,0:0:0:0:
448,192,161674,1,0,0:0:0:0:
64,192,161830,128,2,161908:0:0:0:0:
192,192,161830,1,0,0:0:0:0:
320,192,161987,1,8,0:0:0:0:
448,192,161987,128,0,162143:0:0:0:0:
64,192,162143,1,2,0:0:0:0:
192,192,162143,1,0,0:0:0:0:
320,192,162221,128,0,162377:0:0:0:0:
64,192,162455,128,2,162533:0:0:0:0:
448,192,162455,1,0,0:0:0:0:
320,192,162612,128,0,162768:0:0:0:0:
64,192,162768,1,2,0:0:0:0:
192,192,162768,128,0,162924:0:0:0:0:
320,192,162924,1,2,0:0:0:0:
448,192,162924,128,0,163158:0:0:0:0:
64,192,163080,128,2,163237:0:0:0:0:
192,192,163080,1,0,0:0:0:0:
320,192,163237,1,8,0:0:0:0:
448,192,163237,1,0,0:0:0:0:
320,192,163393,1,8,0:0:0:0:
448,192,163393,1,0,0:0:0:0:
64,192,163549,1,8,0:0:0:0:
192,192,163549,1,0,0:0:0:0:
448,192,163549,1,0,0:0:0:0:
64,192,163705,1,8,0:0:0:0:
192,192,163705,1,0,0:0:0:0:
64,192,163862,1,4,0:0:0:0:
320,192,163862,1,2,0:0:0:0:
448,192,163862,128,0,164330:0:0:0:0:
192,192,164018,1,2,0:0:0:0:
320,192,164018,1,0,0:0:0:0:
64,192,164174,1,2,0:0:0:0:
192,192,164174,1,0,0:0:0:0:
64,192,164330,1,2,0:0:0:0:
320,192,164330,1,0,0:0:0:0:
192,192,164487,128,8,164721:0:0:0:0:
448,192,164487,1,0,0:0:0:0:
64,192,164643,128,2,164721:0:0:0:0:
320,192,164643,1,0,0:0:0:0:
448,192,164643,1,0,0:0:0:0:
192,192,164799,128,0,164877:0:0:0:0:
64,192,164955,1,2,0:0:0:0:
448,192,164955,128,0,165112:0:0:0:0:
320,192,165033,128,0,165268:0:0:0:0:
192,192,165112,1,0,0:0:0:0:
64,192,165268,128,2,165424:0:0:0:0:
448,192,165268,1,0,0:0:0:0:
192,192,165424,1,2,0:0:0:0:
320,192,165424,1,0,0:0:0:0:
192,192,165580,128,2,165737:0:0:0:0:
448,192,165580,1,0,0:0:0:0:
64,192,165737,1,8,0:0:0:0:
320,192,165737,1,0,0:0:0:0:
448,192,165893,128,0,166049:0:0:0:0:
64,192,166049,128,0,166205:0:0:0:0:
320,192,166205,1,0,0:0:0:0:
448,192,166205,1,0,0:0:0:0:
64,192,166362,128,4,166830:0:0:0:0:
192,192,166362,1,2,0:0:0:0:
448,192,166362,1,0,0:0:0:0:
192,192,166518,1,2,0:0:0:0:
320,192,166518,1,0,0:0:0:0:
320,192,166674,1,2,0:0:0:0:
448,192,166674,1,0,0:0:0:0:
192,192,166830,1,2,0:0:0:0:
448,192,166830,1,0,0:0:0:0:
64,192,166987,1,8,0:0:0:0:
320,192,166987,128,0,167143:0:0:0:0:
192,192,167143,128,2,167299:0:0:0:0:
448,192,167143,1,0,0:0:0:0:
448,192,167299,128,0,167377:0:0:0:0:
64,192,167455,1,2,0:0:0:0:
320,192,167455,128,0,167612:0:0:0:0:
192,192,167612,1,0,0:0:0:0:
320,192,167768,1,2,0:0:0:0:
448,192,167768,128,0,167924:0:0:0:0:
64,192,167924,1,2,0:0:0:0:
192,192,167924,1,0,0:0:0:0:
320,192,168080,128,2,168237:0:0:0:0:
448,192,168158,128,0,168549:0:0:0:0:
64,192,168237,1,8,0:0:0:0:
192,192,168237,1,0,0:0:0:0:
320,192,168393,1,0,0:0:0:0:
192,192,168549,128,0,168627:0:0:0:70:tom1.wav
192,192,168705,128,0,168783:0:0:0:70:tom2.wav
64,192,168862,1,2,0:0:0:0:
320,192,168862,1,4,0:0:0:0:
448,192,168862,1,0,0:0:0:0:
192,192,169018,1,2,0:0:0:0:
448,192,169018,1,0,0:0:0:0:
320,192,169096,128,0,169174:0:0:0:0:
64,192,169174,1,2,0:0:0:0:
192,192,169174,1,0,0:0:0:0:
320,192,169330,1,2,0:0:0:0:
448,192,169330,128,0,169408:0:0:0:0:
64,192,169487,1,8,0:0:0:0:
192,192,169487,1,0,0:0:0:0:
448,192,169487,1,0,0:0:0:0:
64,192,169643,1,8,0:0:0:0:
192,192,169643,1,0,0:0:0:0:
320,192,169643,1,0,0:0:0:0:
64,192,169799,1,2,0:0:0:0:
448,192,169799,1,0,0:0:0:0:
192,192,169955,1,8,0:0:0:0:
320,192,169955,1,0,0:0:0:0:
448,192,169955,1,0,0:0:0:0:
64,192,170112,1,8,0:0:0:0:
192,192,170112,1,0,0:0:0:0:
320,192,170190,1,8,0:0:0:0:
448,192,170190,1,0,0:0:0:0:
64,192,170346,1,8,0:0:0:0:
320,192,170346,1,0,0:0:0:0:
192,192,170424,1,8,0:0:0:0:
448,192,170424,1,0,0:0:0:0:
64,192,170580,1,8,0:0:0:0:
192,192,170580,1,0,0:0:0:0:
320,192,170580,1,0,0:0:0:0:
320,192,170737,1,0,0:0:0:70:tom1.wav
448,192,170737,1,0,0:0:0:0:
192,192,170815,1,0,0:0:0:70:tom2.wav
64,192,170893,1,0,0:0:0:70:tom3.wav
448,192,170893,1,0,0:0:0:0:
320,192,170971,1,0,0:0:0:70:tom4.wav
64,192,171049,1,0,0:0:0:70:tom3.wav
192,192,171049,1,0,0:0:0:0:
320,192,171127,1,0,0:0:0:70:tom3.wav
448,192,171127,1,0,0:0:0:0:
64,192,171205,1,0,0:0:0:70:tom4.wav
192,192,171205,1,0,0:0:0:0:
320,192,171283,1,0,0:0:0:70:tom4.wav
64,192,171362,1,8,0:0:0:0:
192,192,171362,1,0,0:0:0:0:
448,192,171362,1,0,0:0:0:0:
320,192,171615,1,0,0:0:0:0:
64,192,171791,1,0,0:0:0:0:
320,192,171960,1,0,0:0:0:0:
192,192,172195,1,0,0:0:0:0:
64,192,172455,1,0,0:0:0:0:
448,192,172455,1,0,0:0:0:0:
320,192,172638,1,0,0:0:0:0:
192,192,172794,1,0,0:0:0:0:
448,192,172924,1,0,0:0:0:0:
64,192,173100,1,0,0:0:0:0:
192,192,173393,1,0,0:0:0:0:
64,192,173549,128,0,173627:0:0:0:70:tom1.wav
448,192,173549,1,0,0:0:0:0:
192,192,173627,128,0,173705:0:0:0:70:tom2.wav
320,192,173705,128,0,173783:0:0:0:70:tom3.wav
448,192,173705,1,0,0:0:0:0:
192,192,173783,128,0,173862:0:0:0:70:tom4.wav
64,192,173862,1,4,0:0:0:0:
320,192,173862,1,2,0:0:0:0:
448,192,173862,1,0,0:0:0:0:
192,192,173940,1,0,0:0:0:0:
448,192,174018,1,2,0:0:0:0:
320,192,174096,1,0,0:0:0:0:
64,192,174174,1,2,0:0:0:0:
192,192,174174,1,8,0:0:0:0:
320,192,174252,1,0,0:0:0:0:
64,192,174330,1,2,0:0:0:0:
448,192,174330,1,0,0:0:0:0:
192,192,174408,1,0,0:0:0:0:
320,192,174487,1,2,0:0:0:0:
448,192,174487,1,0,0:0:0:0:
192,192,174565,1,0,0:0:0:0:
64,192,174643,1,2,0:0:0:0:
448,192,174643,1,0,0:0:0:0:
320,192,174721,1,0,0:0:0:0:
64,192,174799,1,8,0:0:0:0:
192,192,174799,1,2,0:0:0:0:
320,192,174877,1,0,0:0:0:0:
64,192,174955,1,2,0:0:0:0:
448,192,174955,1,0,0:0:0:0:
192,192,175033,1,0,0:0:0:0:
320,192,175112,1,2,0:0:0:0:
448,192,175112,1,0,0:0:0:0:
64,192,175190,1,0,0:0:0:0:
192,192,175268,1,2,0:0:0:0:
320,192,175268,1,0,0:0:0:0:
448,192,175346,1,0,0:0:0:0:
64,192,175424,1,8,0:0:0:0:
192,192,175424,1,2,0:0:0:0:
448,192,175502,1,0,0:0:0:0:
192,192,175580,1,2,0:0:0:0:
320,192,175580,1,0,0:0:0:0:
64,192,175658,1,0,0:0:0:0:
320,192,175737,1,2,0:0:0:0:
448,192,175737,1,0,0:0:0:0:
192,192,175815,1,0,0:0:0:0:
64,192,175893,1,2,0:0:0:0:
448,192,175893,1,0,0:0:0:0:
320,192,175971,1,0,0:0:0:0:
64,192,176049,128,8,176127:0:0:0:0:
192,192,176049,128,2,176127:0:0:0:0:
448,192,176127,1,0,0:0:0:0:
64,192,176205,128,2,176283:0:0:0:0:
192,192,176205,128,0,176283:0:0:0:0:
448,192,176283,1,0,0:0:0:0:
64,192,176362,128,2,176440:0:0:0:0:
192,192,176362,128,0,176440:0:0:0:0:
320,192,176440,128,0,176518:0:0:0:0:
448,192,176440,128,0,176518:0:0:0:0:
64,192,176518,128,2,176596:0:0:0:0:
192,192,176596,1,0,0:0:0:0:
320,192,176674,1,8,0:0:0:0:
448,192,176674,1,2,0:0:0:0:
192,192,176752,1,0,0:0:0:0:
64,192,176830,1,2,0:0:0:0:
448,192,176830,1,0,0:0:0:0:
320,192,176908,1,0,0:0:0:0:
64,192,176987,1,2,0:0:0:0:
192,192,176987,1,0,0:0:0:0:
320,192,177065,1,0,0:0:0:0:
64,192,177143,1,2,0:0:0:0:
448,192,177143,1,0,0:0:0:0:
192,192,177221,1,0,0:0:0:0:
320,192,177299,1,2,0:0:0:0:
448,192,177299,1,8,0:0:0:0:
64,192,177377,1,0,0:0:0:0:
192,192,177455,1,2,0:0:0:0:
320,192,177455,1,0,0:0:0:0:
448,192,177533,1,0,0:0:0:0:
64,192,177612,1,2,0:0:0:0:
192,192,177612,1,0,0:0:0:0:
320,192,177690,1,0,0:0:0:0:
64,192,177768,1,2,0:0:0:0:
448,192,177768,1,0,0:0:0:0:
192,192,177846,1,0,0:0:0:0:
320,192,177924,1,2,0:0:0:0:
448,192,177924,1,8,0:0:0:0:
192,192,178002,1,0,0:0:0:0:
64,192,178080,1,2,0:0:0:0:
448,192,178080,1,0,0:0:0:0:
320,192,178158,1,0,0:0:0:0:
64,192,178237,1,2,0:0:0:0:
192,192,178237,1,0,0:0:0:0:
320,192,178315,1,0,0:0:0:0:
64,192,178393,1,2,0:0:0:0:
448,192,178393,1,0,0:0:0:0:
192,192,178471,1,2,0:0:0:0:
320,192,178549,1,8,0:0:0:0:
448,192,178549,1,2,0:0:0:0:
64,192,178627,1,8,0:0:0:0:
192,192,178627,1,2,0:0:0:0:
320,192,178705,1,8,0:0:0:0:
448,192,178705,1,2,0:0:0:0:
64,192,178783,1,8,0:0:0:0:
192,192,178783,1,2,0:0:0:0:
320,192,178862,1,4,0:0:0:0:
448,192,178862,1,2,0:0:0:0:
64,192,178940,1,0,0:0:0:0:
192,192,179018,1,2,0:0:0:0:
448,192,179018,1,0,0:0:0:0:
320,192,179096,1,0,0:0:0:0:
64,192,179174,128,2,179252:0:0:0:0:
192,192,179174,128,8,179252:0:0:0:0:
448,192,179252,1,0,0:0:0:0:
64,192,179330,128,2,179408:0:0:0:0:
192,192,179330,128,0,179408:0:0:0:0:
320,192,179408,1,0,0:0:0:0:
64,192,179487,1,2,0:0:0:0:
448,192,179487,1,0,0:0:0:0:
192,192,179565,1,0,0:0:0:0:
64,192,179643,1,2,0:0:0:0:
320,192,179643,1,0,0:0:0:0:
192,192,179721,1,0,0:0:0:0:
320,192,179799,128,8,179877:0:0:0:0:
448,192,179799,128,2,179877:0:0:0:0:
64,192,179877,1,0,0:0:0:0:
320,192,179955,128,2,180033:0:0:0:0:
448,192,179955,128,0,180033:0:0:0:0:
192,192,180033,1,0,0:0:0:0:
64,192,180112,1,2,0:0:0:0:
448,192,180112,1,0,0:0:0:0:
320,192,180190,1,0,0:0:0:0:
192,192,180268,1,2,0:0:0:0:
448,192,180268,1,0,0:0:0:0:
320,192,180346,1,0,0:0:0:0:
64,192,180424,128,2,180502:0:0:0:0:
192,192,180424,128,8,180502:0:0:0:0:
448,192,180502,1,0,0:0:0:0:
64,192,180580,128,2,180658:0:0:0:0:
192,192,180580,128,0,180658:0:0:0:0:
320,192,180658,1,0,0:0:0:0:
64,192,180737,1,2,0:0:0:0:
448,192,180737,1,0,0:0:0:0:
192,192,180815,1,0,0:0:0:0:
64,192,180893,1,2,0:0:0:0:
320,192,180893,1,0,0:0:0:0:
192,192,180971,1,0,0:0:0:0:
320,192,181049,128,8,181127:0:0:0:0:
448,192,181049,128,2,181127:0:0:0:0:
64,192,181127,1,0,0:0:0:0:
320,192,181205,128,2,181283:0:0:0:0:
448,192,181205,128,0,181283:0:0:0:0:
192,192,181283,1,0,0:0:0:0:
64,192,181362,128,2,181440:0:0:0:0:
448,192,181362,128,0,181440:0:0:0:0:
320,192,181440,128,0,181518:0:0:0:0:
64,192,181518,128,2,181596:0:0:0:0:
192,192,181518,128,0,181596:0:0:0:0:
448,192,181596,128,0,181674:0:0:0:0:
64,192,181674,128,8,181752:0:0:0:0:
192,192,181674,128,2,181752:0:0:0:0:
320,192,181752,128,0,181830:0:0:0:0:
64,192,181830,128,2,181908:0:0:0:0:
448,192,181830,128,0,181908:0:0:0:0:
192,192,181908,128,0,181987:0:0:0:0:
320,192,181987,128,2,182065:0:0:0:0:
448,192,181987,128,0,182065:0:0:0:0:
64,192,182065,128,0,182143:0:0:0:0:
320,192,182143,128,2,182221:0:0:0:0:
448,192,182143,128,0,182221:0:0:0:0:
64,192,182221,128,0,182299:0:0:0:0:
320,192,182299,128,2,182377:0:0:0:0:
448,192,182299,128,8,182377:0:0:0:0:
192,192,182377,1,0,0:0:0:0:
64,192,182455,1,2,0:0:0:0:
448,192,182455,1,0,0:0:0:0:
320,192,182533,1,0,0:0:0:0:
64,192,182612,128,2,182690:0:0:0:0:
192,192,182612,128,0,182768:0:0:0:0:
320,192,182690,128,0,182846:0:0:0:0:
64,192,182768,128,2,182924:0:0:0:0:
448,192,182768,128,0,182846:0:0:0:0:
192,192,182846,128,0,182924:0:0:0:0:
320,192,182924,128,2,183080:0:0:0:0:
448,192,182924,128,8,183002:0:0:0:0:
192,192,183002,128,0,183158:0:0:0:0:
64,192,183080,128,2,183158:0:0:0:0:
448,192,183080,128,0,183158:0:0:0:0:
320,192,183158,128,2,183237:0:0:0:0:
64,192,183237,1,8,0:0:0:0:
192,192,183237,1,2,0:0:0:0:
448,192,183237,1,4,0:0:0:0:
192,192,183393,1,2,0:0:0:0:
320,192,183393,1,0,0:0:0:0:
448,192,183471,1,2,0:0:0:0:
64,192,183549,1,8,0:0:0:0:
192,192,183549,1,2,0:0:0:0:
320,192,183627,1,8,0:0:0:0:
448,192,183627,1,2,0:0:0:0:
64,192,183705,1,8,0:0:0:0:
192,192,183705,1,2,0:0:0:0:
320,192,183783,1,8,0:0:0:0:
448,192,183783,1,2,0:0:0:0:
64,192,183862,1,4,0:0:0:0:
192,192,183862,1,2,0:0:0:0:
320,192,183940,1,0,0:0:0:0:
64,192,184018,1,2,0:0:0:0:
448,192,184018,1,0,0:0:0:0:
192,192,184096,1,0,0:0:0:0:
320,192,184174,1,2,0:0:0:0:
448,192,184174,1,8,0:0:0:0:
192,192,184252,1,0,0:0:0:0:
64,192,184330,1,2,0:0:0:0:
448,192,184330,1,0,0:0:0:0:
320,192,184408,1,0,0:0:0:0:
64,192,184487,1,2,0:0:0:0:
192,192,184487,1,0,0:0:0:0:
448,192,184565,1,0,0:0:0:0:
192,192,184643,1,2,0:0:0:0:
320,192,184643,1,0,0:0:0:0:
64,192,184721,1,0,0:0:0:0:
320,192,184799,1,8,0:0:0:0:
448,192,184799,1,2,0:0:0:0:
192,192,184877,1,0,0:0:0:0:
64,192,184955,1,2,0:0:0:0:
448,192,184955,1,0,0:0:0:0:
320,192,185033,1,0,0:0:0:0:
64,192,185112,128,2,185190:0:0:0:0:
192,192,185112,128,0,185190:0:0:0:0:
320,192,185190,128,0,185268:0:0:0:0:
64,192,185268,128,2,185346:0:0:0:0:
448,192,185268,128,0,185346:0:0:0:0:
192,192,185346,128,0,185424:0:0:0:0:
320,192,185424,128,2,185502:0:0:0:0:
448,192,185424,128,8,185502:0:0:0:0:
64,192,185502,1,0,0:0:0:0:
192,192,185580,1,2,0:0:0:0:
320,192,185580,1,0,0:0:0:0:
448,192,185658,1,0,0:0:0:0:
64,192,185737,128,2,185815:0:0:0:0:
192,192,185737,128,0,185815:0:0:0:0:
448,192,185815,128,0,185893:0:0:0:0:
192,192,185893,128,2,185971:0:0:0:0:
320,192,185893,128,0,185971:0:0:0:0:
64,192,185971,128,0,186049:0:0:0:0:
320,192,186049,128,8,186127:0:0:0:0:
448,192,186049,128,2,186127:0:0:0:0:
192,192,186127,1,0,0:0:0:0:
64,192,186205,1,2,0:0:0:0:
448,192,186205,1,0,0:0:0:0:
320,192,186283,1,0,0:0:0:0:
64,192,186362,128,2,186440:0:0:0:0:
192,192,186362,128,0,186440:0:0:0:0:
320,192,186440,128,0,186518:0:0:0:0:
64,192,186518,128,2,186596:0:0:0:0:
448,192,186518,128,0,186596:0:0:0:0:
192,192,186596,128,0,186674:0:0:0:0:
320,192,186674,128,8,186752:0:0:0:0:
448,192,186674,128,2,186752:0:0:0:0:
192,192,186752,1,0,0:0:0:0:
64,192,186830,1,2,0:0:0:0:
448,192,186830,1,0,0:0:0:0:
320,192,186908,1,0,0:0:0:0:
64,192,186987,128,2,187065:0:0:0:0:
192,192,186987,128,0,187065:0:0:0:0:
320,192,187065,128,0,187143:0:0:0:0:
64,192,187143,128,2,187221:0:0:0:0:
448,192,187143,128,0,187221:0:0:0:0:
192,192,187221,128,0,187299:0:0:0:0:
320,192,187299,128,2,187377:0:0:0:0:
448,192,187299,128,8,187377:0:0:0:0:
64,192,187377,1,0,0:0:0:0:
192,192,187455,1,2,0:0:0:0:
320,192,187455,1,0,0:0:0:0:
448,192,187533,1,0,0:0:0:0:
64,192,187612,128,2,187690:0:0:0:0:
192,192,187612,128,0,187690:0:0:0:0:
448,192,187690,128,0,187768:0:0:0:0:
192,192,187768,128,2,187846:0:0:0:0:
320,192,187768,128,0,187846:0:0:0:0:
64,192,187846,128,0,187924:0:0:0:0:
320,192,187924,128,2,188002:0:0:0:0:
448,192,187924,128,8,188002:0:0:0:0:
64,192,188002,1,0,0:0:0:0:
192,192,188080,1,2,0:0:0:0:
320,192,188080,1,0,0:0:0:0:
448,192,188158,1,0,0:0:0:0:
64,192,188237,128,2,188315:0:0:0:0:
192,192,188237,128,0,188315:0:0:0:0:
320,192,188315,128,0,188393:0:0:0:0:
64,192,188393,128,2,188471:0:0:0:0:
448,192,188393,128,0,188471:0:0:0:0:
192,192,188471,128,2,188549:0:0:0:0:
320,192,188549,1,8,0:0:0:0:
448,192,188549,1,2,0:0:0:0:
64,192,188627,1,8,0:0:0:0:
192,192,188627,1,2,0:0:0:0:
320,192,188705,1,8,0:0:0:0:
448,192,188705,1,2,0:0:0:0:
64,192,188783,1,8,0:0:0:0:
192,192,188783,1,2,0:0:0:0:
320,192,188862,128,4,188940:0:0:0:0:
448,192,188862,128,2,188940:0:0:0:0:
192,192,188940,128,0,189018:0:0:0:0:
64,192,189018,128,2,189096:0:0:0:0:
448,192,189018,128,0,189096:0:0:0:0:
320,192,189096,128,0,189174:0:0:0:0:
64,192,189174,128,2,189252:0:0:0:0:
192,192,189174,128,8,189252:0:0:0:0:
320,192,189252,128,0,189330:0:0:0:0:
64,192,189330,128,2,189408:0:0:0:0:
192,192,189330,128,0,189408:0:0:0:0:
448,192,189408,128,0,189487:0:0:0:0:
64,192,189487,128,2,189565:0:0:0:0:
320,192,189487,128,0,189565:0:0:0:0:
448,192,189565,128,0,189643:0:0:0:0:
64,192,189643,128,2,189721:0:0:0:0:
320,192,189643,128,0,189721:0:0:0:0:
192,192,189721,128,0,189799:0:0:0:0:
320,192,189799,128,8,189877:0:0:0:0:
448,192,189799,128,2,189877:0:0:0:0:
192,192,189877,128,0,189955:0:0:0:0:
320,192,189955,128,2,190033:0:0:0:0:
448,192,189955,128,0,190033:0:0:0:0:
64,192,190033,128,0,190112:0:0:0:0:
192,192,190112,128,2,190190:0:0:0:0:
448,192,190112,128,0,190268:0:0:0:0:
320,192,190190,128,0,190346:0:0:0:0:
64,192,190268,128,2,190346:0:0:0:0:
192,192,190268,128,0,190346:0:0:0:0:
448,192,190346,128,0,190424:0:0:0:0:
64,192,190424,128,2,190580:0:0:0:0:
320,192,190424,128,8,190502:0:0:0:0:
192,192,190502,128,0,190658:0:0:0:0:
320,192,190580,128,2,190658:0:0:0:0:
448,192,190580,128,0,190658:0:0:0:0:
64,192,190658,128,0,190737:0:0:0:0:
192,192,190737,128,2,190815:0:0:0:0:
448,192,190737,128,0,190893:0:0:0:0:
320,192,190815,128,0,190893:0:0:0:0:
64,192,190893,128,2,190971:0:0:0:0:
192,192,190893,128,0,191049:0:0:0:0:
448,192,190971,128,0,191049:0:0:0:0:
64,192,191049,128,8,191205:0:0:0:0:
320,192,191049,128,2,191127:0:0:0:0:
192,192,191127,128,0,191205:0:0:0:0:
320,192,191205,128,2,191283:0:0:0:0:
448,192,191205,128,0,191283:0:0:0:0:
64,192,191283,128,2,191362:0:0:0:0:
192,192,191362,128,2,191440:0:0:0:0:
320,192,191362,128,8,191440:0:0:0:0:
448,192,191362,128,0,191518:0:0:0:0:
64,192,191518,128,2,191596:0:0:0:0:
192,192,191518,128,0,191596:0:0:0:0:
320,192,191596,128,2,191674:0:0:0:0:
64,192,191674,128,2,191752:0:0:0:0:
448,192,191674,128,0,191752:0:0:0:0:
192,192,191752,128,2,191830:0:0:0:0:
64,192,191830,128,8,191987:0:0:0:0:
320,192,191830,128,2,191908:0:0:0:0:
448,192,191830,128,0,191908:0:0:0:0:
192,192,191987,128,2,192065:0:0:0:0:
448,192,191987,128,0,192065:0:0:0:0:
320,192,192065,128,2,192143:0:0:0:0:
64,192,192143,128,2,192221:0:0:0:0:
192,192,192143,128,0,192221:0:0:0:0:
448,192,192221,128,2,192299:0:0:0:0:
64,192,192299,128,2,192377:0:0:0:0:
192,192,192299,128,8,192377:0:0:0:0:
320,192,192299,128,0,192377:0:0:0:0:
64,192,192455,128,2,192533:0:0:0:0:
320,192,192455,128,8,192533:0:0:0:0:
448,192,192455,128,0,192533:0:0:0:0:
192,192,192612,128,2,192768:0:0:0:0:
448,192,192612,128,0,192690:0:0:0:0:
64,192,192690,128,8,192768:0:0:0:0:
320,192,192690,128,0,192768:0:0:0:0:
320,192,192846,128,2,193002:0:0:0:0:
448,192,192846,128,0,192924:0:0:0:0:
64,192,192924,128,8,193002:0:0:0:0:
192,192,192924,128,0,193002:0:0:0:0:
64,192,193080,128,2,193237:0:0:0:0:
320,192,193080,128,8,193158:0:0:0:0:
448,192,193080,128,0,193158:0:0:0:0:
192,192,193237,128,0,193315:0:0:0:70:tom1.wav
448,192,193237,128,0,193315:0:0:0:0:
320,192,193315,128,0,193393:0:0:0:70:tom2.wav
64,192,193393,128,0,193471:0:0:0:70:tom1.wav
192,192,193393,128,0,193471:0:0:0:0:
448,192,193471,128,0,193627:0:0:0:70:tom2.wav
192,192,193549,128,0,193705:0:0:0:70:tom3.wav
320,192,193549,128,0,193627:0:0:0:0:
64,192,193627,128,0,193783:0:0:0:70:tom3.wav
320,192,193705,128,0,193783:0:0:0:70:tom4.wav
448,192,193705,128,0,193783:0:0:0:0:
192,192,193783,128,0,193862:0:0:0:70:tom4.wav
64,192,193862,1,8,0:0:0:0:
320,192,193862,1,0,0:0:0:0:
448,192,193862,128,0,196049:0:0:0:0:
192,192,194487,128,0,196362:0:0:0:0:
320,192,194877,128,0,196205:0:0:0:0:
64,192,195424,128,0,197924:0:0:0:0:
448,192,197221,1,0,0:0:0:0:
192,192,197299,1,0,0:0:0:0:
320,192,197507,1,0,0:0:0:0:
448,192,197612,1,0,0:0:0:0:
192,192,197820,1,0,0:0:0:0:
320,192,198080,1,2,0:0:0:0:
448,192,198080,1,0,0:0:0:0:
192,192,198158,1,2,0:0:0:0:
64,192,198237,128,8,198315:0:0:0:0:
320,192,198237,128,2,198315:0:0:0:0:
448,192,198237,128,0,198315:0:0:0:0:
64,192,198393,128,8,198549:0:0:0:0:
320,192,198393,128,0,198549:0:0:0:0:
448,192,198393,128,0,198549:0:0:0:0:
64,192,198862,128,2,199096:0:0:0:0:
192,192,198862,128,4,199408:0:0:0:0:
320,192,198862,128,0,199096:0:0:0:0:
448,192,198862,128,0,199955:0:0:0:0:
64,192,199174,128,2,199408:0:0:0:0:
320,192,199174,128,0,199721:0:0:0:0:
64,192,199487,128,2,199955:0:0:0:0:
192,192,199487,128,0,199721:0:0:0:0:
192,192,199799,128,2,199955:0:0:0:0:
320,192,199799,128,0,199955:0:0:0:0:
64,192,200112,128,4,201205:0:0:0:0:
192,192,200112,128,2,200346:0:0:0:0:
320,192,200112,128,0,200658:0:0:0:0:
448,192,200112,128,0,200346:0:0:0:0:
192,192,200424,128,2,200971:0:0:0:0:
448,192,200424,128,0,200658:0:0:0:0:
320,192,200737,128,2,200971:0:0:0:0:
448,192,200737,128,0,201205:0:0:0:0:
192,192,201049,128,2,201205:0:0:0:0:
320,192,201049,128,0,201205:0:0:0:0:
64,192,201362,128,2,201596:0:0:0:0:
192,192,201362,128,4,202455:0:0:0:0:
320,192,201362,128,0,201596:0:0:0:0:
448,192,201362,128,0,201908:0:0:0:0:
64,192,201674,128,2,202221:0:0:0:0:
320,192,201674,128,0,201908:0:0:0:0:
320,192,201987,128,2,202455:0:0:0:0:
448,192,201987,128,0,202221:0:0:0:0:
64,192,202299,128,2,202455:0:0:0:0:
448,192,202299,128,0,202455:0:0:0:0:
64,192,202612,128,4,203158:0:0:0:0:
192,192,202612,128,2,202846:0:0:0:0:
320,192,202612,128,0,203549:0:0:0:0:
448,192,202612,128,0,202846:0:0:0:0:
192,192,202924,128,2,203158:0:0:0:0:
448,192,202924,128,0,203471:0:0:0:0:
64,192,203237,128,2,203471:0:0:0:0:
192,192,203237,128,0,203549:0:0:0:0:
64,192,203549,1,8,0:0:0:0:
448,192,203549,1,2,0:0:0:0:
320,192,203627,1,0,0:0:0:70:tom1.wav
64,192,203705,1,2,0:0:0:0:
192,192,203705,1,0,0:0:0:0:
320,192,203783,1,2,0:0:0:0:
64,192,203862,128,4,204174:0:0:0:0:
192,192,203862,1,8,0:0:0:0:
448,192,203862,1,0,0:0:0:0:
192,192,204174,1,8,0:0:0:0:
320,192,204174,1,0,0:0:0:0:
448,192,204174,128,0,204487:0:0:0:0:
64,192,204487,1,8,0:0:0:0:
192,192,204487,128,0,204799:0:0:0:0:
320,192,204487,1,0,0:0:0:0:
64,192,204799,1,8,0:0:0:0:
320,192,204799,128,0,205112:0:0:0:0:
448,192,204799,1,0,0:0:0:0:
64,192,205112,128,8,205424:0:0:0:0:
192,192,205112,1,0,0:0:0:0:
448,192,205112,1,0,0:0:0:0:
192,192,205424,128,8,205737:0:0:0:0:
320,192,205424,1,0,0:0:0:0:
448,192,205424,1,0,0:0:0:0:
64,192,205737,1,8,0:0:0:0:
320,192,205737,128,0,206049:0:0:0:0:
448,192,205737,1,0,0:0:0:0:
64,192,206049,1,8,0:0:0:0:
192,192,206049,1,0,0:0:0:0:
448,192,206049,128,0,206362:0:0:0:0:
64,192,206362,1,8,0:0:0:0:
192,192,206362,128,0,206674:0:0:0:0:
320,192,206362,1,0,0:0:0:0:
64,192,206674,1,8,0:0:0:0:
320,192,206674,128,0,206987:0:0:0:0:
448,192,206674,1,0,0:0:0:0:
64,192,206987,128,8,207299:0:0:0:0:
192,192,206987,1,0,0:0:0:0:
448,192,206987,1,0,0:0:0:0:
192,192,207299,1,8,0:0:0:0:
320,192,207299,1,0,0:0:0:0:
448,192,207299,128,0,207612:0:0:0:0:
64,192,207612,1,8,0:0:0:0:
192,192,207612,1,0,0:0:0:0:
320,192,207690,1,0,0:0:0:70:tom1.wav
448,192,207690,1,0,0:0:0:0:
192,192,207768,1,2,0:0:0:0:
320,192,207846,1,2,0:0:0:0:
64,192,207924,1,8,0:0:0:0:
192,192,207924,1,0,0:0:0:0:
448,192,207924,1,0,0:0:0:0:
64,192,208080,1,2,0:0:0:0:
320,192,208080,1,0,0:0:0:0:
192,192,208158,1,2,0:0:0:0:
64,192,208237,1,8,0:0:0:0:
320,192,208237,1,2,0:0:0:0:
448,192,208237,1,0,0:0:0:0:
64,192,208393,1,8,0:0:0:0:
192,192,208393,1,0,0:0:0:0:
448,192,208393,1,0,0:0:0:0:
64,192,208862,1,4,0:0:0:0:
192,192,208862,1,2,0:0:0:0:
448,192,208862,128,0,209096:0:0:0:0:
192,192,209018,1,2,0:0:0:0:
320,192,209018,1,0,0:0:0:0:
64,192,209174,128,2,209408:0:0:0:0:
320,192,209174,1,8,0:0:0:0:
448,192,209174,1,0,0:0:0:0:
320,192,209408,128,8,209565:0:0:0:0:
448,192,209408,128,0,209487:0:0:0:0:
64,192,209487,128,2,209721:0:0:0:0:
192,192,209487,128,0,209565:0:0:0:0:
320,192,209643,1,2,0:0:0:0:
448,192,209643,1,0,0:0:0:0:
64,192,209799,1,8,0:0:0:0:
192,192,209799,1,2,0:0:0:0:
448,192,209799,128,0,210033:0:0:0:0:
64,192,210033,1,2,0:0:0:0:
192,192,210033,1,0,0:0:0:0:
320,192,210112,128,2,210190:0:0:0:0:
448,192,210112,1,0,0:0:0:0:
64,192,210268,1,2,0:0:0:0:
192,192,210268,128,0,210346:0:0:0:0:
64,192,210424,1,2,0:0:0:0:
320,192,210424,1,8,0:0:0:0:
448,192,210424,1,0,0:0:0:0:
448,192,210580,1,0,0:0:0:0:
64,192,210658,1,0,0:0:0:70:tom2.wav
192,192,210658,1,0,0:0:0:0:
320,192,210737,1,2,0:0:0:0:
448,192,210737,1,0,0:0:0:0:
64,192,210893,1,2,0:0:0:0:
192,192,210893,128,0,211127:0:0:0:0:
64,192,211049,128,2,211205:0:0:0:0:
320,192,211049,1,8,0:0:0:0:
448,192,211049,1,0,0:0:0:0:
320,192,211283,1,8,0:0:0:0:
448,192,211283,1,0,0:0:0:0:
64,192,211362,1,2,0:0:0:0:
192,192,211362,128,0,211596:0:0:0:0:
320,192,211518,1,2,0:0:0:0:
448,192,211518,1,0,0:0:0:0:
64,192,211674,1,8,0:0:0:0:
192,192,211674,1,2,0:0:0:0:
448,192,211674,128,0,211908:0:0:0:0:
64,192,211908,128,8,211987:0:0:0:0:
192,192,211908,128,0,212065:0:0:0:0:
320,192,211987,128,2,212065:0:0:0:0:
448,192,211987,128,0,212221:0:0:0:0:
64,192,212143,1,2,0:0:0:0:
192,192,212143,1,0,0:0:0:0:
64,192,212299,1,2,0:0:0:0:
320,192,212299,1,8,0:0:0:0:
448,192,212299,1,0,0:0:0:0:
192,192,212455,128,0,212533:0:0:0:0:
320,192,212533,1,2,0:0:0:0:
448,192,212533,1,0,0:0:0:0:
64,192,212612,1,2,0:0:0:0:
192,192,212612,128,0,212690:0:0:0:0:
320,192,212768,1,2,0:0:0:0:
448,192,212768,128,0,212924:0:0:0:0:
64,192,212924,1,8,0:0:0:0:
192,192,212924,1,2,0:0:0:0:
320,192,212924,1,0,0:0:0:0:
64,192,213080,1,0,0:0:0:0:
320,192,213158,1,8,0:0:0:0:
448,192,213158,1,0,0:0:0:0:
64,192,213237,1,2,0:0:0:0:
192,192,213237,1,0,0:0:0:0:
192,192,213393,1,2,0:0:0:0:
320,192,213393,1,0,0:0:0:0:
64,192,213549,1,8,0:0:0:0:
320,192,213549,1,2,0:0:0:0:
448,192,213549,1,0,0:0:0:0:
64,192,213705,1,8,0:0:0:0:
192,192,213705,1,2,0:0:0:0:
320,192,213783,1,8,0:0:0:0:
448,192,213783,1,2,0:0:0:0:
64,192,213862,1,2,0:0:0:0:
192,192,213862,128,4,214096:0:0:0:0:
320,192,214018,1,2,0:0:0:0:
448,192,214018,1,0,0:0:0:0:
64,192,214174,1,8,0:0:0:0:
192,192,214174,1,2,0:0:0:0:
448,192,214174,1,0,0:0:0:0:
320,192,214330,1,0,0:0:0:0:
64,192,214408,1,8,0:0:0:0:
192,192,214408,1,0,0:0:0:0:
320,192,214487,1,2,0:0:0:0:
448,192,214487,1,0,0:0:0:0:
192,192,214643,1,2,0:0:0:0:
448,192,214643,1,0,0:0:0:0:
64,192,214799,128,2,215033:0:0:0:0:
192,192,214799,1,8,0:0:0:0:
320,192,214799,1,0,0:0:0:0:
320,192,215033,1,2,0:0:0:0:
448,192,215033,1,0,0:0:0:0:
64,192,215112,1,2,0:0:0:0:
192,192,215112,128,0,215346:0:0:0:0:
320,192,215268,1,2,0:0:0:0:
448,192,215268,1,0,0:0:0:0:
64,192,215424,1,8,0:0:0:0:
192,192,215424,1,2,0:0:0:0:
448,192,215424,1,0,0:0:0:0:
320,192,215580,1,0,0:0:0:0:
64,192,215658,1,8,0:0:0:0:
192,192,215658,1,0,0:0:0:0:
320,192,215737,1,2,0:0:0:0:
448,192,215737,1,0,0:0:0:0:
64,192,215893,1,2,0:0:0:0:
192,192,215893,1,0,0:0:0:0:
64,192,216049,1,8,0:0:0:0:
320,192,216049,1,2,0:0:0:0:
448,192,216049,1,0,0:0:0:0:
192,192,216127,1,2,0:0:0:0:
320,192,216205,1,2,0:0:0:0:
448,192,216205,1,0,0:0:0:0:
64,192,216283,1,2,0:0:0:0:
192,192,216362,1,8,0:0:0:0:
320,192,216362,1,2,0:0:0:0:
448,192,216362,1,0,0:0:0:0:
64,192,216518,1,2,0:0:0:0:
192,192,216518,1,0,0:0:0:0:
320,192,216596,1,2,0:0:0:0:
64,192,216674,1,2,0:0:0:0:
192,192,216674,1,8,0:0:0:0:
448,192,216674,1,0,0:0:0:0:
320,192,216830,1,2,0:0:0:0:
448,192,216830,1,0,0:0:0:0:
64,192,216908,1,2,0:0:0:0:
192,192,216987,1,2,0:0:0:0:
320,192,216987,1,0,0:0:0:0:
448,192,217065,1,2,0:0:0:0:
64,192,217143,1,2,0:0:0:0:
192,192,217143,1,0,0:0:0:0:
320,192,217221,1,2,0:0:0:0:
64,192,217299,1,8,0:0:0:0:
192,192,217299,1,2,0:0:0:0:
448,192,217299,1,0,0:0:0:0:
64,192,217455,1,8,0:0:0:0:
320,192,217455,1,0,0:0:0:0:
448,192,217455,1,0,0:0:0:0:
192,192,217612,1,8,0:0:0:0:
448,192,217612,1,4,0:0:0:0:
64,192,217690,1,8,0:0:0:0:
320,192,217690,1,0,0:0:0:0:
64,192,217846,1,8,0:0:0:0:
448,192,217846,1,0,0:0:0:0:
192,192,217924,1,8,0:0:0:0:
320,192,217924,1,0,0:0:0:0:
64,192,218080,1,8,0:0:0:0:
320,192,218080,1,2,0:0:0:0:
448,192,218080,1,4,0:0:0:0:
64,192,218237,1,2,0:0:0:0:
192,192,218237,1,0,0:0:0:0:
320,192,218315,1,2,0:0:0:0:
448,192,218315,1,0,0:0:0:0:
64,192,218393,1,8,0:0:0:0:
192,192,218393,1,2,0:0:0:0:
320,192,218471,1,8,0:0:0:0:
448,192,218471,1,2,0:0:0:0:
64,192,218549,1,0,0:0:0:70:tom1.wav
192,192,218549,1,0,0:0:0:0:
320,192,218627,1,0,0:0:0:70:tom2.wav
64,192,218705,1,0,0:0:0:70:tom3.wav
448,192,218705,1,0,0:0:0:0:
192,192,218783,1,0,0:0:0:70:tom4.wav
64,192,218862,1,2,0:0:0:0:
320,192,218862,1,4,0:0:0:0:
448,192,218862,1,0,0:0:0:0:
192,192,219018,1,2,0:0:0:0:
320,192,219018,1,0,0:0:0:0:
64,192,219174,1,8,0:0:0:0:
192,192,219174,1,2,0:0:0:0:
448,192,219174,128,0,219487:0:0:0:0:
64,192,219330,1,2,0:0:0:0:
320,192,219330,128,0,219487:0:0:0:0:
64,192,219487,1,2,0:0:0:0:
192,192,219487,1,0,0:0:0:0:
192,192,219643,1,2,0:0:0:0:
320,192,219643,1,0,0:0:0:0:
64,192,219799,128,8,220112:0:0:0:0:
320,192,219799,1,2,0:0:0:0:
448,192,219799,1,0,0:0:0:0:
192,192,219955,128,2,220112:0:0:0:0:
448,192,219955,1,0,0:0:0:0:
320,192,220112,1,2,0:0:0:0:
448,192,220112,1,0,0:0:0:0:
192,192,220268,1,2,0:0:0:0:
320,192,220268,1,0,0:0:0:0:
64,192,220424,1,8,0:0:0:0:
192,192,220424,1,2,0:0:0:0:
448,192,220424,1,0,0:0:0:0:
64,192,220580,1,2,0:0:0:0:
320,192,220580,128,0,220658:0:0:0:0:
192,192,220737,1,2,0:0:0:0:
448,192,220737,128,0,220893:0:0:0:0:
64,192,220893,1,2,0:0:0:0:
320,192,220893,1,0,0:0:0:0:
64,192,221049,128,8,221205:0:0:0:0:
192,192,221049,1,2,0:0:0:0:
320,192,221049,1,0,0:0:0:0:
192,192,221205,1,2,0:0:0:0:
448,192,221205,1,0,0:0:0:0:
64,192,221362,1,2,0:0:0:0:
448,192,221362,128,0,221518:0:0:0:0:
320,192,221362,1,4,0:0:0:0:
64,192,221518,128,2,221830:0:0:0:0:
192,192,221518,1,0,0:0:0:0:
192,192,221674,1,8,0:0:0:0:
320,192,221674,1,2,0:0:0:0:
448,192,221674,1,0,0:0:0:0:
320,192,221830,128,2,222143:0:0:0:0:
448,192,221830,1,0,0:0:0:0:
64,192,221987,1,2,0:0:0:0:
192,192,221987,1,0,0:0:0:0:
64,192,222143,128,2,222299:0:0:0:0:
448,192,222143,1,0,0:0:0:0:
192,192,222299,1,8,0:0:0:0:
320,192,222299,1,2,0:0:0:0:
448,192,222299,128,0,222455:0:0:0:0:
64,192,222455,1,2,0:0:0:0:
192,192,222455,128,0,222612:0:0:0:0:
320,192,222612,1,2,0:0:0:0:
448,192,222612,1,0,0:0:0:0:
64,192,222768,1,2,0:0:0:0:
192,192,222768,128,0,222924:0:0:0:0:
64,192,222924,1,8,0:0:0:0:
320,192,222924,128,2,223080:0:0:0:0:
448,192,222924,1,0,0:0:0:0:
192,192,223080,1,2,0:0:0:0:
448,192,223080,1,0,0:0:0:0:
64,192,223237,128,2,223393:0:0:0:0:
320,192,223237,1,0,0:0:0:0:
192,192,223393,1,2,0:0:0:0:
448,192,223393,1,0,0:0:0:0:
320,192,223471,1,2,0:0:0:0:
64,192,223549,1,8,0:0:0:0:
192,192,223549,1,2,0:0:0:0:
320,192,223627,1,2,0:0:0:0:
448,192,223627,1,8,0:0:0:0:
64,192,223705,1,8,0:0:0:0:
192,192,223705,1,2,0:0:0:0:
320,192,223783,1,10,0:0:0:0:
64,192,223862,1,2,0:0:0:0:
192,192,223862,1,4,0:0:0:0:
448,192,223862,1,0,0:0:0:0:
64,192,224018,1,2,0:0:0:0:
320,192,224018,1,0,0:0:0:0:
64,192,224174,128,8,224487:0:0:0:0:
320,192,224174,1,2,0:0:0:0:
448,192,224174,1,0,0:0:0:0:
192,192,224330,128,2,224487:0:0:0:0:
448,192,224330,1,0,0:0:0:0:
320,192,224487,1,2,0:0:0:0:
448,192,224487,1,0,0:0:0:0:
192,192,224643,1,2,0:0:0:0:
320,192,224643,1,0,0:0:0:0:
64,192,224799,1,2,0:0:0:0:
192,192,224799,1,8,0:0:0:0:
448,192,224799,128,0,225112:0:0:0:0:
64,192,224955,1,2,0:0:0:0:
320,192,224955,128,0,225112:0:0:0:0:
64,192,225112,1,2,0:0:0:0:
192,192,225112,1,0,0:0:0:0:
192,192,225268,1,2,0:0:0:0:
320,192,225268,1,0,0:0:0:0:
64,192,225424,1,8,0:0:0:0:
320,192,225424,1,2,0:0:0:0:
448,192,225424,1,0,0:0:0:0:
192,192,225580,128,2,225658:0:0:0:0:
448,192,225580,1,0,0:0:0:0:
64,192,225737,128,2,225893:0:0:0:0:
320,192,225737,1,0,0:0:0:0:
320,192,225893,1,2,0:0:0:0:
448,192,225893,1,0,0:0:0:0:
64,192,226049,1,2,0:0:0:0:
192,192,226049,1,8,0:0:0:0:
448,192,226049,128,0,226205:0:0:0:0:
64,192,226205,1,2,0:0:0:0:
320,192,226205,1,0,0:0:0:0:
192,192,226283,1,0,0:0:0:0:
64,192,226362,1,2,0:0:0:0:
320,192,226362,1,8,0:0:0:0:
448,192,226362,1,0,0:0:0:0:
192,192,226518,1,2,0:0:0:0:
448,192,226518,1,0,0:0:0:0:
320,192,226596,1,2,0:0:0:0:
64,192,226674,1,2,0:0:0:0:
192,192,226674,1,8,0:0:0:0:
448,192,226674,1,0,0:0:0:0:
64,192,226830,1,2,0:0:0:0:
320,192,226830,1,0,0:0:0:0:
192,192,226908,1,2,0:0:0:0:
320,192,226987,1,2,0:0:0:0:
448,192,226987,1,0,0:0:0:0:
64,192,227065,1,2,0:0:0:0:
192,192,227143,1,2,0:0:0:0:
448,192,227143,1,0,0:0:0:0:
320,192,227221,1,2,0:0:0:0:
64,192,227299,1,8,0:0:0:0:
192,192,227299,1,2,0:0:0:0:
448,192,227299,1,4,0:0:0:0:
64,192,227455,1,8,0:0:0:0:
192,192,227455,1,2,0:0:0:0:
320,192,227455,1,4,0:0:0:0:
320,192,227612,1,2,0:0:0:0:
448,192,227612,1,0,0:0:0:0:
64,192,227690,1,8,0:0:0:0:
192,192,227690,1,0,0:0:0:0:
64,192,227846,1,8,0:0:0:0:
320,192,227846,1,0,0:0:0:0:
192,192,227924,1,2,0:0:0:0:
448,192,227924,1,0,0:0:0:0:
64,192,228080,1,8,0:0:0:0:
192,192,228080,1,2,0:0:0:0:
320,192,228080,1,0,0:0:0:0:
320,192,228237,1,0,0:0:0:70:tom1.wav
448,192,228237,1,0,0:0:0:0:
192,192,228315,1,0,0:0:0:70:tom1.wav
64,192,228393,1,0,0:0:0:70:tom2.wav
448,192,228393,1,0,0:0:0:0:
320,192,228471,1,0,0:0:0:70:tom2.wav
64,192,228549,1,0,0:0:0:70:tom3.wav
192,192,228549,1,0,0:0:0:0:
320,192,228627,1,0,0:0:0:70:tom3.wav
64,192,228705,1,0,0:0:0:70:tom4.wav
448,192,228705,1,0,0:0:0:0:
192,192,228783,1,0,0:0:0:70:tom4.wav
64,192,228862,1,2,0:0:0:0:
320,192,228862,1,4,0:0:0:0:
448,192,228862,1,8,0:0:0:0:
192,192,229018,1,2,0:0:0:0:
320,192,229018,1,0,0:0:0:0:
64,192,229174,1,8,0:0:0:0:
192,192,229174,1,2,0:0:0:0:
448,192,229174,1,0,0:0:0:0:
64,192,229330,1,2,0:0:0:0:
320,192,229330,1,0,0:0:0:0:
192,192,229487,1,2,0:0:0:0:
320,192,229487,1,8,0:0:0:0:
448,192,229487,1,0,0:0:0:0:
64,192,229643,1,2,0:0:0:0:
192,192,229643,1,0,0:0:0:0:
64,192,229799,1,2,0:0:0:0:
320,192,229799,1,8,0:0:0:0:
448,192,229799,1,0,0:0:0:0:
192,192,229955,1,2,0:0:0:0:
448,192,229955,1,0,0:0:0:0:
320,192,230033,1,2,0:0:0:0:
64,192,230112,1,2,0:0:0:0:
192,192,230112,1,8,0:0:0:0:
448,192,230112,1,4,0:0:0:0:
64,192,230268,1,2,0:0:0:0:
320,192,230268,1,0,0:0:0:0:
192,192,230424,1,8,0:0:0:0:
320,192,230424,1,2,0:0:0:0:
448,192,230424,1,0,0:0:0:0:
64,192,230580,1,2,0:0:0:0:
192,192,230580,1,0,0:0:0:0:
64,192,230737,1,2,0:0:0:0:
320,192,230737,1,8,0:0:0:0:
448,192,230737,1,0,0:0:0:0:
192,192,230893,1,2,0:0:0:0:
448,192,230893,1,0,0:0:0:0:
320,192,230971,1,2,0:0:0:0:
64,192,231049,1,2,0:0:0:0:
192,192,231049,1,8,0:0:0:0:
448,192,231049,1,0,0:0:0:0:
64,192,231205,1,2,0:0:0:0:
320,192,231205,1,0,0:0:0:0:
192,192,231283,1,2,0:0:0:0:
64,192,231362,1,2,0:0:0:0:
320,192,231362,1,8,0:0:0:0:
448,192,231362,1,4,0:0:0:0:
192,192,231518,1,2,0:0:0:0:
448,192,231518,1,0,0:0:0:0:
64,192,231674,1,2,0:0:0:0:
192,192,231674,1,8,0:0:0:0:
320,192,231674,1,0,0:0:0:0:
64,192,231830,1,2,0:0:0:0:
448,192,231830,1,0,0:0:0:0:
192,192,231987,1,2,0:0:0:0:
320,192,231987,1,8,0:0:0:0:
448,192,231987,1,0,0:0:0:0:
64,192,232143,1,2,0:0:0:0:
192,192,232143,1,0,0:0:0:0:
64,192,232299,1,8,0:0:0:0:
320,192,232299,1,2,0:0:0:0:
448,192,232299,1,0,0:0:0:0:
192,192,232455,1,2,0:0:0:0:
448,192,232455,1,0,0:0:0:0:
320,192,232533,1,2,0:0:0:0:
64,192,232612,1,2,0:0:0:0:
192,192,232612,1,4,0:0:0:0:
448,192,232612,1,8,0:0:0:0:
192,192,232768,1,2,0:0:0:0:
320,192,232768,1,0,0:0:0:0:
64,192,232924,1,8,0:0:0:0:
320,192,232924,1,2,0:0:0:0:
448,192,232924,1,0,0:0:0:0:
192,192,233080,1,2,0:0:0:0:
448,192,233080,1,0,0:0:0:0:
320,192,233158,1,2,0:0:0:0:
64,192,233237,1,2,0:0:0:0:
192,192,233237,1,8,0:0:0:0:
320,192,233315,1,2,0:0:0:0:
448,192,233315,1,8,0:0:0:0:
64,192,233393,1,2,0:0:0:0:
192,192,233393,1,8,0:0:0:0:
320,192,233471,1,2,0:0:0:0:
448,192,233471,1,8,0:0:0:0:
64,192,233549,1,0,0:0:0:70:tom1.wav
192,192,233549,1,0,0:0:0:0:
320,192,233627,1,0,0:0:0:70:tom2.wav
64,192,233705,1,0,0:0:0:70:tom3.wav
448,192,233705,1,0,0:0:0:0:
192,192,233783,1,0,0:0:0:70:tom4.wav
64,192,233862,1,2,0:0:0:0:
320,192,233862,1,4,0:0:0:0:
448,192,233862,1,0,0:0:0:0:
192,192,234018,1,2,0:0:0:0:
320,192,234018,1,0,0:0:0:0:
64,192,234174,1,8,0:0:0:0:
192,192,234174,1,2,0:0:0:0:
448,192,234174,128,0,234487:0:0:0:0:
64,192,234330,1,2,0:0:0:0:
320,192,234330,128,0,234487:0:0:0:0:
64,192,234487,1,2,0:0:0:0:
192,192,234487,1,0,0:0:0:0:
192,192,234643,128,2,234799:0:0:0:0:
320,192,234643,1,0,0:0:0:0:
64,192,234799,1,2,0:0:0:0:
320,192,234799,128,8,234955:0:0:0:0:
448,192,234799,1,0,0:0:0:0:
64,192,234955,1,2,0:0:0:0:
192,192,234955,1,0,0:0:0:0:
192,192,235112,1,2,0:0:0:0:
448,192,235112,1,0,0:0:0:0:
64,192,235268,1,2,0:0:0:0:
320,192,235268,1,0,0:0:0:0:
64,192,235424,1,8,0:0:0:0:
192,192,235424,1,2,0:0:0:0:
448,192,235424,128,0,235737:0:0:0:0:
192,192,235580,1,2,0:0:0:0:
320,192,235580,1,0,0:0:0:0:
64,192,235737,1,2,0:0:0:0:
320,192,235737,1,0,0:0:0:0:
64,192,235893,1,2,0:0:0:0:
192,192,235893,1,0,0:0:0:0:
192,192,236049,1,2,0:0:0:0:
320,192,236049,1,8,0:0:0:0:
448,192,236049,1,0,0:0:0:0:
64,192,236205,1,2,0:0:0:0:
320,192,236205,1,0,0:0:0:0:
192,192,236283,1,2,0:0:0:0:
64,192,236362,1,2,0:0:0:0:
320,192,236362,1,8,0:0:0:0:
448,192,236362,1,0,0:0:0:0:
192,192,236518,1,2,0:0:0:0:
448,192,236518,1,0,0:0:0:0:
320,192,236596,1,2,0:0:0:0:
64,192,236674,1,2,0:0:0:0:
192,192,236674,1,0,0:0:0:0:
320,192,236752,1,2,0:0:0:0:
64,192,236830,1,8,0:0:0:0:
192,192,236830,1,2,0:0:0:0:
448,192,236830,1,0,0:0:0:0:
64,192,236987,1,2,0:0:0:0:
320,192,236987,1,0,0:0:0:0:
192,192,237065,1,2,0:0:0:0:
320,192,237143,1,2,0:0:0:0:
448,192,237143,1,0,0:0:0:0:
192,192,237221,1,2,0:0:0:0:
64,192,237299,1,8,0:0:0:0:
320,192,237299,1,2,0:0:0:0:
448,192,237299,1,0,0:0:0:0:
64,192,237455,1,8,0:0:0:0:
192,192,237455,1,2,0:0:0:0:
448,192,237455,1,0,0:0:0:0:
64,192,237612,1,2,0:0:0:0:
320,192,237612,1,0,0:0:0:0:
192,192,237690,1,8,0:0:0:0:
448,192,237690,1,0,0:0:0:0:
320,192,237846,1,2,0:0:0:0:
448,192,237846,1,0,0:0:0:0:
64,192,237924,1,8,0:0:0:0:
192,192,237924,1,0,0:0:0:0:
64,192,238080,1,8,0:0:0:0:
320,192,238080,1,2,0:0:0:0:
448,192,238080,1,0,0:0:0:0:
192,192,238237,1,0,0:0:0:70:tom1.wav
448,192,238237,1,0,0:0:0:0:
320,192,238315,1,0,0:0:0:70:tom1.wav
64,192,238393,1,0,0:0:0:70:tom2.wav
192,192,238393,1,0,0:0:0:0:
448,192,238471,1,0,0:0:0:70:tom2.wav
192,192,238549,1,0,0:0:0:70:tom3.wav
320,192,238549,1,0,0:0:0:0:
64,192,238627,1,0,0:0:0:70:tom3.wav
320,192,238705,1,0,0:0:0:70:tom4.wav
448,192,238705,1,0,0:0:0:0:
192,192,238783,1,0,0:0:0:70:tom4.wav
64,192,238862,1,4,0:0:0:0:
320,192,238862,1,2,0:0:0:0:
448,192,238862,128,0,238940:0:0:0:0:
192,192,239018,1,2,0:0:0:0:
448,192,239018,128,0,239174:0:0:0:0:
64,192,239174,1,2,0:0:0:0:
192,192,239174,128,8,239330:0:0:0:0:
320,192,239330,128,2,239487:0:0:0:0:
448,192,239330,1,0,0:0:0:0:
64,192,239487,128,2,239799:0:0:0:0:
192,192,239487,1,0,0:0:0:0:
320,192,239643,1,2,0:0:0:0:
448,192,239643,1,0,0:0:0:0:
192,192,239799,1,2,0:0:0:0:
448,192,239799,128,8,240033:0:0:0:0:
64,192,239955,1,2,0:0:0:0:
320,192,239955,128,0,240033:0:0:0:0:
320,192,240112,1,2,0:0:0:0:
448,192,240112,128,0,240190:0:0:0:0:
64,192,240268,128,2,240424:0:0:0:0:
192,192,240268,1,0,0:0:0:0:
320,192,240424,128,2,240580:0:0:0:0:
448,192,240424,1,8,0:0:0:0:
64,192,240580,1,2,0:0:0:0:
192,192,240580,128,0,240737:0:0:0:0:
320,192,240737,1,2,0:0:0:0:
448,192,240737,128,0,241049:0:0:0:0:
64,192,240893,1,2,0:0:0:0:
320,192,240893,1,0,0:0:0:0:
64,192,241049,128,2,241362:0:0:0:0:
192,192,241049,1,8,0:0:0:0:
192,192,241205,1,2,0:0:0:0:
320,192,241205,1,0,0:0:0:0:
320,192,241362,1,2,0:0:0:0:
448,192,241362,128,0,241440:0:0:0:0:
192,192,241518,1,2,0:0:0:0:
448,192,241518,128,0,241674:0:0:0:0:
64,192,241674,1,2,0:0:0:0:
192,192,241674,128,8,241830:0:0:0:0:
320,192,241830,128,2,241987:0:0:0:0:
448,192,241830,1,0,0:0:0:0:
64,192,241987,128,2,242299:0:0:0:0:
192,192,241987,1,0,0:0:0:0:
320,192,242143,1,2,0:0:0:0:
448,192,242143,1,0,0:0:0:0:
192,192,242299,1,2,0:0:0:0:
448,192,242299,128,8,242533:0:0:0:0:
64,192,242455,128,2,242612:0:0:0:0:
320,192,242455,128,0,242533:0:0:0:0:
320,192,242612,1,2,0:0:0:0:
448,192,242612,128,0,242768:0:0:0:0:
64,192,242768,128,2,242924:0:0:0:0:
192,192,242768,1,0,0:0:0:0:
320,192,242924,128,2,243080:0:0:0:0:
448,192,242924,1,8,0:0:0:0:
64,192,243080,1,2,0:0:0:0:
192,192,243080,128,0,243237:0:0:0:0:
320,192,243237,1,2,0:0:0:0:
448,192,243237,128,0,243393:0:0:0:0:
64,192,243393,1,2,0:0:0:0:
192,192,243471,1,2,0:0:0:0:
320,192,243549,1,2,0:0:0:0:
448,192,243549,1,8,0:0:0:0:
64,192,243627,1,8,0:0:0:0:
192,192,243627,1,2,0:0:0:0:
320,192,243705,1,2,0:0:0:0:
448,192,243705,1,8,0:0:0:0:
192,192,243783,1,10,0:0:0:0:
64,192,243862,128,4,243940:0:0:0:0:
320,192,243862,1,2,0:0:0:0:
448,192,243862,1,0,0:0:0:0:
64,192,244018,128,2,244174:0:0:0:0:
192,192,244018,1,0,0:0:0:0:
320,192,244174,128,2,244330:0:0:0:0:
448,192,244174,1,8,0:0:0:0:
64,192,244330,1,2,0:0:0:0:
192,192,244330,128,0,244487:0:0:0:0:
320,192,244487,1,2,0:0:0:0:
448,192,244487,128,0,244799:0:0:0:0:
64,192,244643,1,2,0:0:0:0:
192,192,244643,1,0,0:0:0:0:
64,192,244799,128,8,245033:0:0:0:0:
320,192,244799,1,2,0:0:0:0:
192,192,244955,128,2,245033:0:0:0:0:
448,192,244955,128,0,245112:0:0:0:0:
64,192,245112,1,2,0:0:0:0:
192,192,245112,1,0,0:0:0:0:
320,192,245268,1,2,0:0:0:0:
448,192,245268,128,0,245424:0:0:0:0:
64,192,245424,1,2,0:0:0:0:
192,192,245424,128,8,245580:0:0:0:0:
320,192,245580,128,2,245737:0:0:0:0:
448,192,245580,1,0,0:0:0:0:
64,192,245737,128,2,246049:0:0:0:0:
192,192,245737,1,0,0:0:0:0:
192,192,245893,1,2,0:0:0:0:
448,192,245893,1,0,0:0:0:0:
320,192,246049,1,8,0:0:0:0:
448,192,246049,128,2,246362:0:0:0:0:
64,192,246205,1,2,0:0:0:0:
192,192,246205,1,0,0:0:0:0:
64,192,246362,1,2,0:0:0:0:
320,192,246362,128,0,246440:0:0:0:0:
192,192,246440,128,0,246518:0:0:0:0:
320,192,246518,1,2,0:0:0:0:
448,192,246518,128,0,246674:0:0:0:0:
64,192,246674,1,8,0:0:0:0:
192,192,246674,128,2,246830:0:0:0:0:
320,192,246830,1,2,0:0:0:0:
448,192,246830,128,0,246908:0:0:0:0:
64,192,246987,1,2,0:0:0:0:
448,192,246987,128,0,247299:0:0:0:0:
192,192,246987,1,0,0:0:0:0:
192,192,247143,1,2,0:0:0:0:
320,192,247143,1,0,0:0:0:0:
64,192,247299,128,2,247612:0:0:0:0:
320,192,247299,1,8,0:0:0:0:
192,192,247455,128,2,247612:0:0:0:0:
448,192,247455,1,0,0:0:0:0:
320,192,247612,128,2,247768:0:0:0:0:
448,192,247612,1,0,0:0:0:0:
64,192,247768,1,2,0:0:0:0:
192,192,247768,1,0,0:0:0:0:
192,192,247924,1,2,0:0:0:0:
320,192,247924,1,8,0:0:0:0:
448,192,247924,1,0,0:0:0:0:
64,192,248080,1,2,0:0:0:0:
448,192,248080,1,0,0:0:0:0:
320,192,248158,1,2,0:0:0:0:
64,192,248237,1,4,0:0:0:0:
192,192,248237,1,8,0:0:0:0:
448,192,248237,1,2,0:0:0:0:
192,192,248393,1,2,0:0:0:0:
320,192,248393,1,0,0:0:0:0:
448,192,248471,1,2,0:0:0:0:
64,192,248549,1,8,0:0:0:0:
192,192,248549,1,2,0:0:0:0:
320,192,248627,1,8,0:0:0:0:
448,192,248627,1,2,0:0:0:0:
64,192,248705,1,8,0:0:0:0:
192,192,248705,1,2,0:0:0:0:
320,192,248783,1,10,0:0:0:0:
64,192,248862,1,4,0:0:0:0:
192,192,248862,1,2,0:0:0:0:
448,192,248862,128,0,248940:0:0:0:0:
320,192,249018,1,2,0:0:0:0:
448,192,249018,128,0,249174:0:0:0:0:
64,192,249174,1,2,0:0:0:0:
192,192,249174,128,8,249330:0:0:0:0:
320,192,249330,128,2,249487:0:0:0:0:
448,192,249330,1,0,0:0:0:0:
64,192,249487,128,2,249799:0:0:0:0:
192,192,249487,1,0,0:0:0:0:
320,192,249643,1,2,0:0:0:0:
448,192,249643,1,0,0:0:0:0:
192,192,249799,1,8,0:0:0:0:
448,192,249799,128,2,250033:0:0:0:0:
64,192,249955,128,2,250112:0:0:0:0:
320,192,249955,128,0,250033:0:0:0:0:
320,192,250112,1,2,0:0:0:0:
448,192,250112,1,0,0:0:0:0:
64,192,250268,128,2,250424:0:0:0:0:
192,192,250268,1,0,0:0:0:0:
320,192,250424,128,2,250580:0:0:0:0:
448,192,250424,1,8,0:0:0:0:
64,192,250580,1,2,0:0:0:0:
192,192,250580,128,0,250737:0:0:0:0:
320,192,250737,1,2,0:0:0:0:
448,192,250737,128,0,251049:0:0:0:0:
64,192,250893,1,2,0:0:0:0:
320,192,250893,1,0,0:0:0:0:
64,192,251049,128,8,251362:0:0:0:0:
192,192,251049,1,2,0:0:0:0:
192,192,251205,1,2,0:0:0:0:
320,192,251205,1,0,0:0:0:0:
320,192,251362,1,2,0:0:0:0:
448,192,251362,128,0,251440:0:0:0:0:
192,192,251518,1,2,0:0:0:0:
448,192,251518,128,0,251674:0:0:0:0:
64,192,251674,1,8,0:0:0:0:
192,192,251674,128,2,251830:0:0:0:0:
320,192,251830,128,2,251987:0:0:0:0:
448,192,251830,1,0,0:0:0:0:
64,192,251987,128,2,252299:0:0:0:0:
192,192,251987,1,0,0:0:0:0:
320,192,252143,1,2,0:0:0:0:
448,192,252143,1,0,0:0:0:0:
192,192,252299,1,2,0:0:0:0:
448,192,252299,128,8,252533:0:0:0:0:
64,192,252455,128,2,252612:0:0:0:0:
320,192,252455,128,0,252533:0:0:0:0:
320,192,252612,1,2,0:0:0:0:
448,192,252612,1,0,0:0:0:0:
64,192,252768,128,2,252924:0:0:0:0:
192,192,252768,1,0,0:0:0:0:
320,192,252924,128,2,253080:0:0:0:0:
448,192,252924,1,8,0:0:0:0:
64,192,253080,1,2,0:0:0:0:
192,192,253080,128,0,253237:0:0:0:0:
320,192,253237,1,2,0:0:0:0:
448,192,253237,128,0,253393:0:0:0:0:
64,192,253393,1,2,0:0:0:0:
192,192,253471,1,2,0:0:0:0:
320,192,253549,1,8,0:0:0:0:
448,192,253549,1,2,0:0:0:0:
64,192,253627,1,8,0:0:0:0:
192,192,253627,1,2,0:0:0:0:
320,192,253705,1,8,0:0:0:0:
448,192,253705,1,2,0:0:0:0:
192,192,253783,1,10,0:0:0:0:
64,192,253862,128,4,253940:0:0:0:0:
320,192,253862,1,2,0:0:0:0:
448,192,253862,1,0,0:0:0:0:
64,192,254018,128,2,254174:0:0:0:0:
192,192,254018,1,0,0:0:0:0:
320,192,254174,128,2,254330:0:0:0:0:
448,192,254174,1,8,0:0:0:0:
64,192,254330,1,2,0:0:0:0:
192,192,254330,128,0,254487:0:0:0:0:
320,192,254487,1,2,0:0:0:0:
448,192,254487,128,0,254799:0:0:0:0:
64,192,254643,1,2,0:0:0:0:
192,192,254643,1,0,0:0:0:0:
64,192,254799,128,8,255033:0:0:0:0:
320,192,254799,1,2,0:0:0:0:
192,192,254955,128,2,255033:0:0:0:0:
448,192,254955,128,0,255112:0:0:0:0:
64,192,255112,1,2,0:0:0:0:
192,192,255112,1,0,0:0:0:0:
320,192,255268,1,2,0:0:0:0:
448,192,255268,128,0,255424:0:0:0:0:
64,192,255424,1,2,0:0:0:0:
192,192,255424,128,8,255580:0:0:0:0:
320,192,255580,128,2,255737:0:0:0:0:
448,192,255580,1,0,0:0:0:0:
64,192,255737,128,2,256049:0:0:0:0:
192,192,255737,1,0,0:0:0:0:
192,192,255893,1,2,0:0:0:0:
448,192,255893,1,0,0:0:0:0:
320,192,256049,1,8,0:0:0:0:
448,192,256049,128,2,256362:0:0:0:0:
64,192,256205,1,2,0:0:0:0:
192,192,256205,1,0,0:0:0:0:
64,192,256362,1,2,0:0:0:0:
320,192,256362,128,0,256440:0:0:0:0:
192,192,256440,128,0,256518:0:0:0:0:
320,192,256518,1,2,0:0:0:0:
448,192,256518,128,0,256674:0:0:0:0:
64,192,256674,1,8,0:0:0:0:
192,192,256674,128,2,256830:0:0:0:0:
320,192,256830,1,2,0:0:0:0:
448,192,256830,128,0,256908:0:0:0:0:
192,192,256987,1,2,0:0:0:0:
448,192,256987,128,0,257143:0:0:0:0:
64,192,257143,1,2,0:0:0:0:
192,192,257143,1,0,0:0:0:0:
64,192,257299,1,2,0:0:0:0:
320,192,257299,1,8,0:0:0:0:
448,192,257299,1,0,0:0:0:0:
192,192,257455,1,2,0:0:0:0:
320,192,257455,1,8,0:0:0:0:
448,192,257455,1,0,0:0:0:0:
64,192,257612,1,2,0:0:0:0:
192,192,257612,1,0,0:0:0:0:
320,192,257690,1,8,0:0:0:0:
448,192,257690,1,0,0:0:0:0:
64,192,257846,1,2,0:0:0:0:
448,192,257846,1,0,0:0:0:0:
192,192,257924,1,8,0:0:0:0:
320,192,257924,1,0,0:0:0:0:
64,192,258080,1,2,0:0:0:0:
320,192,258080,1,8,0:0:0:0:
448,192,258080,1,0,0:0:0:0:
192,192,258237,1,0,0:0:0:70:tom1.wav
448,192,258237,1,0,0:0:0:0:
320,192,258315,1,0,0:0:0:70:tom1.wav
64,192,258393,1,0,0:0:0:70:tom2.wav
192,192,258393,1,0,0:0:0:0:
320,192,258471,1,0,0:0:0:70:tom2.wav
64,192,258549,1,0,0:0:0:70:tom3.wav
448,192,258549,1,0,0:0:0:0:
192,192,258627,1,2,0:0:0:0:
320,192,258705,1,2,0:0:0:0:
448,192,258705,1,0,0:0:0:0:
192,192,258783,1,2,0:0:0:0:
64,192,258862,128,2,259408:0:0:0:0:
320,192,258862,128,4,259408:0:0:0:0:
448,192,258862,128,0,259408:0:0:0:0:
64,192,259487,128,2,260033:0:0:0:0:
192,192,259487,128,4,260033:0:0:0:0:
448,192,259487,128,0,260033:0:0:0:0:
192,192,260112,128,4,260658:0:0:0:0:
320,192,260112,128,2,260658:0:0:0:0:
448,192,260112,128,0,260658:0:0:0:0:
64,192,260737,128,2,261205:0:0:0:0:
192,192,260737,128,4,261205:0:0:0:0:
320,192,260737,128,0,261127:0:0:0:0:
320,192,261205,1,2,0:0:0:0:
448,192,261205,1,0,0:0:0:0:
192,192,261283,1,2,0:0:0:0:
64,192,261362,128,8,261596:0:0:0:0:
320,192,261362,128,4,261596:0:0:0:0:
448,192,261362,128,0,261596:0:0:0:0:
64,192,261674,128,8,261908:0:0:0:0:
320,192,261674,128,4,261908:0:0:0:0:
448,192,261674,128,0,261908:0:0:0:0:
64,192,261987,128,4,262221:0:0:0:0:
192,192,261987,128,8,262221:0:0:0:0:
320,192,261987,128,0,262221:0:0:0:0:
64,192,262299,128,8,262768:0:0:0:0:
192,192,262299,128,4,262768:0:0:0:0:
320,192,262299,128,0,262768:0:0:0:0:
448,192,262299,128,0,262768:0:0:0:0:
