osu file format v14

[General]
AudioFilename: audio.mp3
AudioLeadIn: 0
PreviewTime: 184092
Countdown: 0
SampleSet: Soft
StackLeniency: 0.5
Mode: 0
LetterboxInBreaks: 0
WidescreenStoryboard: 1

[Editor]
Bookmarks: 39495,131914
DistanceSpacing: 1
BeatDivisor: 4
GridSize: 4
TimelineZoom: 2.599999

[Metadata]
Title:ReI
TitleUnicode:ReI
Artist:THE ORAL CIGARETTES
ArtistUnicode:THE ORAL CIGARETTES
Creator:trailmix
Version:Insane
Source:
Tags:sparxo nevo japanese rock jrock reiproject toc rel
BeatmapID:2332115
BeatmapSetID:982104

[Difficulty]
HPDrainRate:5
CircleSize:4
OverallDifficulty:8
ApproachRate:9
SliderMultiplier:1.8
SliderTickRate:1

[Events]
//Background and Video events
0,0,"BG.jpg",0,0
//Break Periods
2,163888,180830
//Storyboard Layer 0 (Background)
//Storyboard Layer 1 (Fail)
//Storyboard Layer 2 (Pass)
//Storyboard Layer 3 (Foreground)
//Storyboard Layer 4 (Overlay)
//Storyboard Sound Samples

[TimingPoints]
2075,468.75,4,2,1,80,1,0
28325,-100,4,2,1,40,0,0
30082,-100,4,2,1,5,0,0
30200,-100,4,2,1,40,0,0
32076,322.58064516129,4,2,1,80,1,0
41269,-100,4,2,1,80,0,0
42398,-100,4,2,1,80,0,0
43688,-100,4,2,1,60,0,0
63043,-100,4,2,1,70,0,0
75946,-100,4,2,1,90,0,1
77155,-100,4,2,1,90,0,1
77237,-100,4,2,1,90,0,1
82317,-100,4,2,1,90,0,1
82398,-100,4,2,1,90,0,1
82640,-100,4,2,1,90,0,1
82721,-100,4,2,1,90,0,1
82963,-100,4,2,1,90,0,1
83043,-100,4,2,1,90,0,1
83285,-100,4,2,1,90,0,1
83366,-100,4,2,1,90,0,1
83608,-100,4,2,1,90,0,1
84252,-100,4,2,1,90,0,1
84334,-100,4,2,1,90,0,1
84495,-100,4,2,1,90,0,1
84656,-100,4,2,1,90,0,1
84898,-100,4,2,1,90,0,1
84979,-100,4,2,1,90,0,1
87478,-100,4,2,1,90,0,1
87559,-100,4,2,1,90,0,1
91430,-100,4,2,1,90,0,1
91671,-100,4,2,1,90,0,1
91753,-100,4,2,1,90,0,1
92075,-100,4,2,1,90,0,1
92316,-100,4,2,1,90,0,1
92398,-100,4,2,1,90,0,1
92721,-100,4,2,1,90,0,1
92962,-100,4,2,1,90,0,1
93043,-100,4,2,1,90,0,1
95946,-100,4,2,1,90,0,1
96269,-100,4,2,1,90,0,1
96592,-100,4,2,1,80,0,0
106592,-74.0740740740741,4,2,1,80,0,0
106914,-125,4,2,1,60,0,0
107720,-125,4,2,1,60,0,0
107882,-125,4,2,1,60,0,0
109092,-125,4,2,1,60,0,0
109172,-166.666666666667,4,2,1,60,0,0
109656,-166.666666666667,4,2,1,60,0,0
109817,-166.666666666667,4,2,1,60,0,0
111672,-125,4,2,1,60,0,0
111753,-125,4,2,1,60,0,0
111995,-125,4,2,1,60,0,0
112075,-125,4,2,1,60,0,0
112882,-125,4,2,1,60,0,0
113043,-125,4,2,1,60,0,0
114253,-125,4,2,1,60,0,0
114334,-166.666666666667,4,2,1,60,0,0
114817,-125,4,2,1,60,0,0
114978,-125,4,2,1,60,0,0
115301,-125,4,2,1,60,0,0
115462,-125,4,2,1,60,0,0
115623,-125,4,2,1,60,0,0
116108,-125,4,2,1,60,0,0
116592,-125,4,2,1,60,0,0
116753,-125,4,2,1,60,0,0
116914,-125,4,2,1,60,0,0
117075,-125,4,2,1,60,0,0
117237,-100,4,2,1,70,0,0
123205,-100,4,2,1,70,0,0
123366,-100,4,2,1,70,0,0
126510,-100,4,2,1,70,0,0
126592,-100,4,2,1,70,0,0
135140,-100,4,2,1,70,0,0
135462,-100,4,2,1,70,0,0
135785,-100,4,2,1,70,0,0
135946,-100,4,2,1,70,0,0
136269,-100,4,2,1,70,0,0
136431,-100,4,2,1,70,0,0
137882,-100,4,2,1,90,0,1
138447,-100,4,2,1,90,0,1
138528,-100,4,2,1,90,0,1
143608,-100,4,2,1,90,0,1
143689,-100,4,2,1,90,0,1
144253,-100,4,2,1,90,0,1
144334,-100,4,2,1,90,0,1
144575,-100,4,2,1,90,0,1
144656,-100,4,2,1,90,0,1
144979,-100,4,2,1,90,0,1
145544,-100,4,2,1,90,0,1
146188,-100,4,2,1,90,0,1
146270,-100,4,2,1,90,0,1
146834,-100,4,2,1,90,0,1
146915,-100,4,2,1,90,0,1
151995,-100,4,2,1,90,0,1
152076,-100,4,2,1,90,0,1
153366,-100,4,2,1,90,0,1
153607,-100,4,2,1,90,0,1
153688,-100,4,2,1,90,0,1
154011,-100,4,2,1,90,0,1
154252,-100,4,2,1,90,0,1
154334,-100,4,2,1,90,0,1
154656,-100,4,2,1,90,0,1
154898,-100,4,2,1,90,0,1
154979,-100,4,2,1,90,0,1
158850,-100,4,2,1,90,0,1
159172,-100,4,2,1,90,0,1
159817,-100,4,2,1,90,0,1
160301,-100,4,2,1,90,0,1
161108,-100,4,2,1,90,0,1
162398,-100,4,2,1,75,0,1
162721,-125,4,2,1,75,0,1
163043,-166.666666666667,4,2,1,75,0,1
163366,-250,4,2,1,75,0,1
163608,-250,4,2,1,5,0,1
163688,-125,4,2,1,60,0,0
165140,-125,4,2,1,60,0,0
165301,-125,4,2,1,60,0,0
165462,-125,4,2,1,60,0,0
165624,-125,4,2,1,60,0,0
166430,-125,4,2,1,60,0,0
166592,-125,4,2,1,60,0,0
166753,-125,4,2,1,60,0,0
166914,-125,4,2,1,60,0,0
167720,-125,4,2,1,60,0,0
167882,-125,4,2,1,60,0,0
168043,-125,4,2,1,60,0,0
168205,-125,4,2,1,60,0,0
170301,-125,4,2,1,60,0,0
170463,-125,4,2,1,60,0,0
170624,-125,4,2,1,60,0,0
170785,-125,4,2,1,60,0,0
171188,-125,4,2,1,60,0,0
171269,-125,4,2,1,60,0,0
171349,-125,4,2,1,60,0,0
171430,-125,4,2,1,60,0,0
171591,-125,4,2,1,60,0,0
171753,-125,4,2,1,60,0,0
171914,-125,4,2,1,60,0,0
172075,-125,4,2,1,60,0,0
172882,-125,4,2,1,60,0,0
173043,-125,4,2,1,60,0,0
173204,-125,4,2,1,60,0,0
173366,-125,4,2,1,60,0,0
175463,-125,4,2,1,60,0,0
175624,-125,4,2,1,60,0,0
175785,-125,4,2,1,60,0,0
175947,-125,4,2,1,60,0,0
176753,-125,4,2,1,60,0,0
176915,-125,4,2,1,60,0,0
177076,-125,4,2,1,60,0,0
177237,-125,4,2,1,60,0,0
178043,-125,4,2,1,60,0,0
178205,-125,4,2,1,60,0,0
178366,-125,4,2,1,60,0,0
178528,-125,4,2,1,60,0,0
180624,-125,4,2,1,60,0,0
180786,-125,4,2,1,60,0,0
180947,-125,4,2,1,60,0,0
181108,-125,4,2,1,60,0,0
181430,-90.9090909090909,4,2,1,60,0,0
181592,-90.9090909090909,4,2,1,60,0,0
181672,-90.9090909090909,4,2,1,60,0,0
181753,-125,4,2,1,60,0,0
182075,-125,4,2,1,60,0,0
182316,-125,4,2,1,5,0,0
182398,-125,4,2,1,60,0,0
182639,-125,4,2,1,5,0,0
182721,-125,4,2,1,60,0,0
182962,-125,4,2,1,5,0,0
183044,-125,4,2,1,60,0,0
183285,-125,4,2,1,5,0,0
183366,-125,4,2,1,60,0,0
183607,-125,4,2,1,5,0,0
183688,-125,4,2,1,60,0,0
184334,-125,4,2,1,60,0,0
185140,-125,4,2,1,60,0,0
185301,-125,4,2,1,60,0,0
189656,-125,4,2,1,60,0,0
189817,-125,4,2,1,60,0,0
189978,-125,4,2,1,60,0,0
190140,-125,4,2,1,60,0,0
190946,-125,4,2,1,60,0,0
191107,-125,4,2,1,60,0,0
191269,-125,4,2,1,60,0,0
191430,-125,4,2,1,60,0,0
194897,-125,4,2,1,5,0,0
194979,-125,4,2,1,60,0,0
196188,-125,4,2,1,5,0,0
196270,-125,4,2,1,60,0,0
197479,-125,4,2,1,5,0,0
197561,-125,4,2,1,60,0,0
197801,-125,4,2,1,5,0,0
197883,-125,4,2,1,60,0,0
198446,-125,4,2,1,5,0,0
198528,-125,4,2,1,60,0,0
199737,-125,4,2,1,5,0,0
199817,-111.111111111111,4,2,1,60,0,0
200059,-111.111111111111,4,2,1,5,0,0
200140,-111.111111111111,4,2,1,60,0,0
200382,-111.111111111111,4,2,1,5,0,0
200463,-111.111111111111,4,2,1,60,0,0
201027,-111.111111111111,4,2,1,5,0,0
201108,-111.111111111111,4,2,1,60,0,0
201349,-111.111111111111,4,2,1,5,0,0
201430,-111.111111111111,4,2,1,60,0,0
201671,-111.111111111111,4,2,1,5,0,0
201753,-111.111111111111,4,2,1,60,0,0
202316,-111.111111111111,4,2,1,5,0,0
202398,-111.111111111111,4,2,1,60,0,0
202640,-111.111111111111,4,2,1,5,0,0
202721,-111.111111111111,4,2,1,60,0,0
202963,-111.111111111111,4,2,1,5,0,0
203044,-111.111111111111,4,2,1,60,0,0
204656,-111.111111111111,4,2,1,60,0,0
205462,-111.111111111111,4,2,1,60,0,0
205624,-111.111111111111,4,2,1,60,0,0
205946,-111.111111111111,4,2,1,60,0,0
206108,-100,4,2,1,60,0,0
207559,-100,4,2,1,60,0,0
207720,-100,4,2,1,60,0,0
209495,-100,4,2,1,45,0,0
211430,-200,4,2,1,70,0,0
211995,-200,4,2,1,5,0,0
212075,-200,4,2,1,70,0,0
212640,-200,4,2,1,5,0,0
212721,-200,4,2,1,70,0,0
213205,-200,4,2,1,70,0,0
213366,-200,4,2,1,70,0,0
214011,-133.333333333333,4,2,1,70,0,0
214333,-133.333333333333,4,2,1,70,0,0
214575,-133.333333333333,4,2,1,5,0,0
214656,-133.333333333333,4,2,1,70,0,0
214978,-133.333333333333,4,2,1,70,0,0
215301,-200,4,2,1,70,0,0
216833,-200,4,2,1,5,0,0
216914,-100,4,2,1,70,0,0
221108,-200,4,2,1,50,0,0
221350,-1000,4,2,1,70,0,0
221430,-50,4,2,1,70,0,0
221592,-50,4,2,1,70,0,0
221672,-50,4,2,1,70,0,0
221753,-100,4,2,1,90,0,1
222962,-100,4,2,1,90,0,1
223043,-100,4,2,1,90,0,1
224334,-83.3333333333333,4,2,1,90,0,1
224495,-83.3333333333333,4,2,1,90,0,1
224656,-83.3333333333333,4,2,1,90,0,1
225140,-83.3333333333333,4,2,1,90,0,1
225301,-83.3333333333333,4,2,1,90,0,1
226914,-100,4,2,1,90,0,1
227155,-100,4,2,1,90,0,1
227237,-100,4,2,1,90,0,1
227559,-100,4,2,1,90,0,1
227800,-100,4,2,1,90,0,1
227882,-100,4,2,1,90,0,1
228205,-100,4,2,1,90,0,1
228446,-100,4,2,1,90,0,1
228527,-100,4,2,1,90,0,1
228850,-100,4,2,1,90,0,1
229091,-100,4,2,1,90,0,1
229172,-100,4,2,1,90,0,1
229817,-100,4,2,1,90,0,1
230140,-100,4,2,1,90,0,1
230463,-100,4,2,1,90,0,1
230785,-100,4,2,1,90,0,1
231108,-100,4,2,1,90,0,1
231430,-100,4,2,1,90,0,1
231753,-100,4,2,1,90,0,1
232075,-100,4,2,1,90,0,1
233608,-100,4,2,1,5,0,1
233688,-90.9090909090909,4,2,1,90,0,1
233930,-90.9090909090909,4,2,1,5,0,1
234011,-83.3333333333333,4,2,1,90,0,1
234253,-83.3333333333333,4,2,1,5,0,1
234334,-76.9230769230769,4,2,1,90,0,1
234495,-76.9230769230769,4,2,1,90,0,1
234575,-76.9230769230769,4,2,1,5,0,1
234656,-100,4,2,1,90,0,1
234979,-100,4,2,1,90,0,1
235463,-100,4,2,1,90,0,1
236108,-100,4,2,1,90,0,1
236591,-100,4,2,1,90,0,1
237237,-100,4,2,1,90,0,1
239495,-74.0740740740741,4,2,1,90,0,1
239737,-74.0740740740741,4,2,1,90,0,1
239817,-100,4,2,1,80,0,0
249575,-100,4,2,1,5,0,0
249656,-100,4,2,1,80,0,0
252721,-100,4,2,1,80,0,0
253366,-100,4,2,1,5,0,0

[Colours]
Combo1 : 139,189,226
Combo2 : 255,119,147
Combo3 : 180,217,228
Combo4 : 167,149,219
Combo5 : 255,186,166
SliderBorder : 235,255,254

[HitObjects]
423,271,32076,6,0,L|512:265,1,90,14|0,0:2|0:2,0:0:0:0:
285,357,32398,2,0,L|374:363,1,90,8|0,0:2|3:2,0:0:0:0:
236,252,32721,1,8,0:2:0:0:
185,383,32882,1,0,3:2:0:0:
320,273,33043,5,8,0:2:0:0:
163,203,33205,2,0,P|112:131|127:44,1,180,8|8,0:2|0:2,0:0:0:0:
278,0,33688,2,0,L|262:97,1,90,8|0,0:2|3:2,0:0:0:0:
282,129,33930,1,0,3:2:0:0:
282,129,34011,6,0,P|327:136|385:112,1,90,8|0,0:2|3:2,0:0:0:0:
476,17,34334,1,8,0:2:0:0:
457,139,34495,1,0,3:2:0:0:
438,261,34656,6,0,P|440:313|463:351,1,90,14|0,0:2|3:2,0:0:0:0:
319,256,34979,2,0,P|272:231|228:232,1,90,8|0,0:2|3:2,0:0:0:0:
111,365,35301,1,8,0:2:0:0:
53,200,35463,1,0,3:2:0:0:
190,316,35624,5,8,0:2:0:0:
134,142,35785,2,0,B|200:131|200:131|242:144|242:144|310:135,1,180,8|8,0:2|0:2,0:0:0:0:
512,10,36269,2,0,L|407:-2,1,90,8|0,0:2|3:2,0:0:0:0:
379,11,36511,1,0,3:2:0:0:
379,11,36592,6,0,P|366:65|378:103,1,90,8|0,0:2|3:2,0:0:0:0:
512,211,36914,1,10,0:2:0:0:
465,76,37075,1,0,3:2:0:0:
338,169,37237,6,0,L|436:182,1,90,14|0,0:2|3:2,0:0:0:0:
512,300,37559,2,0,L|422:311,1,90,8|0,0:2|3:2,0:0:0:0:
253,250,37882,1,8,0:2:0:0:
309,379,38043,1,0,3:2:0:0:
160,305,38205,5,8,0:2:0:0:
304,168,38366,2,0,B|199:141|225:205|120:180,1,180,8|8,0:2|0:2,0:0:0:0:
0,0,38850,2,0,P|30:42|24:103,1,90,8|0,0:2|3:2,0:0:0:0:
18,122,39092,1,0,3:2:0:0:
18,122,39172,6,0,L|129:109,1,90,8|0,0:2|3:2,0:0:0:0:
297,91,39495,1,8,0:2:0:0:
143,21,39656,1,0,3:2:0:0:
248,170,39817,6,0,P|299:183|345:171,1,90,14|0,0:2|3:2,0:0:0:0:
248,6,40140,2,0,P|211:43|198:89,1,90,8|0,0:2|3:2,0:0:0:0:
391,115,40463,1,8,0:2:0:0:
347,5,40624,1,0,3:2:0:0:
502,90,40785,5,8,0:2:0:0:
366,199,40946,2,0,P|358:259|381:308,1,90,0|2,3:2|3:2,0:0:0:0:
393,328,41188,1,0,3:2:0:0:
393,328,41269,5,8,0:2:0:0:
262,255,41431,2,0,L|245:158,1,90,8|0,0:2|0:0,0:0:0:0:
219,368,41753,5,0,3:2:0:0:
175,378,41833,1,0,3:2:0:0:
132,367,41914,1,0,3:2:0:0:
100,336,41994,1,0,3:2:0:0:
86,294,42075,2,0,P|83:273|94:238,3,45,0|0|0|0,3:2|3:2|3:2|3:2,0:0:0:0:
145,202,42398,6,0,P|150:110|66:59,1,180,6|8,3:2|0:2,0:0:0:0:
33,165,42882,1,0,0:0:0:0:
145,202,43043,2,0,P|192:205|234:188,1,90,0|0,3:2|3:2,0:0:0:0:
334,52,43366,1,8,0:2:0:0:
334,52,43527,1,0,0:0:0:0:
196,116,43688,6,0,B|296:86|272:156|381:125,1,180,2|8,3:2|0:2,0:0:0:0:
493,41,44172,1,0,0:0:0:0:
460,191,44334,2,0,L|445:102,1,90,0|0,3:2|3:2,0:0:0:0:
289,248,44656,2,0,L|377:233,1,90,8|0,0:2|0:0,0:0:0:0:
512,359,44979,6,0,P|441:308|359:336,1,180,2|8,3:2|0:2,0:0:0:0:
236,300,45463,1,0,0:0:0:0:
152,379,45624,1,0,3:2:0:0:
152,379,45785,1,0,3:2:0:0:
36,330,45946,2,0,P|22:286|26:240,1,90,8|0,0:2|0:0,0:0:0:0:
117,151,46269,6,0,L|296:141,1,180,2|8,3:2|0:2,0:0:0:0:
463,288,46914,2,0,L|283:278,1,180,0|8,3:2|0:2,0:0:0:0:
232,369,47398,1,0,0:0:0:0:
232,369,47479,1,0,0:0:0:0:
232,369,47559,6,0,B|171:329|171:329|141:272|189:222,1,180,4|8,3:2|0:2,0:0:0:0:
283,278,48043,1,0,0:0:0:0:
216,150,48205,2,0,P|168:142|126:157,1,90,0|0,3:2|3:2,0:0:0:0:
334,196,48527,2,0,P|342:148|326:106,1,90,8|0,0:2|0:0,0:0:0:0:
236,49,48850,6,0,P|148:41|58:79,1,180,2|8,3:2|0:2,0:0:0:0:
12,219,49334,1,0,0:0:0:0:
129,155,49495,2,0,L|137:254,1,90,0|0,3:2|3:2,0:0:0:0:
50,371,49817,2,0,L|58:272,1,90,8|0,0:2|0:0,0:0:0:0:
217,215,50140,6,0,P|263:286|349:281,1,180,2|8,3:2|0:2,0:0:0:0:
458,192,50624,2,0,B|479:90|423:113|434:17,1,180,0|0,0:0|3:2,0:0:0:0:
257,74,51108,1,8,0:2:0:0:
376,156,51269,1,0,0:0:0:0:
244,199,51430,6,0,P|184:195|133:155,1,90,2|0,3:2|0:0,0:0:0:0:
79,119,51753,1,0,3:2:0:0:
160,0,51914,1,8,0:2:0:0:
0,48,52075,2,0,L|115:38,1,90,0|0,3:2|0:0,0:0:0:0:
247,101,52398,2,0,L|132:91,1,90,0|8,3:2|0:2,0:0:0:0:
0,217,52721,6,0,B|100:187|76:257|185:226,1,180,6|8,3:2|0:2,0:0:0:0:
290,198,53205,1,0,0:0:0:0:
230,353,53366,2,0,P|227:306|243:263,1,90,0|0,3:2|3:2,0:0:0:0:
378,230,53689,1,8,0:2:0:0:
378,230,53850,1,0,0:0:0:0:
323,59,54011,6,0,B|266:91|266:91|248:157|296:204,1,180,2|8,3:2|0:2,0:0:0:0:
449,274,54495,1,0,0:0:0:0:
392,141,54657,2,0,L|377:229,1,90,0|0,3:2|3:2,0:0:0:0:
314,371,54979,2,0,L|299:282,1,90,8|0,0:2|0:0,0:0:0:0:
130,165,55302,6,0,P|211:136|282:187,1,180,2|8,3:2|0:2,0:0:0:0:
176,275,55786,1,0,0:0:0:0:
223,377,55947,1,0,3:2:0:0:
223,377,56108,1,0,3:2:0:0:
58,330,56269,2,0,P|44:286|48:240,1,90,8|0,0:2|0:0,0:0:0:0:
117,151,56592,6,0,L|296:141,1,180,2|8,3:2|0:2,0:0:0:0:
440,29,57237,2,0,B|481:82|481:82|446:210,1,180,0|8,3:2|0:2,0:0:0:0:
495,315,57721,1,0,0:0:0:0:
495,315,57802,1,0,0:0:0:0:
495,315,57882,6,0,P|397:320|340:256,1,180,6|8,3:2|0:2,0:0:0:0:
232,309,58366,1,0,0:0:0:0:
180,202,58528,2,0,P|132:194|90:209,1,90,0|0,3:2|3:2,0:0:0:0:
304,145,58850,2,0,P|312:97|296:55,1,90,8|0,0:2|0:0,0:0:0:0:
42,87,59173,6,0,L|237:108,1,180,2|8,3:2|0:2,0:0:0:0:
381,44,59657,1,0,0:0:0:0:
318,233,59818,2,0,L|304:145,1,90,0|0,3:2|3:2,0:0:0:0:
455,94,60140,2,0,L|447:183,1,90,8|0,0:2|0:0,0:0:0:0:
370,309,60463,6,0,P|284:314|224:245,1,180,2|8,3:2|0:2,0:0:0:0:
269,138,60947,2,0,B|181:108|186:169|86:130,1,180,0|0,0:0|3:2,0:0:0:0:
157,26,61431,1,14,0:2:0:0:
359,127,61753,6,0,P|399:145|444:144,1,90,2|8,3:2|0:2,0:0:0:0:
479,116,61995,1,8,0:2:0:0:
479,116,62075,1,8,0:2:0:0:
409,16,62237,1,8,0:2:0:0:
359,127,62398,5,2,3:2:0:0:
339,166,62478,1,2,3:2:0:0:
339,211,62559,1,2,3:2:0:0:
360,250,62639,1,2,3:2:0:0:
397,275,62721,2,0,L|451:269,3,45,2|2|2|2,3:2|3:2|3:2|3:2,0:0:0:0:
362,348,63043,5,6,0:2:0:0:
230,259,63205,1,0,3:2:0:0:
145,380,63366,2,0,P|100:382|60:363,1,90,8|0,0:2|0:0,0:0:0:0:
39,324,63608,1,0,3:2:0:0:
39,324,63688,2,0,P|36:279|55:239,1,90,0|0,3:2|3:2,0:0:0:0:
169,88,64011,1,8,0:2:0:0:
211,183,64172,6,0,P|137:188|61:91,1,180,2|0,0:2|3:2,0:0:0:0:
257,100,64656,2,0,L|350:89,1,90,8|0,0:2|3:2,0:0:0:0:
386,111,64898,1,0,3:2:0:0:
386,111,64979,1,0,3:2:0:0:
439,218,65140,1,0,3:2:0:0:
311,312,65301,2,0,P|306:268|304:222,1,90,8|0,0:2|0:0,0:0:0:0:
198,165,65624,6,0,P|120:123|32:137,1,180,6|8,3:2|0:2,0:0:0:0:
175,297,66108,2,0,P|87:311|9:269,1,180,0|0,0:0|3:2,0:0:0:0:
106,214,66592,1,8,0:2:0:0:
252,301,66753,6,0,B|319:295|319:295|357:307|357:307|432:298,1,180,2|0,0:2|3:2,0:0:0:0:
480,198,67237,2,0,P|499:153|495:101,1,90,8|0,0:2|3:2,0:0:0:0:
466,80,67479,1,0,3:2:0:0:
466,80,67559,2,0,L|365:93,1,90,0|0,3:2|3:2,0:0:0:0:
294,188,67882,1,8,0:2:0:0:
250,185,67962,1,8,0:2:0:0:
205,181,68043,1,8,0:2:0:0:
160,177,68123,1,8,0:2:0:0:
115,173,68204,5,2,3:2:0:0:
172,17,68366,1,0,3:2:0:0:
0,90,68527,2,0,L|108:73,1,90,8|0,0:2|3:2,0:0:0:0:
130,93,68769,1,0,3:2:0:0:
130,93,68850,2,0,P|179:101|220:86,1,90,0|0,3:2|3:2,0:0:0:0:
360,7,69172,1,8,0:2:0:0:
294,211,69334,6,0,B|259:113|322:126|288:35,1,180,2|0,0:2|3:2,0:0:0:0:
452,107,69817,2,0,P|439:147|430:202,1,90,8|0,0:2|0:0,0:0:0:0:
454,232,70059,1,0,3:2:0:0:
454,232,70140,1,0,3:2:0:0:
387,334,70301,1,0,3:2:0:0:
240,285,70463,2,0,L|137:305,1,90,8|0,0:2|0:0,0:0:0:0:
115,274,70705,1,8,0:0:0:0:
115,274,70785,6,0,P|159:196|132:100,1,180,6|8,3:2|0:2,0:0:0:0:
0,12,71269,1,0,3:0:0:0:
0,12,71350,1,8,0:2:0:0:
0,12,71430,6,0,L|109:-3,1,90,0|0,3:2|3:2,0:0:0:0:
36,115,71753,1,8,0:2:0:0:
213,84,71914,1,0,3:0:0:0:
213,84,71995,1,0,0:0:0:0:
213,84,72075,6,0,P|212:32|181:-13,1,90,2|0,3:2|3:2,0:0:0:0:
97,184,72398,2,0,P|142:209|197:204,1,90,8|0,0:2|0:0,0:0:0:0:
295,164,72721,1,8,0:2:0:0:
339,166,72801,1,8,0:2:0:0:
384,169,72882,1,0,3:2:0:0:
429,172,72962,1,0,0:0:0:0:
474,175,73043,2,0,P|475:223|465:275,1,90,8|0,0:2|0:0,0:0:0:0:
342,344,73366,6,0,P|260:316|191:368,1,180,10|0,0:2|3:2,0:0:0:0:
70,296,73850,2,0,P|58:252|65:208,1,90,10|0,0:2|3:2,0:0:0:0:
173,263,74172,1,0,3:2:0:0:
31,112,74334,5,10,0:2:0:0:
176,180,74495,1,10,0:2:0:0:
129,63,74656,6,0,L|122:110,2,45,2|0|8,3:2|3:2|0:2,0:0:0:0:
247,124,74979,2,0,L|347:118,1,90,8|0,0:2|0:0,0:0:0:0:
507,0,75301,5,8,3:2:0:0:
468,21,75381,1,8,3:2:0:0:
444,59,75462,1,8,3:2:0:0:
442,104,75542,1,8,3:2:0:0:
462,144,75624,2,0,P|465:173|456:201,3,45,8|8|8|8,3:2|3:2|3:2|3:2,0:0:0:0:
406,243,75946,6,0,L|223:216,1,180,6|8,3:2|0:2,0:0:0:0:
93,267,76430,1,0,0:0:0:0:
93,267,76511,1,8,3:2:0:0:
93,267,76592,2,0,P|62:220|62:176,1,90,0|0,3:2|3:2,0:0:0:0:
202,297,76914,2,0,P|233:344|233:388,1,90,8|0,0:2|0:0,0:0:0:0:
143,196,77237,6,0,L|157:99,1,90,2|0,3:2|3:2,0:0:0:0:
114,0,77559,1,8,0:2:0:0:
245,64,77721,1,0,3:0:0:0:
245,64,77801,1,8,3:2:0:0:
245,64,77882,2,0,P|295:50|348:62,1,90,0|0,3:2|3:2,0:0:0:0:
465,180,78205,2,0,P|415:194|362:182,1,90,8|0,0:2|3:2,0:0:0:0:
341,173,78446,1,8,3:2:0:0:
341,173,78527,6,0,B|334:241|334:241|352:273|352:273|341:348,1,180,2|8,3:2|0:2,0:0:0:0:
207,381,79011,1,0,0:0:0:0:
261,285,79172,2,0,L|163:297,1,90,2|0,3:2|3:2,0:0:0:0:
41,192,79495,2,0,L|130:202,1,90,8|0,0:2|3:0,0:0:0:0:
164,172,79737,1,8,3:2:0:0:
164,172,79817,6,0,P|172:124|161:84,1,90,2|0,3:2|3:2,0:0:0:0:
16,0,80140,2,0,P|53:30|93:41,1,90,8|0,0:2|0:0,0:0:0:0:
233,64,80463,5,8,0:2:0:0:
277,58,80543,1,8,0:2:0:0:
322,52,80624,1,8,0:2:0:0:
366,46,80704,1,8,0:2:0:0:
411,40,80785,2,0,L|461:34,3,45,12|12|12|12,3:3|3:3|3:3|3:3,0:0:0:0:
395,122,81108,6,0,B|343:155|343:155|326:222|379:273,1,180,6|8,3:2|0:2,0:0:0:0:
457,384,81592,1,0,3:0:0:0:
457,384,81672,1,8,3:2:0:0:
457,384,81753,2,0,P|481:339|471:287,1,90,6|0,3:2|3:2,0:0:0:0:
343,384,82075,2,0,L|208:369,1,135,8|8,0:2|0:0,0:0:0:0:
164,358,82398,6,0,P|143:318|149:263,1,90,6|0,3:2|3:2,0:0:0:0:
319,190,82721,2,0,P|340:230|334:285,1,90,8|0,0:2|0:0,0:0:0:0:
311,310,82963,1,8,3:2:0:0:
311,310,83043,2,0,L|211:292,1,90,6|0,3:2|3:2,0:0:0:0:
105,175,83366,2,0,L|193:190,1,90,10|8,0:2|3:2,0:0:0:0:
225,159,83608,1,8,3:2:0:0:
225,159,83688,6,0,B|275:107|275:107|286:42|231:-7,1,180,6|8,3:2|0:2,0:0:0:0:
91,66,84172,1,0,3:0:0:0:
91,66,84253,1,8,0:0:0:0:
91,66,84334,2,0,L|187:80,1,90,0|0,3:2|3:0,0:0:0:0:
333,175,84656,1,8,0:2:0:0:
422,112,84817,1,0,3:0:0:0:
422,112,84898,1,8,0:0:0:0:
422,112,84979,6,0,P|441:162|436:206,1,90,2|0,3:2|3:2,0:0:0:0:
239,128,85301,2,0,P|272:86|313:68,1,90,8|0,0:2|0:0,0:0:0:0:
388,261,85624,5,8,0:2:0:0:
345,276,85704,1,8,0:2:0:0:
301,274,85785,1,8,0:2:0:0:
262,252,85865,1,8,0:2:0:0:
237,214,85946,2,0,P|218:205|191:205,3,45,8|8|8|8,0:2|0:2|0:2|0:2,0:0:0:0:
105,267,86269,6,0,P|90:179|138:92,1,180,6|8,3:2|0:2,0:0:0:0:
241,36,86753,1,0,0:0:0:0:
241,36,86834,1,8,3:2:0:0:
241,36,86915,2,0,L|342:47,1,90,0|0,3:2|3:2,0:0:0:0:
411,165,87237,2,0,L|321:174,1,90,8|0,0:2|0:0,0:0:0:0:
235,247,87560,6,0,P|232:304|249:344,1,90,2|0,3:2|3:2,0:0:0:0:
390,367,87882,1,8,0:2:0:0:
324,200,88044,1,0,3:0:0:0:
324,200,88124,1,8,0:2:0:0:
324,200,88205,2,0,L|316:301,1,90,0|0,3:2|3:2,0:0:0:0:
479,365,88527,2,0,L|471:275,1,90,8|8,0:2|0:2,0:0:0:0:
449,235,88769,1,8,0:2:0:0:
449,235,88850,6,0,L|472:53,1,180,2|8,3:2|0:2,0:0:0:0:
325,1,89334,1,0,3:0:0:0:
325,1,89414,1,8,3:2:0:0:
325,1,89495,2,0,L|337:99,1,90,0|0,3:2|3:2,0:0:0:0:
233,186,89817,1,8,0:2:0:0:
177,70,89979,1,0,3:0:0:0:
177,70,90060,1,8,3:2:0:0:
177,70,90140,6,0,L|81:82,1,90,2|0,3:2|3:2,0:0:0:0:
1,213,90463,2,0,L|97:201,1,90,8|0,0:2|0:0,0:0:0:0:
124,231,90705,1,8,3:2:0:0:
124,231,90785,2,0,P|147:275|142:329,1,90,0|0,3:2|3:2,0:0:0:0:
252,370,91108,1,8,0:2:0:0:
296,367,91188,1,8,0:2:0:0:
341,364,91269,1,8,0:2:0:0:
386,361,91349,1,8,0:2:0:0:
431,358,91430,6,0,P|454:318|452:260,1,90,6|0,3:2|0:0,0:0:0:0:
351,126,91753,2,0,L|345:188,3,45,8|8|8|8,0:2|0:2|0:2|0:2,0:0:0:0:
285,232,92075,6,0,P|262:191|264:133,1,90,6|0,3:2|0:0,0:0:0:0:
416,25,92398,1,8,0:2:0:0:
372,30,92478,1,8,0:2:0:0:
327,35,92559,1,8,0:2:0:0:
282,39,92639,1,8,0:2:0:0:
237,44,92721,6,0,L|132:56,1,90,6|0,3:2|0:0,0:0:0:0:
18,171,93043,1,8,0:2:0:0:
49,202,93123,1,8,0:2:0:0:
91,216,93204,1,8,0:2:0:0:
135,209,93284,1,8,0:2:0:0:
171,183,93366,6,0,L|163:125,3,45,14|14|14|14,3:3|3:3|3:3|3:3,0:0:0:0:
260,216,93688,2,12,L|252:273,3,45,14|14|14|14,3:3|3:3|3:3|3:3,3:3:0:0:
257,347,94011,6,0,B|208:340|179:306|179:306|172:351|132:380,1,180,6|8,3:2|0:2,0:0:0:0:
328,298,94495,1,0,0:0:0:0:
328,298,94575,1,0,3:2:0:0:
328,298,94656,2,0,L|431:316,1,90,0|0,3:2|3:2,0:0:0:0:
512,192,94979,2,0,L|423:207,1,90,8|0,0:2|0:0,0:0:0:0:
357,120,95301,5,10,0:2:0:0:
324,89,95381,1,8,0:2:0:0:
281,77,95462,1,8,0:2:0:0:
237,85,95542,1,8,0:2:0:0:
201,112,95623,1,8,0:2:0:0:
164,138,95705,1,8,0:2:0:0:
121,146,95785,1,8,0:2:0:0:
78,134,95866,1,8,0:2:0:0:
49,107,95946,6,12,P|40:84|43:51,3,45,14|14|14|14,3:3|3:3|3:3|3:3,3:3:0:0:
147,41,96269,2,0,P|131:60|101:74,3,45,14|14|14|14,3:3|3:3|3:3|3:3,0:0:0:0:
83,0,96592,1,6,3:2:0:0:
256,192,96672,12,8,98850,0:2:0:0:
324,52,99172,6,0,P|326:104|349:142,1,90,14|0,0:2|3:2,0:0:0:0:
507,102,99495,2,0,P|460:77|416:78,1,90,8|0,0:2|3:2,0:0:0:0:
310,225,99817,1,8,0:2:0:0:
439,172,99979,1,0,3:2:0:0:
363,318,100140,5,8,0:2:0:0:
233,162,100301,2,0,B|222:228|222:228|235:270|235:270|226:338,1,180,8|8,0:2|0:2,0:0:0:0:
93,225,100785,2,0,L|81:120,1,90,8|0,0:2|3:2,0:0:0:0:
94,92,101027,1,0,3:2:0:0:
94,92,101108,6,0,P|148:79|186:91,1,90,8|0,0:2|3:2,0:0:0:0:
311,170,101430,1,10,0:2:0:0:
268,30,101591,1,0,3:2:0:0:
385,99,101753,6,0,L|483:112,1,90,10|0,0:2|3:2,0:0:0:0:
512,212,102075,2,0,L|422:223,1,90,8|0,0:2|3:2,0:0:0:0:
257,245,102398,1,8,0:2:0:0:
372,375,102559,1,0,3:2:0:0:
178,324,102721,5,10,0:0:0:0:
286,154,102882,2,0,P|346:214|337:305,1,180,8|8,0:2|0:2,0:0:0:0:
184,193,103366,2,0,P|174:142|205:89,1,90,8|0,0:2|3:2,0:0:0:0:
219,74,103608,1,0,3:2:0:0:
219,74,103688,6,0,L|313:60,1,90,8|0,0:2|3:2,0:0:0:0:
462,154,104011,1,8,0:2:0:0:
406,0,104172,1,0,3:2:0:0:
287,149,104333,6,0,L|384:164,1,90,10|0,0:2|3:2,0:0:0:0:
478,277,104656,2,0,L|389:290,1,90,8|0,0:2|3:2,0:0:0:0:
266,371,104979,1,8,0:2:0:0:
179,269,105140,1,0,3:2:0:0:
179,269,105221,1,0,0:0:0:0:
179,269,105301,2,0,P|169:224|162:171,1,90,8|0,0:2|3:2,0:0:0:0:
279,57,105624,6,0,L|225:68,3,45,2|0|0|0,3:2|3:2|3:2|3:2,0:0:0:0:
322,129,105946,1,8,0:2:0:0:
359,152,106026,1,8,0:2:0:0:
404,155,106107,1,0,3:2:0:0:
444,135,106187,1,0,3:2:0:0:
469,99,106269,6,0,P|478:74|476:50,3,45,0|0|0|0,3:2|3:0|3:2|3:2,0:0:0:0:
393,59,106592,1,8,0:2:0:0:
398,107,106672,1,8,0:2:0:0:
404,155,106753,1,8,0:2:0:0:
410,203,106833,1,8,0:2:0:0:
416,251,106914,6,0,P|418:291|396:325,1,72,6|0,3:2|0:0,0:0:0:0:
330,289,107237,2,0,P|303:318|263:327,1,72,8|0,0:2|0:0,0:0:0:0:
242,255,107559,2,0,P|202:256|167:234,1,72,0|0,3:2|0:0,0:0:0:0:
226,181,107882,1,8,0:2:0:0:
226,181,108043,1,0,0:0:0:0:
128,302,108205,6,0,P|88:304|54:282,1,72,2|0,3:2|0:0,0:0:0:0:
90,216,108528,2,0,P|60:189|51:149,1,72,8|0,0:2|0:0,0:0:0:0:
124,128,108850,6,0,P|129:81|216:35,1,144,0|4,3:2|3:2,0:0:0:0:
260,127,109495,6,0,L|184:114,1,53.9999983520508,2|0,3:2|0:0,0:0:0:0:
311,67,109817,2,0,L|364:57,1,53.9999983520508,8|0,0:2|0:0,0:0:0:0:
369,204,110140,2,0,L|293:191,1,53.9999983520508,0|0,3:2|0:0,0:0:0:0:
412,128,110463,1,8,0:2:0:0:
412,128,110624,1,0,0:0:0:0:
454,200,110785,6,0,P|454:230|440:256,1,53.9999983520508,2|0,3:2|0:0,0:0:0:0:
457,328,111108,2,0,P|435:349|407:357,1,53.9999983520508,8|0,0:2|0:0,0:0:0:0:
276,256,111430,6,0,P|334:254|370:291,1,107.999996704102,4|4,3:2|3:2,0:0:0:0:
69,357,112075,6,0,P|53:325|57:279,1,72,6|0,3:2|0:0,0:0:0:0:
21,220,112398,2,0,P|43:191|86:176,1,72,8|0,0:2|0:0,0:0:0:0:
111,110,112721,2,0,P|145:118|178:150,1,72,0|0,3:2|0:0,0:0:0:0:
152,219,113043,1,8,0:2:0:0:
152,219,113204,1,0,0:0:0:0:
249,134,113365,6,0,L|336:143,1,72,2|0,3:2|0:0,0:0:0:0:
380,197,113688,2,0,L|467:188,1,72,8|0,0:2|0:0,0:0:0:0:
444,3,114011,6,0,P|391:52|407:139,1,144,0|4,3:2|3:2,0:0:0:0:
479,268,114656,6,0,L|405:273,1,53.9999983520508,2|0,3:2|0:0,0:0:0:0:
368,326,114979,2,0,L|290:321,1,72,8|0,0:2|0:0,0:0:0:0:
247,265,115301,2,0,P|200:270|170:299,1,72
114,350,115624,5,8,0:2:0:0:
151,193,115785,1,8,0:2:0:0:
36,1,116592,6,0,B|15:92|15:92|17:128|53:148,1,144,2|2,0:2|0:2,0:0:0:0:
277,71,117237,6,0,L|97:87,1,180,6|8,3:2|0:2,0:0:0:0:
181,183,117721,1,0,0:0:0:0:
181,183,117801,1,0,0:0:0:0:
181,183,117882,2,0,P|205:223|202:274,1,90,0|0,3:2|0:0,0:0:0:0:
90,340,118205,2,0,L|101:244,1,90,8|0,0:2|0:0,0:0:0:0:
220,345,118527,6,0,P|307:366|391:295,1,180,2|8,3:2|0:2,0:0:0:0:
288,196,119011,1,0,0:0:0:0:
288,196,119092,1,0,0:0:0:0:
288,196,119172,2,0,L|278:254,2,45,0|0|0,3:2|0:0|0:0,0:0:0:0:
363,89,119495,1,8,0:2:0:0:
260,22,119656,1,0,0:0:0:0:
185,120,119817,6,0,P|103:152|22:119,1,180,2|8,3:2|0:2,0:0:0:0:
99,241,120301,1,0,0:0:0:0:
121,242,120381,1,0,0:0:0:0:
143,240,120462,1,0,3:2:0:0:
165,235,120542,1,0,0:0:0:0:
186,226,120623,1,0,0:0:0:0:
25,297,120785,2,0,P|17:341|26:384,1,90,8|0,0:2|0:0,0:0:0:0:
174,334,121108,6,0,L|353:346,1,180,2|8,3:2|0:2,0:0:0:0:
442,181,121592,2,0,L|389:188,1,45
379,271,121753,2,0,L|432:264,1,45,0|0,3:2|0:0,0:0:0:0:
501,244,121914,1,0,0:0:0:0:
346,120,122075,2,0,P|314:177|325:227,1,90,8|0,0:2|0:0,0:0:0:0:
499,42,122398,6,0,B|461:49|427:34|427:34|390:48|390:48|358:31|321:41,1,180,6|8,3:2|0:2,0:0:0:0:
256,128,122882,1,0,0:0:0:0:
256,128,122963,1,0,0:0:0:0:
256,128,123043,2,0,L|356:118,1,90,0|0,3:2|0:0,0:0:0:0:
170,58,123366,2,0,P|152:104|160:158,1,90,8|0,0:2|0:0,0:0:0:0:
293,247,123688,6,0,B|244:240|215:206|215:206|208:251|168:280,1,180,2|8,3:2|0:2,0:0:0:0:
72,203,124172,1,0,0:0:0:0:
72,203,124253,1,0,0:0:0:0:
72,203,124334,2,0,L|82:146,2,45,0|0|0,3:2|0:0|0:0,0:0:0:0:
0,312,124656,2,0,P|52:318|96:296,1,90,8|0,0:2|0:0,0:0:0:0:
209,205,124979,6,0,B|165:264|165:264|195:386,1,180,2|0,3:2|3:2,0:0:0:0:
286,288,125463,2,0,P|364:251|441:293,1,180,8|0,0:2|0:0,0:0:0:0:
496,184,125946,2,0,P|500:131|478:84,1,90,8|0,0:2|0:0,0:0:0:0:
376,34,126269,1,2,3:2:0:0:
376,34,126592,5,8,0:2:0:0:
340,61,126672,1,8,0:2:0:0:
297,72,126753,1,8,0:2:0:0:
252,67,126833,1,8,0:2:0:0:
214,45,126914,6,0,L|196:-2,3,45,2|12|2|2,3:2|3:3|3:2|3:2,0:0:0:0:
151,112,127237,2,12,L|135:154,3,45,12|12|12|12,3:3|3:3|3:3|3:3,3:3:0:0:
91,41,127559,6,0,P|35:47|3:72,1,90,2|0,3:2|3:2,0:0:0:0:
33,136,127882,2,0,P|5:185|7:225,1,90,8|0,0:2|0:0,0:0:0:0:
33,254,128124,1,0,3:2:0:0:
33,254,128205,6,0,L|128:247,1,90,0|0,3:2|3:2,0:0:0:0:
193,317,128527,2,0,L|288:310,1,90,8|0,0:2|0:0,0:0:0:0:
322,332,128769,1,0,3:2:0:0:
322,332,128850,6,0,P|366:274|331:145,1,180,2|8,3:2|0:2,0:0:0:0:
289,101,129334,2,0,B|187:79|213:144|110:121,1,180,4|0,3:2|3:2,0:0:0:0:
52,0,129817,2,0,L|41:108,1,90,8|0,0:2|0:0,0:0:0:0:
20,128,130059,1,0,3:2:0:0:
20,128,130140,6,0,L|31:236,1,90,6|0,3:2|3:2,0:0:0:0:
109,333,130463,2,0,L|120:225,1,90,8|0,0:2|0:0,0:0:0:0:
147,209,130705,1,0,3:2:0:0:
147,209,130785,6,0,P|189:197|246:204,1,90,0|0,3:2|3:2,0:0:0:0:
356,306,131108,2,0,P|324:275|302:222,1,90,8|0,0:2|3:2,0:0:0:0:
317,190,131350,1,0,3:2:0:0:
317,190,131430,6,0,L|336:94,1,90,2|0,3:2|0:0,0:0:0:0:
290,24,131753,1,8,0:2:0:0:
404,51,131914,2,0,L|223:76,1,180,4|0,3:2|3:2,0:0:0:0:
150,23,132398,2,0,P|110:1|66:0,1,90,8|0,3:3|3:2,0:0:0:0:
208,164,132721,6,0,L|225:74,1,90,6|0,3:2|3:2,0:0:0:0:
97,153,133043,2,0,L|114:243,1,90,8|0,0:2|0:0,0:0:0:0:
150,268,133285,1,0,3:2:0:0:
150,268,133366,6,0,P|195:284|242:277,1,90,0|0,3:2|3:2,0:0:0:0:
308,214,133688,2,0,P|352:209|394:225,1,90,8|0,0:2|0:0,0:0:0:0:
429,253,133930,1,0,3:2:0:0:
429,253,134011,6,0,L|416:352,1,90,2|0,3:2|0:0,0:0:0:0:
270,384,134334,1,8,0:2:0:0:
340,290,134495,1,4,3:2:0:0:
189,337,134817,5,0,3:2:0:0:
189,337,134898,1,0,3:2:0:0:
189,337,134979,2,0,P|170:291|184:224,1,90,12|0,0:2|0:0,0:0:0:0:
358,198,135463,5,8,0:2:0:0:
462,275,135624,2,0,P|469:323|446:369,1,90,8|0,0:2|0:0,0:0:0:0:
316,276,135946,5,8,0:2:0:0:
403,121,136107,2,0,P|436:156|443:207,1,90,8|0,0:2|3:0,0:0:0:0:
311,284,136430,6,0,B|259:330|259:330|194:340|156:287,1,180,8|8,0:2|0:2,0:0:0:0:
184,133,136914,1,8,0:2:0:0:
234,248,137075,1,8,0:2:0:0:
121,365,137237,5,8,0:2:0:0:
89,333,137317,1,8,0:2:0:0:
76,290,137398,1,8,0:2:0:0:
84,247,137478,1,8,0:2:0:0:
110,211,137559,2,0,L|170:221,3,45,8|8|8|8,0:2|0:2|0:2|0:2,0:0:0:0:
228,155,137882,6,0,L|49:128,1,180,6|8,3:2|0:2,0:0:0:0:
260,14,138366,1,0,0:0:0:0:
260,14,138447,1,8,0:0:0:0:
260,14,138528,2,0,P|291:61|291:105,1,90,0|0,3:2|3:2,0:0:0:0:
366,188,138850,2,0,P|335:235|335:279,1,90,8|0,0:2|3:0,0:0:0:0:
487,361,139173,6,0,L|390:347,1,90,2|0,3:2|3:2,0:0:0:0:
247,384,139495,1,8,0:2:0:0:
188,268,139657,1,0,0:0:0:0:
188,268,139737,1,8,0:2:0:0:
188,268,139818,2,0,P|174:218|186:165,1,90,0|0,3:2|3:2,0:0:0:0:
312,65,140141,2,0,L|222:74,1,90,8|8,0:2|0:2,0:0:0:0:
189,52,140382,1,8,0:2:0:0:
189,52,140463,6,0,B|121:45|121:45|89:63|89:63|14:52,1,180,2|8,3:2|0:2,0:0:0:0:
58,211,140947,1,0,3:2:0:0:
185,126,141108,2,0,L|87:138,1,90,2|0,3:2|3:2,0:0:0:0:
9,279,141431,2,0,P|53:298|98:289,1,90,8|0,0:2|3:0,0:0:0:0:
133,268,141673,1,8,3:2:0:0:
133,268,141753,6,0,L|228:274,1,90,2|0,3:2|3:2,0:0:0:0:
352,159,142075,2,0,L|262:164,1,90,8|0,0:2|0:0,0:0:0:0:
362,384,142399,5,8,0:2:0:0:
385,346,142479,1,8,0:2:0:0:
385,300,142560,1,8,0:2:0:0:
357,264,142640,1,8,0:0:0:0:
316,244,142721,2,0,L|300:292,3,45,14|12|14|14,3:3|3:3|3:3|3:3,0:0:0:0:
372,187,143044,6,0,B|424:154|424:154|388:36,1,180,6|8,3:2|0:2,0:0:0:0:
286,117,143528,1,0,3:0:0:0:
286,117,143608,1,8,0:0:0:0:
286,117,143689,2,0,P|241:141|189:131,1,90,6|0,3:2|3:2,0:0:0:0:
80,46,144011,2,0,P|77:112|95:181,1,135,8|8,0:2|0:0,0:0:0:0:
128,208,144334,6,0,P|129:253|115:300,1,90,6|0,3:2|3:2,0:0:0:0:
240,239,144656,2,0,P|285:238|332:252,1,90,8|0,0:2|0:0,0:0:0:0:
368,269,144898,1,8,0:2:0:0:
368,269,144979,2,0,L|462:258,1,90,6|0,3:2|3:2,0:0:0:0:
512,166,145302,2,0,P|516:112|497:78,1,90,10|8,0:2|0:2,0:0:0:0:
467,58,145544,1,8,0:2:0:0:
467,58,145624,6,0,B|284:70,1,180,6|8,3:2|0:2,0:0:0:0:
147,129,146108,1,0,3:0:0:0:
147,129,146189,1,8,0:0:0:0:
147,129,146270,2,0,L|133:33,1,90,0|0,3:2|3:2,0:0:0:0:
253,187,146592,1,8,0:2:0:0:
132,245,146753,1,0,3:0:0:0:
132,245,146834,1,8,0:0:0:0:
132,245,146915,6,0,P|113:295|118:339,1,90,2|0,3:2|3:2,0:0:0:0:
294,384,147237,2,0,P|261:342|220:324,1,90,8|0,0:2|0:0,0:0:0:0:
37,269,147560,5,8,0:2:0:0:
41,223,147640,1,8,0:0:0:0:
61,184,147721,1,8,0:2:0:0:
98,158,147801,1,8,0:0:0:0:
143,152,147882,2,0,L|191:160,3,45,8|8|8|8,0:2|0:2|0:2|0:2,0:0:0:0:
268,174,148205,6,0,P|307:94|292:7,1,180,6|8,3:2|0:2,0:0:0:0:
420,90,148689,1,0,0:0:0:0:
420,90,148770,1,8,0:2:0:0:
420,90,148851,2,0,L|521:101,1,90,0|0,3:2|3:2,0:0:0:0:
444,197,149173,2,0,L|354:206,1,90,8|0,0:2|3:0,0:0:0:0:
275,277,149496,6,0,P|272:334|289:374,1,90,2|0,3:2|3:2,0:0:0:0:
354,205,149818,1,8,0:2:0:0:
185,269,149980,1,0,3:0:0:0:
185,269,150060,1,8,0:2:0:0:
185,269,150141,2,0,L|286:277,1,90,0|0,3:2|3:2,0:0:0:0:
338,125,150463,2,0,L|248:133,1,90,8|8,0:2|0:2,0:0:0:0:
212,157,150705,1,8,0:2:0:0:
212,157,150785,6,0,P|108:165|63:103,1,180,2|8,3:2|0:2,0:0:0:0:
141,0,151270,1,0,3:0:0:0:
141,0,151350,1,8,0:2:0:0:
141,0,151431,2,0,L|153:98,1,90,0|0,3:2|3:2,0:0:0:0:
286,193,151753,1,8,0:2:0:0:
339,61,151915,1,0,0:0:0:0:
339,61,151996,1,8,0:0:0:0:
339,61,152076,6,0,L|243:73,1,90,2|0,3:2|3:2,0:0:0:0:
374,239,152399,2,0,P|390:201|386:143,1,90,8|0,0:2|0:0,0:0:0:0:
420,121,152641,1,8,0:2:0:0:
420,121,152721,2,0,L|526:133,1,90,0|0,3:2|3:2,0:0:0:0:
432,340,153044,1,8,0:2:0:0:
390,356,153124,1,8,0:2:0:0:
344,354,153205,1,8,0:2:0:0:
305,331,153285,1,8,0:0:0:0:
278,294,153366,6,0,L|265:194,1,90,6|0,3:2|0:0,0:0:0:0:
325,46,153689,2,0,P|328:77|319:108,3,45,8|8|8|8,0:2|0:0|0:2|0:0,0:0:0:0:
256,127,154011,6,0,L|164:108,1,90,6|0,3:2|0:0,0:0:0:0:
47,18,154334,1,8,0:2:0:0:
52,62,154414,1,8,0:2:0:0:
57,107,154495,1,8,0:2:0:0:
61,152,154575,1,8,0:2:0:0:
66,197,154657,6,0,L|78:302,1,90,6|0,3:2|0:0,0:0:0:0:
168,345,154979,1,8,0:2:0:0:
199,314,155059,1,8,0:2:0:0:
241,300,155140,1,8,0:2:0:0:
285,307,155220,1,8,0:2:0:0:
321,333,155302,6,0,L|313:391,3,45,14|14|14|14,3:3|3:3|3:3|3:3,0:0:0:0:
410,300,155624,2,12,L|402:243,3,45,14|14|14|14,3:3|3:3|3:3|3:3,3:3:0:0:
442,186,155947,6,0,B|421:135|364:145|364:145|361:192|317:219,1,180,6|8,3:2|0:2,0:0:0:0:
189,123,156431,1,0,0:0:0:0:
189,123,156511,1,8,0:2:0:0:
189,123,156592,2,0,L|292:141,1,90,0|0,3:2|3:2,0:0:0:0:
89,0,156915,2,0,L|104:89,1,90,8|0,0:2|0:0,0:0:0:0:
79,126,157156,1,8,0:0:0:0:
79,126,157237,6,0,P|56:179|64:229,1,90,2|0,3:2|3:2,0:0:0:0:
202,305,157559,1,8,0:2:0:0:
140,189,157721,1,8,0:2:0:0:
140,189,157801,1,8,0:2:0:0:
140,189,157882,2,0,L|127:290,1,90,2|2,3:2|3:2,0:0:0:0:
282,370,158205,5,8,0:2:0:0:
297,328,158285,1,8,0:2:0:0:
295,283,158366,1,8,0:2:0:0:
276,243,158446,1,8,0:2:0:0:
242,213,158527,1,6,0:2:0:0:
404,343,158850,6,0,L|511:356,1,90,8|8,0:2|0:2,0:0:0:0:
365,232,159172,2,0,L|275:242,1,90,8|8,0:2|0:2,0:0:0:0:
453,275,159495,1,8,0:2:0:0:
364,145,159656,1,8,0:2:0:0:
490,90,159817,6,0,P|500:35|496:-9,1,90,8|8,0:2|0:2,0:0:0:0:
306,76,160140,2,0,P|339:107|364:145,1,90,8|8,0:2|0:2,0:0:0:0:
275,242,160463,2,0,L|182:233,1,90,8|8,0:2|0:2,0:0:0:0:
43,114,160785,2,0,L|132:105,1,90,8|8,0:2|0:2,0:0:0:0:
193,319,161108,6,0,P|107:281|110:185,1,180,12|0,0:2|3:2,0:0:0:0:
214,60,161592,2,0,B|230:160|164:135|187:245,1,180,12|0,0:2|3:2,0:0:0:0:
280,350,162075,1,12,0:2:0:0:
280,350,162398,6,0,P|329:360|381:342,1,90,0|0,3:2|3:2,0:0:0:0:
373,276,162721,2,0,P|410:251|425:220,1,72,0|0,3:2|3:2,0:0:0:0:
390,161,163043,2,0,P|396:126|387:100,1,53.9999983520508,0|0,3:2|3:2,0:0:0:0:
350,42,163366,2,0,L|296:36,1,54,0|0,3:2|0:0,0:0:0:0:
233,80,163688,5,4,3:2:0:0:
16,329,181430,5,12,0:2:0:0:
144,357,181592,1,0,0:0:0:0:
99,288,181753,1,0,3:2:0:0:
228,195,182075,6,0,P|182:228|179:295,1,108,8|0,2:2|0:0,0:0:0:0:
251,270,182398,6,0,P|268:323|330:347,1,108,8|0,2:2|0:0,0:0:0:0:
329,271,182721,6,0,P|385:271|427:218,1,108,8|0,2:2|0:0,0:0:0:0:
354,196,183043,6,0,P|371:142|334:86,1,108,8|0,2:2|0:0,0:0:0:0:
291,150,183366,6,0,P|245:116|180:134,1,108,12|0,2:2|0:0,0:0:0:0:
228,195,183688,5,0,3:2:0:0:
329,271,183850,1,0,3:2:0:0:
291,150,184011,1,0,3:2:0:0:
251,270,184172,1,0,3:2:0:0:
354,196,184334,6,0,P|369:141|307:73,1,144,4|0,3:2|3:2,0:0:0:0:
291,150,184817,1,0,3:2:0:0:
263,22,184979,2,0,B|120:4,1,144,8|0,0:2|3:2,0:0:0:0:
56,48,185463,6,0,P|55:92|76:128,1,72,0|0,3:2|3:2,0:0:0:0:
55,193,185785,2,0,P|94:212|135:208,1,72,0|0,3:2|3:2,0:0:0:0:
140,138,186108,1,0,3:2:0:0:
187,255,186269,2,0,P|193:325|154:384,1,144,8|0,0:2|3:2,0:0:0:0:
100,299,186753,1,2,0:2:0:0:
187,255,186914,6,0,L|345:269,1,144,4|0,3:2|3:2,0:0:0:0:
396,306,187398,1,0,3:2:0:0:
467,211,187559,2,0,P|490:144|464:79,1,144,8|0,0:2|3:2,0:0:0:0:
342,122,188043,2,0,P|378:147|425:139,1,72,0|0,3:2|3:2,0:0:0:0:
258,48,188366,2,0,P|250:91|277:130,1,72,0|0,3:2|3:2,0:0:0:0:
342,122,188688,1,0,3:2:0:0:
228,193,188850,2,0,L|84:176,1,144,8|8,0:2|0:2,0:0:0:0:
31,235,189334,1,2,0:2:0:0:
186,271,189495,6,0,P|248:277|309:224,1,144,4|0,3:2|3:2,0:0:0:0:
374,263,189978,1,0,0:0:0:0:
293,147,190140,2,0,L|443:161,1,144,8|0,0:2|3:2,0:0:0:0:
242,223,190624,6,0,P|206:221|175:204,1,72,0|0,3:2|3:2,0:0:0:0:
199,130,190946,2,0,P|185:96|188:61,1,72,0|0,3:2|3:2,0:0:0:0:
253,15,191269,1,0,0:0:0:0:
199,130,191430,2,0,L|55:133,1,144,8|0,0:2|3:2,0:0:0:0:
9,199,191914,1,2,0:2:0:0:
100,342,192075,6,0,P|120:277|78:203,1,144,4|0,3:2|3:2,0:0:0:0:
27,287,192559,1,0,3:2:0:0:
171,384,192720,2,0,L|335:367,1,144,8|0,0:2|3:2,0:0:0:0:
460,270,193204,2,0,P|424:272|397:295,1,72,0|0,3:2|3:2,0:0:0:0:
317,301,193527,2,0,P|304:334|313:368,1,72,0|0,3:2|3:2,0:0:0:0:
392,381,193849,1,0,3:2:0:0:
347,226,194011,6,0,L|272:216,2,72,8|0|2,0:2|3:2|0:2,0:0:0:0:
481,37,194656,6,0,L|353:32,1,108,6|0,3:2|0:0,0:0:0:0:
322,91,194979,2,0,P|298:58|301:10,1,72,0|0,3:2|0:0,0:0:0:0:
393,118,195301,2,0,L|245:129,1,144,0|0,3:2|3:2,0:0:0:0:
190,79,195785,1,0,0:0:0:0:
106,197,195946,6,0,L|265:211,1,144,2|0,3:2|3:2,0:0:0:0:
306,272,196430,1,0,0:0:0:0:
252,338,196592,2,0,P|223:267|274:191,1,144,0|0,3:2|3:2,0:0:0:0:
317,152,197075,1,0,0:0:0:0:
370,217,197237,6,0,L|477:209,1,108,2|0,3:2|0:0,0:0:0:0:
509,131,197559,2,0,L|401:138,1,108,0|0,3:2|0:0,0:0:0:0:
352,76,197882,2,0,P|344:47|361:2,1,72,0|0,3:2|0:0,0:0:0:0:
317,152,198205,2,0,P|233:151|199:123,1,108,0|0,3:2|0:0,0:0:0:0:
171,76,198527,2,0,L|192:227,1,144,2|0,3:2|3:2,0:0:0:0:
80,353,199172,6,0,L|-8:342,1,72,0|0,3:2|0:0,0:0:0:0:
118,275,199495,2,0,P|161:314|165:370,1,108,0|0,3:2|0:0,0:0:0:0:
190,291,199817,6,0,L|330:302,1,121.499996292114,6|0,3:2|0:0,0:0:0:0:
394,206,200140,2,0,L|272:215,1,121.499996292114,0|0,3:2|0:0,0:0:0:0:
208,157,200463,2,0,P|197:118|208:75,1,80.9999975280763,0|0,3:2|0:0,0:0:0:0:
407,113,200785,2,0,L|285:122,1,121.499996292114,0|0,3:2|0:0,0:0:0:0:
250,14,201108,2,0,P|150:27|125:81,1,161.999995056153,2|0,3:2|3:2,0:0:0:0:
87,209,201753,6,0,L|6:199,1,80.9999975280763,0|0,3:2|0:0,0:0:0:0:
136,296,202075,2,0,L|216:286,1,80.9999975280763,0|0,3:2|0:0,0:0:0:0:
276,165,202398,2,0,L|134:149,1,121.499996292114,2|0,3:2|0:0,0:0:0:0:
314,245,202721,2,0,P|351:211|348:121,1,121.499996292114,0|0,3:2|0:0,0:0:0:0:
276,88,203043,6,0,P|264:132|284:174,1,80.9999975280763,0|0,3:2|0:0,0:0:0:0:
412,90,203366,2,0,P|379:57|333:53,1,80.9999975280763,0|0,3:2|0:0,0:0:0:0:
210,216,203688,6,0,P|222:260|202:302,1,80.9999975280763,2|0,3:2|0:0,0:0:0:0:
74,213,204011,2,0,P|106:180|152:176,1,80.9999975280763,2|0,3:2|0:0,0:0:0:0:
297,305,204334,6,0,P|285:349|305:391,1,80.9999975280763,2|0,3:2|0:0,0:0:0:0:
448,313,204656,1,8,0:2:0:0:
448,313,204979,5,2,3:2:0:0:
355,220,205140,2,0,L|275:206,1,80.9999975280763,8|8,0:2|0:2,0:0:0:0:
433,134,205463,1,0,3:0:0:0:
433,134,205543,1,0,3:0:0:0:
433,134,205624,6,0,L|529:118,1,80.9999975280763,8|8,0:2|0:2,0:0:0:0:
377,32,205946,1,0,3:0:0:0:
377,32,206027,1,0,3:0:0:0:
377,32,206108,6,0,P|309:17|215:88,1,180,8|8,0:2|0:2,0:0:0:0:
116,190,206592,1,8,0:0:0:0:
72,41,206753,1,8,0:0:0:0:
203,149,206914,5,8,0:2:0:0:
217,191,206994,1,8,0:2:0:0:
211,235,207075,1,8,0:2:0:0:
184,271,207155,1,8,0:2:0:0:
144,290,207237,2,0,L|90:286,4,45,8|8|8|8|2,0:2|0:2|0:2|0:2|0:2,0:0:0:0:
462,346,209495,5,12,0:0:0:0:
449,247,209656,1,12,0:0:0:0:
351,259,209817,1,12,0:0:0:0:
363,358,209979,1,12,0:0:0:0:
466,35,211430,6,0,P|426:16|369:20,2,90,2|0|0,3:2|3:0|3:2,0:0:0:0:
407,98,212398,1,0,3:0:0:0:
294,16,212721,6,0,L|192:2,1,90,6|0,3:2|3:2,0:0:0:0:
115,71,213205,1,0,0:0:0:0:
115,71,213366,2,0,L|179:65,1,45,0|0,3:2|0:0,0:0:0:0:
212,134,213688,2,0,L|256:138,1,45,0|0,3:2|0:0,0:0:0:0:
145,195,214011,6,0,P|118:255|133:320,1,135.000005149842,6|0,3:2|3:0,0:0:0:0:
301,219,214656,2,0,P|316:283|289:344,1,135.000005149842,6|0,3:2|3:0,0:0:0:0:
223,271,215140,1,0,0:0:0:0:
301,219,215301,6,0,L|404:225,1,90,6|0,3:2|3:2,0:0:0:0:
501,136,215946,2,0,L|398:142,1,90,0|0,3:2|3:2,0:0:0:0:
324,102,216592,6,0,P|314:68|318:41,1,45,6|0,3:2|0:0,0:0:0:0:
228,164,216914,1,8,0:2:0:0:
194,176,216994,1,8,0:2:0:0:
158,175,217075,1,8,0:2:0:0:
126,157,217155,1,8,0:2:0:0:
103,129,217237,6,0,L|95:83,3,45,8|8|8|8,0:2|0:2|0:2|0:2,0:0:0:0:
182,36,217559,2,0,L|174:85,3,45,8|8|8|8,0:2|0:2|0:2|0:2,0:0:0:0:
158,175,217882,6,0,L|142:273,1,90,6|0,3:2|0:0,0:0:0:0:
198,353,218205,1,8,0:2:0:0:
239,369,218285,1,8,0:2:0:0:
284,366,218366,1,8,0:2:0:0:
323,345,218446,1,8,0:2:0:0:
349,308,218527,5,8,0:2:0:0:
375,271,218608,1,8,0:2:0:0:
414,250,218688,1,8,0:2:0:0:
458,247,218769,1,8,0:2:0:0:
500,263,218850,2,0,P|492:292|488:318,3,45,0|0|0|0,3:2|3:2|3:2|3:2,0:0:0:0:
470,163,219172,6,0,B|421:156|392:122|392:122|385:167|345:196,1,180,6|8,3:2|0:2,0:0:0:0:
222,85,219656,1,0,0:0:0:0:
222,85,219736,1,8,0:0:0:0:
222,85,219817,2,0,P|267:84|312:114,1,90,0|0,3:2|3:2,0:0:0:0:
182,227,220140,2,0,P|158:188|162:134,1,90,8|0,0:2|0:0,0:0:0:0:
301,270,220463,6,0,L|257:275,1,45,8|0,3:2|3:2,0:0:0:0:
192,319,220624,2,0,L|148:313,1,45,0|0,3:2|3:2,0:0:0:0:
93,264,220785,1,8,0:2:0:0:
19,384,221108,6,0,L|0:295,1,90,2|2,0:2|0:2,0:0:0:0:
0,0,221753,6,0,P|16:48|23:93,1,90,12|0,0:2|3:2,0:0:0:0:
163,54,222075,2,0,P|148:102|128:143,1,90,8|0,0:2|3:2,0:0:0:0:
78,295,222398,5,8,0:2:0:0:
40,164,222559,1,0,3:2:0:0:
45,365,222721,5,8,0:2:0:0:
133,228,222882,1,0,3:2:0:0:
133,228,222963,1,0,0:0:0:0:
133,228,223043,6,0,P|181:223|234:245,1,90,10|0,0:2|3:2,0:0:0:0:
391,323,223366,1,8,0:2:0:0:
214,367,223527,1,0,3:2:0:0:
341,222,223688,6,0,L|446:209,1,90,8|0,0:2|3:2,0:0:0:0:
269,128,224011,2,0,L|179:116,1,90,8|0,0:2|3:2,0:0:0:0:
148,149,224253,1,0,3:2:0:0:
148,149,224334,6,0,P|119:201|129:259,1,107.999996704102,10|0,0:2|0:0,0:0:0:0:
194,372,224656,1,8,0:2:0:0:
218,219,224817,1,0,3:2:0:0:
27,308,224979,6,0,L|134:318,1,107.999996704102,8|0,0:2|0:0,0:0:0:0:
271,380,225301,2,0,L|378:369,1,107.999996704102,8|0,0:2|3:2,0:0:0:0:
424,380,225543,1,0,3:2:0:0:
424,380,225624,2,0,P|452:332|444:264,1,107.999996704102,10|0,0:2|3:2,0:0:0:0:
510,209,225946,2,0,P|495:155|442:112,1,107.999996704102,8|0,0:2|3:2,0:0:0:0:
398,40,226269,6,0,L|287:51,1,107.999996704102,8|0,0:2|3:2,0:0:0:0:
213,133,226592,2,0,L|102:122,1,107.999996704102,8|0,0:2|3:2,0:0:0:0:
74,152,226834,1,0,3:2:0:0:
74,152,226914,6,0,P|78:200|87:251,1,90,10|0,0:2|0:0,0:0:0:0:
187,327,227237,1,8,0:2:0:0:
227,344,227317,1,8,0:2:0:0:
272,340,227398,1,8,0:2:0:0:
309,315,227478,1,8,0:2:0:0:
330,276,227559,6,0,L|241:268,1,90,6|0,0:2|0:0,0:0:0:0:
369,130,227882,2,0,L|377:184,3,45,8|8|8|8,0:2|0:2|0:2|0:2,0:0:0:0:
454,207,228205,6,0,L|466:99,1,90,6|0,0:2|0:0,0:0:0:0:
402,23,228527,1,8,0:2:0:0:
357,16,228608,1,8,0:2:0:0:
314,28,228688,1,8,0:2:0:0:
280,56,228769,1,8,0:2:0:0:
260,96,228850,6,0,L|277:201,1,90,6|0,0:2|0:0,0:0:0:0:
214,312,229172,1,8,0:2:0:0:
169,319,229253,1,8,0:2:0:0:
126,307,229333,1,8,0:2:0:0:
92,279,229414,1,8,0:2:0:0:
72,239,229495,6,0,L|89:134,1,90,6|0,0:2|0:0,0:0:0:0:
44,27,229817,6,0,L|0:36,3,45,8|8|8|8,0:2|0:2|0:2|0:2,0:0:0:0:
131,81,230140,2,0,L|175:71,3,45,8|10|10|10,2:2|0:2|0:2|0:2,0:0:0:0:
286,112,230463,1,8,2:2:0:0:
329,121,230543,1,10,0:2:0:0:
373,113,230624,1,10,0:2:0:0:
409,86,230704,1,10,3:2:0:0:
430,47,230785,6,0,L|446:0,3,45,8|10|10|10,2:2|3:2|3:2|3:2,0:0:0:0:
488,167,231108,2,0,L|504:120,3,45,8|10|10|10,2:2|3:2|3:2|3:2,0:0:0:0:
430,270,231430,5,8,3:3:0:0:
390,290,231510,1,8,3:3:0:0:
345,293,231591,1,8,3:3:0:0:
304,277,231671,1,8,3:3:0:0:
273,245,231752,1,8,3:2:0:0:
240,213,231834,1,2,3:2:0:0:
199,196,231914,1,2,3:2:0:0:
154,200,231995,1,2,3:2:0:0:
115,220,232075,6,0,B|71:179|71:179|48:115|96:68,1,180,6|8,3:2|0:0,0:0:0:0:
212,9,232559,1,0,0:0:0:0:
212,9,232640,1,8,0:0:0:0:
212,9,232721,2,0,L|306:16,1,90,0|0,3:2|3:2,0:0:0:0:
393,142,233043,2,0,L|303:148,1,90,8|0,0:0|0:0,0:0:0:0:
200,240,233366,6,0,P|172:179|190:116,1,135,6|0,3:2|0:0,0:0:0:0:
255,173,233688,2,0,L|225:332,1,148.50000453186,4|0,3:2|0:0,0:0:0:0:
293,371,234011,2,0,B|394:348|368:401|457:381,1,161.999995056153,4|0,3:2|0:0,0:0:0:0:
498,319,234334,2,0,P|469:251|424:309,1,175.499991966248,4|0,3:2|0:0,0:0:0:0:
450,382,234656,1,6,3:2:0:0:
512,168,234979,5,8,0:2:0:0:
336,213,235140,1,8,0:2:0:0:
449,126,235301,5,8,0:2:0:0:
295,76,235463,1,8,0:2:0:0:
405,0,235624,1,8,0:2:0:0:
360,139,235785,1,8,0:2:0:0:
219,20,235946,6,0,L|121:27,1,90,10|8,0:2|0:2,0:0:0:0:
89,125,236269,2,0,L|-9:132,1,90,8|8,0:2|0:2,0:0:0:0:
114,238,236592,2,0,L|212:245,1,90,8|8,0:2|0:2,0:0:0:0:
244,343,236915,2,0,L|342:350,1,90,8|8,0:2|0:2,0:0:0:0:
432,196,237237,6,0,B|381:168|381:168|309:184|302:252,1,180,6|0,3:2|3:2,0:0:0:0:
463,341,237721,2,0,P|492:298|491:245,1,90,10|0,0:2|3:2,0:0:0:0:
432,196,238043,1,0,3:2:0:0:
489,51,238205,6,0,L|501:140,1,90,12|0,0:2|3:2,0:0:0:0:
428,203,238527,1,2,3:2:0:0:
324,98,238688,2,0,B|215:72|249:134|138:105,1,180,12|0,0:2|3:2,0:0:0:0:
1,239,239172,1,8,0:2:0:0:
23,199,239252,1,0,3:2:0:0:
61,176,239333,1,0,3:2:0:0:
105,171,239413,1,0,3:2:0:0:
147,187,239494,1,12,0:2:0:0:
84,349,239817,6,0,P|77:306|90:260,1,90,14|0,0:2|0:0,0:0:0:0:
266,312,240139,2,0,L|177:318,1,90,8|0,0:2|3:2,0:0:0:0:
338,243,240462,1,8,0:2:0:0:
298,384,240623,1,0,3:2:0:0:
411,304,240784,5,8,0:2:0:0:
293,156,240946,2,0,P|242:233|267:314,1,180,8|8,0:2|0:2,0:0:0:0:
378,168,241430,2,0,P|422:148|475:152,1,90,8|0,0:2|3:2,0:0:0:0:
490,119,241671,1,0,3:2:0:0:
490,119,241752,6,0,L|507:16,1,90,8|0,0:2|3:2,0:0:0:0:
290,0,242075,1,8,0:2:0:0:
396,88,242236,1,0,3:2:0:0:
210,53,242397,6,0,P|158:55|120:78,1,90,14|0,0:2|3:2,0:0:0:0:
175,247,242720,2,0,P|200:200|199:156,1,90,8|0,0:2|3:2,0:0:0:0:
88,273,243042,1,8,0:2:0:0:
236,313,243204,1,0,3:2:0:0:
92,181,243365,5,8,0:2:0:0:
286,235,243527,2,0,B|352:224|352:224|394:237|394:237|462:228,1,180,8|8,0:2|0:2,0:0:0:0:
512,40,244010,2,0,P|467:19|407:28,1,90,8|0,0:2|3:2,0:0:0:0:
398,55,244252,1,0,3:2:0:0:
398,55,244333,2,0,L|407:146,1,90,8|0,0:2|3:2,0:0:0:0:
193,79,244655,1,10,0:2:0:0:
310,3,244816,1,0,3:2:0:0:
289,158,244978,6,0,L|277:247,1,90,14|0,0:2|3:2,0:0:0:0:
122,136,245301,2,0,L|133:226,1,90,8|0,0:2|3:2,0:0:0:0:
180,377,245623,1,8,0:2:0:0:
277,247,245784,1,0,3:2:0:0:
131,305,245946,5,8,0:2:0:0:
280,365,246107,2,0,B|385:338|359:402|464:377,1,180,8|8,0:2|0:2,0:0:0:0:
512,178,246591,2,0,P|482:220|488:281,1,90,8|0,0:2|3:2,0:0:0:0:
494,300,246833,1,0,3:2:0:0:
494,300,246913,2,0,L|383:287,1,90,8|0,0:2|3:2,0:0:0:0:
239,214,247236,1,8,0:2:0:0:
399,175,247397,1,8,0:2:0:0:
53,13,247721,5,8,0:2:0:0:
174,97,247882,2,0,L|277:82,1,90,8|0,0:2|3:0,0:0:0:0:
295,52,248124,1,0,3:0:0:0:
295,52,248205,5,8,0:2:0:0:
176,216,248366,2,0,L|73:201,1,90,8|0,0:2|3:0,0:0:0:0:
55,171,248608,1,0,3:0:0:0:
55,171,248688,5,8,0:2:0:0:
185,339,248850,2,0,L|288:324,1,90,8|0,0:2|3:0,0:0:0:0:
306,294,249092,1,0,3:0:0:0:
306,294,249173,1,8,0:2:0:0:
258,179,249334,2,0,L|353:192,1,90,8|0,0:2|0:0,0:0:0:0:
512,359,249656,5,8,0:2:0:0:
365,383,249818,1,8,0:2:0:0:
417,243,249979,1,8,0:2:0:0:
