osu file format v14

[General]
AudioFilename: audio.mp3
AudioLeadIn: 0
PreviewTime: 69414
Countdown: 0
SampleSet: Soft
StackLeniency: 0.6
Mode: 0
LetterboxInBreaks: 0
WidescreenStoryboard: 1

[Editor]
Bookmarks: 15965,28545,34997,36610,45642,54674,57255,59728,64997,70158,77900,80481,88116
DistanceSpacing: 0.5
BeatDivisor: 4
GridSize: 32
TimelineZoom: 2.3

[Metadata]
Title:ReI
TitleUnicode:ReI
Artist:THE ORAL CIGARETTES
ArtistUnicode:THE ORAL CIGARETTES
Creator:_tranquility
Version:Onlybiscuit and Reform's Extra
Source:
Tags:Serizawa Haruki Jack J_a_c_k Cami Gottagof4st smozit Onlybiscuit brotarks Kujinn Reform Kisses and Kills rock japanese cut version
BeatmapID:1876558
BeatmapSetID:889058

[Difficulty]
HPDrainRate:5.5
CircleSize:3.8
OverallDifficulty:8.8
ApproachRate:9.2
SliderMultiplier:1.7
SliderTickRate:1

[Events]
//Background and Video events
0,0,"cig.jpg",0,0
//Break Periods
//Storyboard Layer 0 (Background)
//Storyboard Layer 1 (Fail)
//Storyboard Layer 2 (Pass)
//Storyboard Layer 3 (Foreground)
//Storyboard Sound Samples

[TimingPoints]
-22,468.75,4,2,1,70,1,0
15866,322.58064516129,4,2,1,100,1,0
26188,-125,4,2,1,100,0,0
26267,-125,4,2,1,70,0,0
54682,-100,4,2,1,70,0,0
57263,-83.3333333333333,4,2,1,70,0,0
59736,-76.9230769230769,4,2,1,100,0,1
80382,-76.9230769230769,4,2,1,90,0,1
80489,-100,4,2,1,90,0,0

[Colours]
Combo1 : 72,72,255
Combo2 : 182,182,109
Combo3 : 211,150,22

[HitObjects]
38,85,15866,6,0,L|128:67,1,85,10|0,0:0|1:0,0:0:0:0:
253,205,16188,2,0,L|163:187,1,85,10|0,0:2|1:0,0:0:0:0:
307,73,16511,2,0,L|397:55,1,85,10|0,0:2|1:0,0:0:0:0:
275,228,16833,1,14,0:2:0:0:
202,31,16995,1,10,1:2:0:0:
374,190,17156,6,0,P|389:232|398:286,1,85,2|14,0:0|0:2,0:0:0:0:
287,75,17478,1,10,1:2:0:0:
230,286,17640,1,0,1:0:0:0:
230,286,17720,1,0,1:0:0:0:
230,286,17801,2,0,P|238:244|252:204,1,85,12|0,0:0|1:0,0:0:0:0:
81,109,18124,2,0,P|95:148|103:190,1,85,12|0,0:0|1:0,0:0:0:0:
58,258,18365,1,0,1:0:0:0:
58,258,18446,6,0,P|93:235|139:236,1,85,14|0,1:2|1:0,0:0:0:0:
306,309,18769,2,0,P|264:308|229:285,1,85,10|0,0:2|1:0,0:0:0:0:
374,190,19091,2,0,P|415:190|450:213,1,85,10|0,0:2|1:0,0:0:0:0:
296,340,19414,1,14,0:2:0:0:
244,141,19575,1,10,1:2:0:0:
429,294,19736,6,0,P|470:293|505:270,1,85,2|14,0:0|0:2,0:0:0:0:
389,112,20059,1,10,1:2:0:0:
298,260,20220,1,0,1:0:0:0:
298,260,20301,1,0,1:0:0:0:
298,260,20382,2,0,P|256:259|221:236,1,85,12|0,0:0|1:0,0:0:0:0:
187,85,20704,2,0,P|222:61|264:60,1,85,12|0,0:0|1:0,0:0:0:0:
298,86,20946,1,0,1:0:0:0:
298,86,21027,6,0,P|284:125|276:167,1,85,14|0,1:2|1:0,0:0:0:0:
191,316,21349,2,0,P|183:274|168:234,1,85,10|0,0:2|1:0,0:0:0:0:
70,75,21672,2,0,P|56:114|48:156,1,85,10|0,0:2|1:0,0:0:0:0:
88,350,21995,1,14,0:2:0:0:
170,162,22156,1,10,1:2:0:0:
67,323,22317,6,0,P|59:281|44:241,1,85,2|14,0:0|0:2,0:0:0:0:
196,359,22640,1,10,1:2:0:0:
306,227,22801,1,0,1:0:0:0:
306,227,22882,1,0,1:0:0:0:
306,227,22962,2,0,P|359:204|396:203,1,85,12|0,0:0|1:0,0:0:0:0:
484,354,23285,2,0,P|442:348|404:329,1,85,12|0,0:0|1:0,0:0:0:0:
373,315,23527,1,0,1:0:0:0:
373,315,23607,6,0,P|380:273|395:233,1,85,14|0,1:2|1:0,0:0:0:0:
247,118,23930,2,0,P|261:157|268:199,1,85,10|0,0:2|1:0,0:0:0:0:
409,82,24253,2,0,P|415:40|430:0,1,85,10|0,0:2|1:0,0:0:0:0:
345,184,24575,1,14,0:2:0:0:
263,29,24736,1,10,1:2:0:0:
176,187,24898,6,0,P|157:197|137:204,1,42.5,2|2,0:0|0:0,0:0:0:0:
328,83,25059,1,14,0:2:0:0:
58,26,25220,2,0,P|72:65|79:107,1,85,10|0,1:2|0:0,0:0:0:0:
7,227,25543,1,14,1:2:0:0:
32,212,25624,1,8,0:0:0:0:
60,206,25704,1,10,0:2:0:0:
89,211,25785,1,10,0:0:0:0:
114,225,25865,2,0,L|132:272,1,42.5,2|8,1:2|1:3,0:0:0:0:
237,352,26027,2,0,L|252:312,1,42.5,8|4,0:3|0:3,0:0:0:0:
335,205,26188,6,0,B|399:214|373:263|456:288,2,136,6|8|2,1:2|0:0|1:2,0:0:0:0:
250,162,26995,1,0,1:0:0:0:
395,43,27156,2,0,P|440:46|475:71,1,68,8|0,0:0|0:0,0:0:0:0:
335,205,27478,6,0,L|317:64,1,136,2|8,1:2|0:0,0:0:0:0:
247,12,27962,1,2,0:0:0:0:
216,136,28124,1,2,1:2:0:0:
216,136,28285,1,0,1:0:0:0:
94,34,28446,2,0,P|63:20|29:20,1,68,8|0,0:0|0:0,0:0:0:0:
122,212,28769,6,0,P|196:184|215:123,1,136,2|8,1:2|0:0,0:0:0:0:
123,115,29253,1,0,0:0:0:0:
211,37,29414,1,0,1:2:0:0:
211,37,29575,1,2,1:2:0:0:
318,147,29736,2,0,P|329:183|334:221,1,68,10|2,0:0|0:0,0:0:0:0:
122,212,30059,6,0,B|144:188|144:188|253:230,1,136,0|8,1:2|0:0,0:0:0:0:
215,135,30543,1,0,0:0:0:0:
330,210,30704,1,2,1:2:0:0:
330,210,30865,1,0,1:0:0:0:
176,280,31027,2,0,P|141:299|98:291,1,68,10|2,0:0|0:2,0:0:0:0:
105,75,31349,6,0,L|124:209,1,136,6|8,1:2|0:0,0:0:0:0:
176,280,31833,1,2,0:0:0:0:
45,258,31995,1,2,1:2:0:0:
45,258,32156,1,0,1:0:0:0:
152,152,32317,2,0,P|187:133|230:141,1,68,8|0,0:0|0:0,0:0:0:0:
306,285,32640,6,0,P|242:279|204:216,1,136,2|8,1:2|0:0,0:0:0:0:
291,194,33124,1,0,0:0:0:0:
392,316,33285,1,2,1:2:0:0:
392,316,33446,1,0,1:0:0:0:
468,178,33607,2,0,P|488:126|491:101,1,68,10|0,0:0|0:0,0:0:0:0:
276,58,33930,6,0,B|339:59|320:106|400:120,1,136,2|10,1:2|0:0,0:0:0:0:
416,38,34414,1,2,0:0:0:0:
468,178,34575,1,0,1:2:0:0:
468,178,34736,1,0,1:0:0:0:
297,121,34898,2,0,P|282:90|275:57,1,68,10|2,0:0|0:0,0:0:0:0:
366,194,35220,6,0,P|299:224|237:191,1,136,2|2,1:2|1:2,0:0:0:0:
173,68,35704,1,8,0:0:0:0:
110,192,35865,2,0,P|95:223|88:256,1,68,2|2,1:2|0:2,0:0:0:0:
267,264,36188,2,0,P|259:230|245:200,1,68,2|8,1:2|0:0,0:0:0:0:
112,333,36511,6,0,P|179:363|241:330,1,136,6|8,1:2|0:0,0:0:0:0:
176,259,36995,1,0,0:0:0:0:
317,328,37156,1,2,1:2:0:0:
232,339,37317,1,0,1:0:0:0:
361,246,37478,2,0,P|389:271|405:307,1,68,8|0,0:0|0:0,0:0:0:0:
222,180,37801,6,0,B|148:183|164:137|86:145,1,136,2|8,1:2|0:0,0:0:0:0:
26,219,38285,1,2,0:0:0:0:
31,66,38446,1,2,1:2:0:0:
93,144,38607,1,0,1:0:0:0:
202,45,38769,2,0,P|229:24|261:15,1,68,8|0,0:0|0:0,0:0:0:0:
222,180,39091,6,0,L|202:41,1,136,2|8,1:2|0:0,0:0:0:0:
302,124,39575,1,0,0:0:0:0:
392,27,39736,1,0,1:2:0:0:
294,94,39898,1,2,1:2:0:0:
453,154,40059,2,0,P|485:163|512:183,1,68,10|2,0:0|0:0,0:0:0:0:
313,268,40382,6,0,B|336:245|336:245|452:237,1,136,2|8,1:2|0:0,0:0:0:0:
369,166,40865,1,0,0:0:0:0:
404,329,41027,1,2,1:2:0:0:
439,237,41188,1,0,1:0:0:0:
306,354,41349,2,0,P|273:344|246:324,1,68,10|2,0:0|0:2,0:0:0:0:
275,137,41672,6,0,L|312:269,1,136,6|8,1:2|0:0,0:0:0:0:
369,166,42156,1,2,0:0:0:0:
217,226,42317,1,2,1:2:0:0:
275,137,42478,1,0,1:0:0:0:
133,82,42640,2,0,L|128:159,1,68,8|0,0:0|0:0,0:0:0:0:
331,66,42962,6,0,P|267:44|210:80,1,136,2|8,1:2|0:0,0:0:0:0:
275,137,43446,1,2,0:0:0:0:
133,82,43607,1,2,1:2:0:0:
212,77,43769,1,0,1:0:0:0:
124,217,43930,2,0,L|128:149,1,68,10|0,0:0|0:0,0:0:0:0:
122,320,44253,6,0,P|58:303|30:243,1,136,2|10,1:2|0:0,0:0:0:0:
124,217,44736,1,2,0:0:0:0:
214,346,44898,1,0,1:2:0:0:
122,320,45059,1,0,1:0:0:0:
203,186,45220,2,0,L|207:256,1,68,14|2,0:0|0:0,0:0:0:0:
47,120,45543,5,14,1:2:0:0:
193,46,45704,1,8,0:0:0:0:
193,46,45785,1,8,0:0:0:0:
193,46,45865,1,8,0:0:0:0:
124,217,46027,1,8,0:0:0:0:
84,44,46188,2,0,P|67:28|48:17,1,34,0|8,1:0|0:3,0:0:0:0:
122,141,46349,2,0,P|130:160|137:186,1,34,8|8,0:3|0:3,0:0:0:0:
193,46,46511,2,0,P|198:29|204:14,1,34,4|4,1:3|0:3,0:0:0:0:
242,149,46672,2,0,P|253:161|267:170,1,34,4|4,0:3|0:3,0:0:0:0:
390,30,46833,5,6,1:2:0:0:
277,77,46995,1,2,1:2:0:0:
411,163,47156,2,0,P|423:197|433:241,1,68,8|4,0:0|0:3,0:0:0:0:
409,268,47398,1,4,0:3:0:0:
409,268,47478,2,0,P|396:302|387:346,1,68,2|2,1:2|1:2,0:0:0:0:
294,202,47801,1,8,0:0:0:0:
230,321,47962,6,0,P|221:287|210:256,1,68,2|0,1:2|1:0,0:0:0:0:
122,141,48285,2,0,P|110:172|102:205,1,68,2|8,1:2|0:0,0:0:0:0:
48,344,48607,1,4,0:3:0:0:
48,344,48688,1,4,0:3:0:0:
48,344,48769,1,0,1:2:0:0:
4,232,48930,1,2,1:2:0:0:
163,310,49091,2,0,P|217:320|247:320,1,68,10|0,0:0|0:0,0:0:0:0:
122,141,49414,6,0,P|110:172|102:205,1,68,6|0,1:2|1:0,0:0:0:0:
69,66,49736,1,8,0:0:0:0:
213,161,49898,2,0,P|225:192|233:225,1,68,4|0,0:3|1:0,0:0:0:0:
289,78,50220,1,0,1:0:0:0:
122,141,50382,1,8,0:0:0:0:
205,41,50543,1,2,1:2:0:0:
310,183,50704,5,0,1:0:0:0:
310,183,50865,1,0,1:0:0:0:
397,56,51027,2,0,P|453:31|468:29,1,68,10|4,0:0|0:3,0:0:0:0:
496,53,51269,1,4,0:3:0:0:
496,53,51349,2,0,P|486:89|482:138,1,68,2|0,1:2|1:0,0:0:0:0:
380,216,51672,2,0,L|358:180,1,34,8|8,0:0|0:0,0:0:0:0:
287,83,51833,2,0,L|269:112,1,34,10|8,0:0|0:0,0:0:0:0:
202,248,51995,5,4,1:2:0:0:
122,141,52156,1,0,1:0:0:0:
0,305,52317,2,0,P|38:281|71:277,1,68,8|4,0:0|0:3,0:0:0:0:
97,290,52559,1,4,0:3:0:0:
97,290,52640,2,0,P|135:314|168:318,1,68,2|2,1:2|1:2,0:0:0:0:
289,201,52962,1,8,0:0:0:0:
359,353,53124,6,0,P|369:316|384:280,1,68,2|0,1:2|1:0,0:0:0:0:
268,136,53446,2,0,P|280:167|288:200,1,68,2|8,1:2|0:0,0:0:0:0:
464,96,53769,1,4,0:3:0:0:
464,96,53849,1,4,0:3:0:0:
464,96,53930,2,0,P|430:69|391:62,1,68,0|2,1:2|1:2,0:0:0:0:
210,102,54253,2,0,P|244:129|283:136,1,68,8|0,0:0|0:0,0:0:0:0:
303,105,54495,1,8,0:0:0:0:
303,105,54575,6,0,P|311:61|325:26,1,68,6|0,1:2|1:0,0:0:0:0:
153,166,54898,2,0,P|175:220|186:277,1,85,10|0,0:0|1:2,0:0:0:0:
167,272,55140,1,10,0:0:0:0:
167,272,55220,1,0,1:2:0:0:
210,102,55382,1,0,1:0:0:0:
47,206,55543,2,0,P|29:245|21:286,1,85,10|0,0:0|0:0,0:0:0:0:
15,333,55785,1,8,0:0:0:0:
15,333,55865,6,0,P|71:316|101:318,1,85,2|0,1:2|1:0,0:0:0:0:
261,363,56188,2,0,P|218:362|179:347,1,85,8|0,0:0|0:0,0:0:0:0:
267,192,56511,1,8,0:0:0:0:
267,192,56591,1,8,0:0:0:0:
267,192,56672,1,0,1:0:0:0:
386,311,56833,2,0,P|399:279|405:219,1,85,4|0,1:0|0:0,0:0:0:0:
233,73,57156,5,6,1:2:0:0:
436,143,57317,1,0,1:2:0:0:
260,251,57478,1,2,1:2:0:0:
318,53,57640,5,6,1:2:0:0:
383,258,57801,1,0,1:2:0:0:
181,176,57962,1,2,1:2:0:0:
417,108,58124,5,10,0:0:0:0:
325,321,58285,1,8,0:0:0:0:
144,105,58446,5,2,1:2:0:0:
144,105,58527,1,0,1:0:0:0:
144,105,58607,2,0,L|131:23,1,50.9999984436036,12|0,0:0|0:0,0:0:0:0:
100,225,58769,1,8,0:0:0:0:
230,113,58930,1,0,0:0:0:0:
371,318,59091,1,8,0:0:0:0:
327,343,59172,1,8,0:0:0:0:
277,340,59253,1,10,0:0:0:0:
238,309,59333,1,8,0:0:0:0:
222,261,59414,2,0,L|236:190,3,50.9999984436036,8|8|8|8,0:0|0:0|0:0|0:0,0:0:0:0:
305,127,59736,6,0,P|358:104|429:103,1,110.499994941712,6|0,1:2|1:0,0:0:0:0:
317,320,60059,2,0,P|262:315|211:293,1,110.499994941712,8|0,0:0|0:0,0:0:0:0:
181,268,60301,1,8,0:0:0:0:
181,268,60382,2,0,P|174:199|162:112,1,110.499994941712,2|0,1:2|1:0,0:0:0:0:
335,76,60704,2,0,P|328:130|322:185,1,110.499994941712,8|0,0:0|0:0,0:0:0:0:
200,50,61027,6,0,P|139:45|78:91,1,110.499994941712,2|0,1:2|1:0,0:0:0:0:
45,182,61349,1,10,0:0:0:0:
252,121,61511,1,0,0:0:0:0:
252,121,61591,1,8,0:0:0:0:
252,121,61672,2,0,P|313:116|374:162,1,110.499994941712,2|0,1:2|1:0,0:0:0:0:
451,286,61995,1,12,0:0:0:0:
454,49,62156,5,8,0:0:0:0:
454,49,62236,1,8,0:0:0:0:
454,49,62317,2,0,P|445:142|439:189,1,110.499994941712,6|0,1:2|1:0,0:0:0:0:
308,337,62640,2,0,P|301:282|296:227,1,110.499994941712,8|0,0:0|0:0,0:0:0:0:
147,63,62962,1,2,1:2:0:0:
371,146,63124,1,0,1:0:0:0:
166,267,63285,1,8,0:0:0:0:
249,45,63446,5,2,0:0:0:0:
249,45,63527,1,8,0:0:0:0:
249,45,63607,2,0,P|241:117|235:176,1,110.499994941712,2|0,1:2|1:2,0:0:0:0:
48,267,63930,2,0,P|90:242|174:266,1,110.499994941712,10|0,0:0|0:0,0:0:0:0:
301,346,64253,1,8,1:2:0:0:
352,365,64333,1,8,0:0:0:0:
405,351,64414,1,8,0:0:0:0:
442,309,64495,1,8,0:0:0:0:
447,254,64575,2,0,L|454:183,1,55.2499974708558,8|8,0:3|0:3,0:0:0:0:
350,104,64736,5,4,0:3:0:0:
350,104,64817,1,4,0:3:0:0:
350,104,64898,6,0,B|222:96|286:171|129:167,1,220.999989883423,6|10,1:2|0:0,0:0:0:0:
8,114,65382,1,2,0:2:0:0:
8,114,65462,1,8,0:0:0:0:
8,114,65543,2,0,P|19:176|27:252,1,110.499994941712,6|0,1:2|1:0,0:0:0:0:
163,158,65865,1,8,0:0:0:0:
83,327,66027,1,0,0:0:0:0:
171,137,66188,6,0,P|242:140|287:182,1,110.499994941712,6|0,1:2|1:0,0:0:0:0:
435,266,66511,2,0,P|364:269|319:311,1,110.499994941712,10|0,0:0|0:0,0:0:0:0:
307,318,66753,1,8,0:0:0:0:
307,318,66833,1,6,1:2:0:0:
468,158,66995,1,0,1:0:0:0:
403,361,67156,1,10,0:0:0:0:
276,187,67317,5,8,0:0:0:0:
276,187,67398,1,8,0:0:0:0:
276,187,67478,2,0,P|266:116|255:47,1,110.499994941712,6|0,1:2|1:0,0:0:0:0:
210,259,67801,1,8,0:0:0:0:
353,120,67962,1,2,0:0:0:0:
353,120,68043,1,8,0:0:0:0:
353,120,68124,2,0,P|405:95|483:108,1,110.499994941712,2|0,1:2|1:0,0:0:0:0:
330,281,68446,1,8,0:0:0:0:
228,126,68607,1,2,0:0:0:0:
86,273,68769,5,8,0:3:0:0:
86,273,68849,1,8,0:3:0:0:
86,273,68930,2,0,L|77:340,2,55.2499974708558,4|4|4,0:3|0:3|1:2,0:0:0:0:
324,109,70059,5,6,1:2:0:0:
128,32,70220,1,2,2:0:0:0:
407,45,70382,5,2,1:2:0:0:
169,148,70543,1,2,2:0:0:0:
386,234,70704,5,14,1:2:0:0:
241,44,70865,1,2,2:0:0:0:
247,309,71027,5,8,1:2:0:0:
385,120,71188,1,0,1:0:0:0:
168,237,71349,6,0,P|110:245|47:252,1,110.499994941712,6|2,1:2|2:0,0:0:0:0:
351,307,71672,2,0,P|409:315|472:322,1,110.499994941712,2|2,1:2|2:0,0:0:0:0:
183,346,71995,2,0,P|128:353|73:359,1,110.499994941712,14|2,1:2|2:0,0:0:0:0:
336,185,72317,1,8,1:2:0:0:
115,76,72478,5,2,2:0:0:0:
115,76,72559,1,2,0:0:0:0:
115,76,72640,1,6,1:2:0:0:
268,261,72801,1,2,2:0:0:0:
347,69,72962,5,2,1:2:0:0:
98,146,73124,1,2,2:0:0:0:
347,271,73285,5,14,1:2:0:0:
264,29,73446,1,2,2:0:0:0:
104,253,73607,5,8,1:2:0:0:
360,137,73769,1,2,2:0:0:0:
360,137,73849,1,0,1:0:0:0:
360,137,73930,2,0,P|349:203|342:258,1,110.499994941712,6|2,1:2|2:0,0:0:0:0:
164,367,74253,2,0,P|156:312|147:257,1,110.499994941712,2|2,1:2|2:0,0:0:0:0:
273,119,74575,1,14,1:2:0:0:
201,322,74736,1,2,2:0:0:0:
67,200,74898,5,8,0:0:0:0:
65,186,74978,1,0,1:0:0:0:
64,172,75059,1,0,1:0:0:0:
62,158,75140,1,0,1:0:0:0:
61,142,75220,6,0,B|170:112|127:187|255:149,1,165.749992412568,6|0,1:2|0:0,0:0:0:0:
293,98,75543,2,0,P|304:58|312:16,1,55.2499974708558,10|8,0:0|0:0,0:0:0:0:
390,157,75704,5,10,0:0:0:0:
390,157,75785,1,8,0:0:0:0:
390,157,75865,2,0,P|401:243|434:338,1,165.749992412568,6|0,1:2|0:0,0:0:0:0:
358,362,76188,2,0,P|319:348|289:341,1,55.2499974708558,10|8,0:0|0:0,0:0:0:0:
151,331,76349,2,0,P|177:323|203:313,1,55.2499974708558,8|8,0:0|0:0,0:0:0:0:
259,197,76511,6,0,P|230:143|124:185,1,165.749992412568,6|0,1:2|0:0,0:0:0:0:
88,234,76833,2,0,P|83:275|79:310,3,55.2499974708558,10|8|8|8,0:0|0:0|0:0|0:0,0:0:0:0:
196,243,77156,2,0,B|305:231|232:178|351:169,1,165.749992412568,6|0,1:2|0:0,0:0:0:0:
372,60,77478,1,10,0:0:0:0:
346,48,77559,1,8,0:0:0:0:
318,43,77640,1,8,0:0:0:0:
290,44,77720,1,8,0:0:0:0:
265,56,77801,6,0,P|260:118|252:189,1,110.499994941712,6|0,1:2|0:0,0:0:0:0:
335,343,78124,1,10,0:0:0:0:
362,342,78204,1,8,0:0:0:0:
387,331,78285,1,10,0:0:0:0:
407,312,78365,1,8,0:0:0:0:
420,287,78446,1,10,0:2:0:0:
427,260,78527,1,8,0:0:0:0:
428,232,78607,1,8,0:0:0:0:
424,204,78688,1,8,0:0:0:0:
412,178,78769,1,8,0:0:0:0:
393,157,78849,1,8,0:0:0:0:
369,141,78930,1,10,0:0:0:0:
341,138,79011,1,8,0:0:0:0:
313,142,79091,6,0,P|285:153|250:161,3,55.2499974708558,10|8|10|8,0:0|0:0|0:0|0:0,0:0:0:0:
164,288,79414,2,0,P|136:277|101:269,3,55.2499974708558,10|8|10|8,0:0|0:0|0:0|0:0,0:0:0:0:
74,162,79736,2,0,P|66:112|64:75,1,55.2499974708558,8|8,1:3|0:3,0:0:0:0:
208,251,79898,2,0,P|204:278|199:305,1,55.2499974708558,8|8,0:3|0:3,0:0:0:0:
325,153,80059,1,4,0:3:0:0:
325,153,80140,1,4,0:3:0:0:
325,153,80220,1,4,0:3:0:0:
325,153,80301,1,4,0:3:0:0:
325,153,80382,6,0,B|312:291|389:226|381:363,1,220.999989883423,6|10,1:2|0:0,0:0:0:0:
458,140,80865,1,2,0:0:0:0:
458,140,80946,1,8,0:0:0:0:
458,140,81027,2,0,P|464:206|481:252,1,85,2|0,1:2|1:0,0:0:0:0:
225,353,81349,2,0,P|234:311|236:269,1,85,10|0,0:0|0:0,0:0:0:0:
86,56,81672,5,6,1:2:0:0:
414,185,81995,5,6,1:2:0:0:
92,333,82317,5,6,1:2:0:0:
238,75,82640,5,6,1:2:0:0:
321,317,82962,5,6,1:2:0:0:
321,317,83285,1,8,0:2:0:0:
125,225,83446,1,10,1:2:0:0:
302,190,83607,1,10,0:2:0:0:
93,299,83769,1,8,1:2:0:0:
308,377,83930,1,8,0:2:0:0:
155,168,84091,1,8,1:2:0:0:
198,338,84253,5,8,0:2:0:0:
293,144,84414,1,8,1:2:0:0:
314,298,84575,1,8,0:2:0:0:
204,81,84736,1,8,1:2:0:0:
408,225,84898,1,8,0:2:0:0:
147,180,85059,1,8,1:2:0:0:
348,55,85220,1,8,0:2:0:0:
256,239,85382,1,10,1:2:0:0:
162,74,85543,5,6,1:2:0:0:
342,157,85704,1,0,1:2:0:0:
145,233,85865,1,10,1:2:0:0:
247,74,86027,5,6,1:2:0:0:
240,271,86188,1,0,1:2:0:0:
76,138,86349,1,10,1:2:0:0:
302,150,86511,5,6,1:2:0:0:
118,285,86672,1,0,1:2:0:0:
114,82,86833,1,10,1:2:0:0:
269,286,86995,5,4,1:2:0:0:
49,224,87156,1,2,1:2:0:0:
198,88,87317,1,10,1:2:0:0:
312,309,87478,5,6,1:2:0:0:
312,309,87559,1,8,0:3:0:0:
312,309,87640,2,0,L|313:361,1,42.5,4|4,0:3|0:3,0:0:0:0:
412,131,87801,1,6,1:2:0:0:
412,131,88124,6,0,P|404:206|401:250,1,85,14|0,1:2|1:0,0:0:0:0:
243,357,88446,2,0,P|239:314|234:272,1,85,10|0,0:2|1:0,0:0:0:0:
147,133,88769,2,0,P|104:114|57:113,1,85,10|0,0:2|1:0,0:0:0:0:
259,66,89091,1,14,0:2:0:0:
164,226,89253,2,0,P|143:271|98:304,1,85,10|0,1:2|0:0,0:0:0:0:
178,37,89575,5,14,0:2:0:0:
255,205,89736,2,0,P|276:250|321:283,1,85,10|0,1:2|1:0,0:0:0:0:
337,296,89978,1,0,1:0:0:0:
337,296,90059,1,12,0:0:0:0:
439,41,90220,1,0,1:0:0:0:
430,319,90382,1,12,0:0:0:0:
360,85,90543,1,0,1:0:0:0:
230,297,90704,6,0,P|188:342|154:359,1,85,10|0,1:2|1:0,0:0:0:0:
71,185,91027,2,0,P|95:241|121:269,1,85,10|0,0:2|1:0,0:0:0:0:
221,93,91349,2,0,P|217:154|202:189,1,85,10|0,0:2|1:0,0:0:0:0:
104,57,91672,1,14,0:2:0:0:
282,207,91833,2,0,P|349:224|397:214,1,85,10|0,1:2|0:0,0:0:0:0:
80,198,92156,5,14,0:2:0:0:
260,110,92317,2,0,P|292:66|307:13,1,85,10|0,1:2|1:0,0:0:0:0:
203,253,92640,1,12,0:0:0:0:
346,30,92801,1,0,1:0:0:0:
181,185,92962,1,12,0:0:0:0:
404,126,93124,1,0,1:0:0:0:
173,137,93285,6,0,P|117:119|62:131,1,85,14|0,1:2|1:0,0:0:0:0:
331,296,93607,2,0,P|373:295|412:279,1,85,10|0,0:2|1:0,0:0:0:0:
154,227,93930,2,0,P|116:231|64:271,1,85,10|0,0:2|1:0,0:0:0:0:
268,93,94253,1,14,0:2:0:0:
241,349,94414,2,0,P|251:291|257:228,1,85,10|0,1:2|0:0,0:0:0:0:
188,97,94736,5,14,0:2:0:0:
362,310,94898,2,0,P|334:252|313:215,1,85,10|0,1:2|1:0,0:0:0:0:
119,154,95220,1,12,0:0:0:0:
399,187,95382,1,0,1:0:0:0:
147,256,95543,1,12,0:0:0:0:
349,110,95704,1,8,0:0:0:0:
147,256,96027,5,10,0:0:0:0:
402,305,96188,1,8,1:2:0:0:
223,167,96349,1,0,1:0:0:0:
223,167,96430,1,0,1:0:0:0:
223,167,96511,5,10,0:0:0:0:
299,367,96672,1,8,1:2:0:0:
372,144,96833,1,0,1:0:0:0:
372,144,96914,1,0,1:0:0:0:
372,144,96995,5,10,0:0:0:0:
223,288,97156,1,8,1:2:0:0:
145,87,97317,1,0,1:0:0:0:
145,87,97398,1,0,1:0:0:0:
145,87,97478,5,14,0:0:0:0:
419,178,97640,1,8,1:2:0:0:
226,144,97801,1,0,1:0:0:0:
431,87,97962,5,12,0:0:0:0:
116,250,98124,1,12,0:0:0:0:
431,87,98285,1,12,0:0:0:0:
