osu file format v14

[General]
AudioFilename: audio.mp3
AudioLeadIn: 0
PreviewTime: 69414
Countdown: 0
SampleSet: Soft
StackLeniency: 0.4
Mode: 0
LetterboxInBreaks: 0
WidescreenStoryboard: 1

[Editor]
DistanceSpacing: 1.4
BeatDivisor: 4
GridSize: 32
TimelineZoom: 2

[Metadata]
Title:ReI
TitleUnicode:ReI
Artist:THE ORAL CIGARETTES
ArtistUnicode:THE ORAL CIGARETTES
Creator:_tranquility
Version:Cami's Light Insane
Source:
Tags:Serizawa Haruki Jack J_a_c_k Cami Gottagof4st smozit Onlybiscuit brotarks Kujinn Reform Kisses and Kills rock japanese cut version
BeatmapID:1964162
BeatmapSetID:889058

[Difficulty]
HPDrainRate:5
CircleSize:3.6
OverallDifficulty:7
ApproachRate:8.2
SliderMultiplier:1.4
SliderTickRate:1

[Events]
//Background and Video events
0,0,"cig.jpg",0,0
//Break Periods
//Storyboard Layer 0 (Background)
//Storyboard Layer 1 (Fail)
//Storyboard Layer 2 (Pass)
//Storyboard Layer 3 (Foreground)
//Storyboard Sound Samples

[TimingPoints]
-22,468.75,4,2,1,100,1,0
-22,-333.333333333333,4,2,1,70,0,0
8415,-200,4,2,1,100,0,0
12165,-100,4,2,1,80,0,0
15866,322.58064516129,4,2,1,100,1,0
26267,-100,4,2,1,70,0,0
59736,-95.2380952380952,4,2,1,100,0,1
69091,-100,4,2,1,100,0,0
70059,-90.9090909090909,4,2,1,100,0,1
80382,-90.9090909090909,4,2,1,90,0,0
82962,-100,4,2,1,90,0,1
88124,-100,4,2,1,90,0,0

[Colours]
Combo1 : 72,72,255
Combo2 : 182,182,109
Combo3 : 211,150,22

[HitObjects]
187,226,15866,6,0,P|200:169|201:140,1,70,10|0,0:0|1:0,0:0:0:0:
351,163,16188,2,0,P|295:180|269:193,1,70,10|0,0:2|1:0,0:0:0:0:
215,52,16511,2,0,P|257:91|282:107,1,70,10|0,0:2|1:0,0:0:0:0:
425,114,16833,5,14,0:2:0:0:
425,114,16995,1,10,1:2:0:0:
256,288,17317,5,14,0:2:0:0:
256,288,17478,1,10,1:2:0:0:
158,297,17640,1,0,1:0:0:0:
144,292,17720,1,0,1:0:0:0:
131,287,17801,2,0,L|136:213,1,70,12|0,0:0|1:0,0:0:0:0:
294,140,18124,2,0,L|299:210,1,70,12|0,0:0|1:0,0:0:0:0:
312,214,18365,1,0,1:0:0:0:
327,221,18446,6,0,P|370:232|420:222,1,70,14|0,1:2|1:0,0:0:0:0:
282,351,18769,2,0,P|270:308|236:269,1,70,10|0,0:2|1:0,0:0:0:0:
418,325,19091,2,0,P|386:356|370:405,1,70,10|0,0:2|1:0,0:0:0:0:
477,197,19414,5,14,0:2:0:0:
477,197,19575,1,10,1:2:0:0:
256,96,19898,5,14,0:2:0:0:
256,96,20059,1,10,1:2:0:0:
195,157,20220,1,0,1:0:0:0:
192,168,20301,1,0,1:0:0:0:
189,181,20382,2,0,L|92:174,1,70,12|0,0:0|1:0,0:0:0:0:
9,274,20704,2,0,L|106:267,1,70,12|0,0:0|1:0,0:0:0:0:
83,281,20946,1,0,1:0:0:0:
91,294,21027,6,0,B|108:326|108:326|157:351,1,70,14|0,1:2|1:0,0:0:0:0:
189,181,21349,2,0,B|152:179|152:179|106:209,1,70,10|0,0:2|1:0,0:0:0:0:
237,322,21672,2,0,B|256:291|256:291|253:236,1,70,10|0,0:2|1:0,0:0:0:0:
184,95,21995,5,14,0:2:0:0:
184,95,22156,1,10,1:2:0:0:
340,223,22478,5,14,0:2:0:0:
340,223,22640,1,10,1:2:0:0:
404,172,22801,1,0,1:0:0:0:
418,178,22882,1,0,1:0:0:0:
434,185,22962,2,0,P|440:228|444:277,1,70,12|0,0:0|1:0,0:0:0:0:
326,140,23285,2,0,P|329:105|334:70,1,70,12|0,0:0|1:0,0:0:0:0:
346,62,23527,1,0,1:0:0:0:
360,56,23607,6,0,B|395:70|395:70|452:64,1,70,14|0,1:2|1:0,0:0:0:0:
350,203,23930,2,0,B|344:165|344:165|310:119,1,70,10|0,0:2|1:0,0:0:0:0:
483,139,24253,2,0,B|453:162|453:162|430:214,1,70,10|0,0:2|1:0,0:0:0:0:
289,264,24575,5,14,0:2:0:0:
289,264,24736,1,10,1:2:0:0:
210,225,24898,1,2,0:0:0:0:
192,219,24978,1,2,0:0:0:0:
172,213,25059,5,14,0:2:0:0:
292,195,25220,2,0,P|295:242|279:280,1,70,10|0,1:2|0:0,0:0:0:0:
82,183,25543,1,14,1:2:0:0:
95,150,25624,1,8,0:0:0:0:
120,126,25704,1,10,0:2:0:0:
153,115,25785,1,10,0:0:0:0:
187,119,25865,2,0,P|218:134|242:136,3,35,2|8|8|4,1:2|1:3|0:3|0:3,0:0:0:0:
260,116,26188,6,0,B|314:110|314:110|341:132|341:132|414:142,1,140,6|8,1:2|0:0,0:0:0:0:
484,206,26672,1,0,0:0:0:0:
463,283,26833,2,0,P|414:307|378:312,1,70,2|0,1:2|1:0,0:0:0:0:
283,264,27156,2,0,L|293:180,1,70,8|0,0:0|0:0,0:0:0:0:
209,334,27478,6,0,P|188:255|166:174,1,140,2|8,1:2|0:0,0:0:0:0:
110,151,27962,1,2,0:0:0:0:
28,232,28124,2,0,P|16:269|14:312,1,70,2|0,1:2|1:0,0:0:0:0:
110,151,28446,2,0,P|106:116|95:83,1,70,8|0,0:0|0:0,0:0:0:0:
277,21,28769,6,0,P|234:54|151:17,2,140,2|8|0,1:2|0:0|1:2,0:0:0:0:
345,85,29575,1,2,1:2:0:0:
449,37,29736,1,10,0:0:0:0:
506,94,29898,1,2,0:0:0:0:
345,85,30059,6,0,B|284:86|284:86|265:109|265:109|210:123,1,140,0|8,1:2|0:0,0:0:0:0:
185,195,30543,1,0,0:0:0:0:
76,278,30704,2,0,B|137:279|137:279|156:302|156:302|211:316,1,140,2|10,1:2|0:0,0:0:0:0:
273,274,31188,1,2,0:2:0:0:
373,344,31349,6,0,B|335:349|335:349|368:231,1,140,6|8,1:2|0:0,0:0:0:0:
386,176,31833,1,2,0:0:0:0:
483,189,31995,2,0,P|466:234|426:264,1,70,2|0,1:2|1:0,0:0:0:0:
350,85,32317,2,0,P|397:77|448:96,1,70,8|0,0:0|0:0,0:0:0:0:
362,251,32640,6,0,B|304:236|304:236|286:210|286:210|221:193,1,140,2|8,1:2|0:0,0:0:0:0:
169,236,33124,1,0,0:0:0:0:
169,236,33285,2,0,L|182:309,1,70,2|0,1:2|1:0,0:0:0:0:
79,360,33607,2,0,L|91:291,1,70,10|0,0:0|0:0,0:0:0:0:
69,147,33930,6,0,B|144:168|130:126|208:152,1,140,2|10,1:2|0:0,0:0:0:0:
282,225,34414,2,0,P|328:239|369:232,2,70,2|0|0,0:0|1:2|1:0,0:0:0:0:
326,152,34898,1,10,0:0:0:0:
326,152,35059,1,2,0:0:0:0:
438,216,35220,6,0,L|422:375,1,140,2|2,1:2|1:2,0:0:0:0:
349,237,35704,1,8,0:0:0:0:
280,278,35865,2,0,P|312:310|349:320,1,70,2|2,1:2|0:2,0:0:0:0:
207,234,36188,2,0,P|195:277|205:314,1,70,2|8,1:2|0:0,0:0:0:0:
68,342,36511,6,0,B|85:273|85:273|58:187,1,140,6|8,1:2|0:0,0:0:0:0:
154,115,36995,1,0,0:0:0:0:
221,62,37156,2,0,P|270:79|310:85,1,70,2|0,1:2|1:0,0:0:0:0:
145,102,37478,2,0,P|110:109|78:122,1,70,8|0,0:0|0:0,0:0:0:0:
282,202,37801,6,0,B|333:212|333:212|350:233|350:233|432:256,1,140,2|8,1:2|0:0,0:0:0:0:
397,159,38285,1,2,0:0:0:0:
276,286,38446,2,0,P|223:267|203:233,1,70,2|0,1:2|1:0,0:0:0:0:
218,145,38769,2,0,P|244:123|279:116,1,70,8|0,0:0|0:0,0:0:0:0:
387,19,39091,6,0,P|390:88|396:158,1,140,2|8,1:2|0:0,0:0:0:0:
461,213,39575,1,0,0:0:0:0:
461,213,39736,1,0,1:2:0:0:
377,274,39898,1,2,1:2:0:0:
382,146,40059,1,10,0:0:0:0:
390,285,40220,1,2,0:0:0:0:
292,177,40382,6,0,B|283:121|283:121|300:101|300:101|298:38,1,140,2|8,1:2|0:0,0:0:0:0:
225,20,40865,1,0,0:0:0:0:
210,162,41027,2,0,B|208:219|208:219|225:239|225:239|216:295,1,140,2|10,1:2|0:0,0:0:0:0:
166,359,41511,1,2,0:2:0:0:
60,271,41672,6,0,B|40:242|40:242|154:262,1,140,6|8,1:2|0:0,0:0:0:0:
216,295,42156,1,2,0:0:0:0:
304,224,42317,2,0,B|310:185|310:185|296:147,1,70,2|0,1:2|1:0,0:0:0:0:
174,139,42640,1,8,0:0:0:0:
231,196,42801,1,0,0:0:0:0:
226,67,42962,6,0,P|168:50|95:103,1,140,2|8,1:2|0:0,0:0:0:0:
76,167,43446,1,2,0:0:0:0:
174,139,43607,1,2,1:2:0:0:
231,196,43769,1,0,1:0:0:0:
216,295,43930,1,10,0:0:0:0:
216,295,44253,6,0,B|266:283|266:283|287:296|287:296|362:289,1,140,2|10,1:2|0:0,0:0:0:0:
431,230,44736,2,0,P|448:173|467:150,2,70,2|0|0,0:0|1:2|1:0,0:0:0:0:
350,119,45220,2,0,P|334:72|314:44,1,70,14|2,0:0|0:0,0:0:0:0:
186,128,45543,5,14,1:2:0:0:
261,155,45704,2,0,P|264:135|263:110,2,35,8|8|8,0:0|0:0|0:0,0:0:0:0:
170,229,46027,1,8,0:0:0:0:
287,281,46188,6,0,L|327:266,3,35,0|8|8|8,1:0|0:3|0:3|0:3,0:0:0:0:
350,290,46511,2,0,L|382:302,3,35,4|4|4|4,1:3|0:3|0:3|0:3,0:0:0:0:
431,306,46833,5,6,1:2:0:0:
493,203,46995,2,0,B|495:165|495:165|475:123,1,70,2|8,1:2|0:0,0:0:0:0:
373,177,47317,2,0,L|413:185,2,35,4|4|2,0:3|0:3|1:2,0:0:0:0:
311,103,47640,2,0,L|223:117,1,70,2|8,1:2|0:0,0:0:0:0:
106,24,47962,6,0,B|144:17|144:17|194:38,1,70,2|0,1:2|1:0,0:0:0:0:
200,199,48285,2,0,L|130:188,1,70,2|8,1:2|0:0,0:0:0:0:
57,236,48607,2,0,L|65:292,2,35,4|4|0,0:3|0:3|1:2,0:0:0:0:
142,289,48930,1,2,1:2:0:0:
200,199,49091,1,10,0:0:0:0:
200,199,49414,6,0,P|183:267|238:336,1,140,6|8,1:2|0:0,0:0:0:0:
349,309,49898,2,0,P|366:241|311:172,1,140,4|0,0:3|1:0,0:0:0:0:
275,253,50382,1,8,0:0:0:0:
320,101,50543,6,0,B|372:107|372:107|402:137|402:137|459:147,1,140,2|0,1:2|1:0,0:0:0:0:
419,37,51027,1,10,0:0:0:0:
320,101,51188,2,0,L|282:107,1,35,4|4,0:3|0:3,0:0:0:0:
261,128,51349,2,0,L|173:116,1,70,2|0,1:2|1:0,0:0:0:0:
36,43,51672,1,8,0:0:0:0:
13,69,51753,1,8,0:0:0:0:
5,103,51833,1,10,0:0:0:0:
11,137,51914,1,8,0:0:0:0:
31,165,51995,5,4,1:2:0:0:
128,227,52156,2,0,B|130:187|130:187|116:154,1,70,0|8,1:0|0:0,0:0:0:0:
45,273,52478,2,0,L|48:316,2,35,4|4|2,0:3|0:3|1:2,0:0:0:0:
195,287,52801,2,0,L|123:328,1,70,2|8,1:2|0:0,0:0:0:0:
226,204,53124,6,0,B|259:226|259:226|319:235,1,70,2|0,1:2|1:0,0:0:0:0:
392,155,53446,2,0,L|296:138,1,70,2|8,1:2|0:0,0:0:0:0:
418,238,53769,2,0,P|448:220|460:206,2,35,4|4|0,0:3|0:3|1:2,0:0:0:0:
392,155,54091,1,2,1:2:0:0:
326,250,54253,2,0,L|340:334,1,70,8|0,0:0|0:0,0:0:0:0:
341,345,54495,1,8,0:0:0:0:
341,345,54575,6,0,P|282:313|192:306,1,140,6|10,1:2|0:0,0:0:0:0:
151,218,55059,1,0,1:2:0:0:
151,218,55140,1,10,0:0:0:0:
151,218,55220,2,0,P|220:209|281:176,1,140,0|10,1:2|0:0,0:0:0:0:
359,113,55704,2,0,L|369:66,1,35,0|8,0:0|0:0,0:0:0:0:
405,49,55865,6,0,L|382:144,1,70,2|0,1:2|1:0,0:0:0:0:
512,177,56188,2,0,L|495:108,1,70,8|0,0:0|0:0,0:0:0:0:
378,201,56511,1,8,0:0:0:0:
382,213,56591,1,8,0:0:0:0:
386,226,56672,1,0,1:0:0:0:
460,355,56833,6,0,B|469:318|469:318|509:275,1,70,4|0,1:0|0:0,0:0:0:0:
311,276,57156,6,0,P|344:308|381:318,1,70,6|0,1:2|1:2,0:0:0:0:
386,226,57478,1,2,1:2:0:0:
231,237,57640,6,0,P|219:281|229:318,1,70,6|0,1:2|1:2,0:0:0:0:
311,276,57962,1,2,1:2:0:0:
254,110,58124,5,10,0:0:0:0:
254,110,58285,1,8,0:0:0:0:
180,157,58446,1,2,1:2:0:0:
165,155,58527,1,0,1:0:0:0:
147,152,58607,5,12,0:0:0:0:
230,26,58769,2,0,P|280:26|315:53,1,70,8|0,0:0|0:0,0:0:0:0:
422,139,59091,1,8,0:0:0:0:
402,167,59172,1,8,0:0:0:0:
372,185,59253,1,10,0:0:0:0:
338,190,59333,1,8,0:0:0:0:
304,181,59414,2,0,P|274:192|261:213,3,35,8|8|8|8,0:0|0:0|0:0|0:0,0:0:0:0:
221,205,59736,6,0,B|193:274|193:274|220:352,1,146.999995513916,6|8,1:2|0:0,0:0:0:0:
95,266,60220,1,0,0:0:0:0:
100,253,60301,1,8,0:0:0:0:
106,240,60382,2,0,B|134:171|134:171|107:93,1,146.999995513916,2|8,1:2|0:0,0:0:0:0:
110,102,61027,6,0,P|162:117|202:104,1,73.4999977569581,2|0,1:2|1:0,0:0:0:0:
304,171,61349,2,0,P|267:168|233:182,1,73.4999977569581,10|0,0:0|0:0,0:0:0:0:
227,191,61591,1,8,0:0:0:0:
221,205,61672,2,0,L|234:292,1,73.4999977569581,2|0,1:2|1:0,0:0:0:0:
376,212,61995,1,12,0:0:0:0:
392,336,62156,1,8,0:0:0:0:
372,331,62236,1,8,0:0:0:0:
356,327,62317,6,0,B|283:305|284:369|206:357,1,146.999995513916,6|8,1:2|0:0,0:0:0:0:
157,306,62801,1,0,0:0:0:0:
24,353,62962,2,0,P|9:301|13:271,1,73.4999977569581,2|0,1:2|1:0,0:0:0:0:
132,157,63285,2,0,P|131:193|118:227,1,73.4999977569581,8|2,0:0|0:0,0:0:0:0:
103,232,63527,1,8,0:0:0:0:
86,234,63607,5,2,1:2:0:0:
157,306,63769,1,0,1:2:0:0:
266,257,63930,2,0,P|278:197|287:107,1,146.999995513916,10|8,0:0|1:2,0:0:0:0:
266,81,64333,1,8,0:0:0:0:
235,62,64414,1,8,0:0:0:0:
199,56,64495,1,8,0:0:0:0:
163,65,64575,2,0,P|126:78|95:81,3,36.749998878479,8|8|4|4,0:3|0:3|0:3|0:3,0:0:0:0:
92,69,64898,6,0,P|42:52|11:23,1,73.4999977569581,6|0,1:2|1:0,0:0:0:0:
132,157,65220,1,10,0:0:0:0:
86,234,65382,1,2,0:2:0:0:
75,224,65462,1,8,0:0:0:0:
62,213,65543,2,0,L|70:302,1,73.4999977569581,6|0,1:2|1:0,0:0:0:0:
248,321,65865,2,0,L|254:247,1,73.4999977569581,8|0,0:0|0:0,0:0:0:0:
243,237,66107,1,8,0:0:0:0:
230,226,66188,6,0,B|214:194|214:194|223:150,1,73.4999977569581,6|0,1:2|1:0,0:0:0:0:
398,82,66511,2,0,B|405:118|405:118|389:150,1,73.4999977569581,10|0,0:0|0:0,0:0:0:0:
381,162,66753,1,8,0:0:0:0:
373,175,66833,2,0,L|454:184,1,73.4999977569581,6|0,1:2|1:0,0:0:0:0:
310,103,67156,1,10,0:0:0:0:
221,157,67317,1,8,0:0:0:0:
208,164,67398,1,8,0:0:0:0:
189,172,67478,6,0,B|132:163|132:163|108:135|108:135|29:140,1,146.999995513916,6|8,1:2|0:0,0:0:0:0:
79,271,67962,1,2,0:0:0:0:
85,258,68043,1,8,0:0:0:0:
90,248,68124,2,0,L|110:341,1,73.4999977569581,2|0,1:2|1:0,0:0:0:0:
243,356,68446,1,8,0:0:0:0:
290,209,68607,1,2,0:0:0:0:
450,294,68769,6,0,P|467:333|469:352,3,36.749998878479,8|8|4|4,0:3|0:3|0:3|0:3,0:0:0:0:
493,361,69091,1,4,1:2:0:0:
493,361,70059,6,0,B|502:321|502:321|526:289,1,77.0000023498536,6|2,1:2|2:0,0:0:0:0:
415,176,70382,2,0,B|436:204|436:204|445:244,1,77.0000023498536,2|2,1:2|2:0,0:0:0:0:
270,236,70704,2,0,L|363:239,1,77.0000023498536,14|2,1:2|2:0,0:0:0:0:
263,348,71027,1,8,1:2:0:0:
187,260,71188,1,0,1:0:0:0:
182,243,71269,1,0,1:0:0:0:
178,227,71349,6,0,B|187:184|187:184|218:153,1,77.0000023498536,6|2,1:2|2:0,0:0:0:0:
366,120,71672,1,2,1:2:0:0:
346,238,71833,1,2,2:0:0:0:
328,235,71914,1,2,0:0:0:0:
307,232,71995,2,0,L|293:140,1,77.0000023498536,14|2,1:2|2:0,0:0:0:0:
151,40,72317,2,0,L|139:116,1,77.0000023498536,8|2,1:2|2:0,0:0:0:0:
126,124,72559,1,2,0:0:0:0:
112,133,72640,6,0,B|71:143|71:143|29:131,1,77.0000023498536,6|2,1:2|2:0,0:0:0:0:
1,290,72962,2,0,B|34:280|34:280|75:290,1,77.0000023498536,2|2,1:2|2:0,0:0:0:0:
90,299,73204,1,2,0:0:0:0:
109,308,73285,2,0,L|197:290,1,77.0000023498536,14|2,1:2|2:0,0:0:0:0:
307,232,73607,1,8,1:2:0:0:
297,342,73769,1,2,2:0:0:0:
280,336,73849,1,0,1:0:0:0:
264,330,73930,5,6,1:2:0:0:
295,225,74091,1,2,2:0:0:0:
384,337,74253,2,0,B|425:351|425:351|468:342,1,77.0000023498536,2|2,1:2|2:0,0:0:0:0:
512,207,74575,2,0,B|479:200|479:200|438:214,1,77.0000023498536,14|2,1:2|2:0,0:0:0:0:
295,225,74898,2,0,L|282:139,1,77.0000023498536,8|0,0:0|1:0,0:0:0:0:
267,140,75140,1,0,1:0:0:0:
254,130,75220,6,0,L|244:316,1,154.000004699707,6|10,1:2|0:0,0:0:0:0:
222,314,75624,1,8,0:0:0:0:
188,330,75704,1,10,0:0:0:0:
150,328,75785,1,8,0:0:0:0:
117,309,75865,6,0,L|127:123,1,154.000004699707,6|10,1:2|0:0,0:0:0:0:
149,124,76269,1,8,0:0:0:0:
183,108,76349,1,8,0:0:0:0:
221,110,76430,1,8,0:0:0:0:
253,128,76511,6,0,B|282:168|320:175|320:175|348:149|410:141,1,154.000004699707,6|10,1:2|0:0,0:0:0:0:
421,151,76914,1,8,0:0:0:0:
453,172,76995,1,8,0:0:0:0:
474,204,77075,1,8,0:0:0:0:
481,242,77156,6,0,B|471:280|471:280|432:308,1,77.0000023498536,6|0,1:2|0:0,0:0:0:0:
313,355,77478,1,10,0:0:0:0:
302,318,77559,1,8,0:0:0:0:
311,281,77640,1,8,0:0:0:0:
337,254,77720,1,8,0:0:0:0:
374,244,77801,5,6,1:2:0:0:
197,328,78124,2,0,L|143:338,3,38.5000011749268,10|8|10|8,0:0|0:0|0:0|0:0,0:0:0:0:
119,306,78446,2,0,L|65:296,3,38.5000011749268,10|8|8|8,0:2|0:0|0:0|0:0,0:0:0:0:
45,271,78769,2,0,L|40:215,3,38.5000011749268,8|8|10|8,0:0|0:0|0:0|0:0,0:0:0:0:
74,196,79091,5,10,0:0:0:0:
96,165,79172,1,8,0:0:0:0:
102,127,79253,1,10,0:0:0:0:
92,90,79333,1,8,0:0:0:0:
66,62,79414,2,0,L|25:73,3,38.5000011749268,10|8|10|8,0:0|0:0|0:0|0:0,0:0:0:0:
125,12,79736,6,0,L|166:22,3,38.5000011749268,8|8|8|8,1:3|0:3|0:3|0:3,0:0:0:0:
196,50,80059,2,0,P|229:47|244:27,3,38.5000011749268,4|4|4|4,0:3|0:3|0:3|0:3,0:0:0:0:
278,66,80382,6,0,B|340:74|340:74|366:107|366:107|440:133,1,154.000004699707,6|10,1:2|0:0,0:0:0:0:
492,225,80865,1,2,0:0:0:0:
480,231,80946,1,8,0:0:0:0:
468,238,81027,2,0,B|438:255|438:255|384:240,1,77.0000023498536,2|0,1:2|1:0,0:0:0:0:
272,327,81349,2,0,B|302:310|302:310|342:321,1,77.0000023498536,10|0,0:0|0:0,0:0:0:0:
224,237,81672,5,6,1:2:0:0:
429,337,81995,1,6,1:2:0:0:
414,110,82317,1,6,1:2:0:0:
360,219,82640,1,6,1:2:0:0:
360,219,82962,6,0,B|388:185|364:161|336:132|269:146,1,140,6|8,1:2|0:2,0:0:0:0:
134,227,83446,1,2,1:2:0:0:
243,294,83607,2,0,B|251:252|251:252|237:215,1,70,10|8,0:2|1:2,0:0:0:0:
163,81,83930,2,0,B|153:106|153:106|161:148,1,70,8|8,0:2|1:2,0:0:0:0:
360,219,84253,5,8,0:2:0:0:
360,219,84414,1,8,1:2:0:0:
285,121,84575,1,8,0:2:0:0:
285,121,84736,1,8,1:2:0:0:
161,148,84898,1,8,0:2:0:0:
161,148,85059,1,8,1:2:0:0:
236,246,85220,1,8,0:2:0:0:
236,246,85382,1,10,1:2:0:0:
71,171,85543,6,0,B|64:148|64:148|75:103,1,70,6|0,1:2|1:2,0:0:0:0:
161,148,85865,1,10,1:2:0:0:
174,316,86027,6,0,L|91:303,1,70,6|0,1:2|1:2,0:0:0:0:
150,230,86349,1,10,1:2:0:0:
261,348,86511,6,0,B|305:349|305:349|352:322,1,70,6|0,1:2|1:2,0:0:0:0:
280,268,86833,1,10,1:2:0:0:
417,342,86995,6,0,B|422:304|422:304|447:262,1,70,4|2,1:2|1:2,0:0:0:0:
501,335,87317,1,10,1:2:0:0:
475,199,87478,6,0,L|436:191,3,35,6|8|4|4,1:2|0:3|0:3|0:3,0:0:0:0:
375,141,87801,1,6,1:2:0:0:
375,141,88124,6,0,B|340:166|340:166|292:169,1,70,14|0,1:2|1:0,0:0:0:0:
207,198,88446,2,0,B|246:215|246:215|272:255,1,70,10|0,0:2|1:0,0:0:0:0:
340,314,88769,2,0,B|335:271|335:271|357:228,1,70,10|0,0:2|1:0,0:0:0:0:
250,321,89091,5,14,0:2:0:0:
250,321,89253,1,10,1:2:0:0:
125,94,89575,5,14,0:2:0:0:
125,94,89736,1,10,1:2:0:0:
57,143,89898,1,0,1:0:0:0:
61,157,89978,1,0,1:0:0:0:
65,170,90059,2,0,B|98:191|98:191|154:198,1,70,12|0,0:0|1:0,0:0:0:0:
247,237,90382,2,0,B|216:240|216:240|183:261,1,70,12|0,0:0|1:0,0:0:0:0:
172,272,90624,1,0,1:0:0:0:
162,284,90704,6,0,L|147:361,1,70,14|0,1:2|1:0,0:0:0:0:
61,216,91027,2,0,L|128:194,1,70,10|0,0:2|1:0,0:0:0:0:
54,338,91349,2,0,L|-5:286,1,70,10|0,0:2|1:0,0:0:0:0:
88,113,91672,5,14,0:2:0:0:
88,113,91833,1,10,1:2:0:0:
256,320,92156,5,14,0:2:0:0:
256,320,92317,1,10,1:2:0:0:
328,274,92478,1,0,1:0:0:0:
333,259,92559,1,0,1:0:0:0:
337,243,92640,2,0,B|378:216|378:216|425:212,1,70,12|0,0:0|1:0,0:0:0:0:
302,112,92962,2,0,B|281:110|281:110|240:83,1,70,12|0,0:0|1:0,0:0:0:0:
230,76,93204,1,0,1:0:0:0:
213,66,93285,6,0,L|191:138,1,70,14|0,1:2|1:0,0:0:0:0:
52,93,93607,2,0,L|125:76,1,70,10|0,0:2|1:0,0:0:0:0:
155,218,93930,2,0,L|103:162,1,70,10|0,0:2|1:0,0:0:0:0:
69,319,94253,5,14,0:2:0:0:
69,319,94414,1,10,1:2:0:0:
244,190,94736,5,14,0:2:0:0:
244,190,94898,1,10,1:2:0:0:
210,262,95059,1,0,1:0:0:0:
198,266,95140,1,0,1:0:0:0:
188,272,95220,2,0,B|160:253|160:253|152:203,1,70,12|0,0:0|1:0,0:0:0:0:
345,221,95543,5,12,0:0:0:0:
345,221,95704,1,8,0:0:0:0:
90,353,96027,5,10,0:0:0:0:
224,366,96188,1,8,1:2:0:0:
71,275,96511,5,10,0:0:0:0:
240,281,96672,1,8,1:2:0:0:
53,198,96995,5,10,0:0:0:0:
257,198,97156,1,8,1:2:0:0:
29,118,97478,5,14,0:0:0:0:
268,115,97640,1,8,1:2:0:0:
9,42,97962,5,12,0:0:0:0:
286,33,98124,1,12,0:0:0:0:
148,214,98285,1,12,0:0:0:0:
