osu file format v14

[General]
AudioFilename: audio.mp3
AudioLeadIn: 0
PreviewTime: 10620
Countdown: 0
SampleSet: Normal
StackLeniency: 0.7
Mode: 3
LetterboxInBreaks: 0
SpecialStyle: 0
WidescreenStoryboard: 1

[Editor]
Bookmarks: 7479
DistanceSpacing: 1.8
BeatDivisor: 4
GridSize: 8
TimelineZoom: 2.2

[Metadata]
Title:ReI
TitleUnicode:ReI
Artist:THE ORAL CIGARETTES
ArtistUnicode:THE ORAL CIGARETTES
Creator:Supicha
Version:Remia's 4K Holds Only
Source:
Tags:Yamanaka Takuya Suzuki Shigenobu Akirakani Akira Nakanishi Masaya ReIproject -_Kurumi_- Regretful__ cmyui -_Eve_- Nsl0a SpicabuP sumabup Remiaaaaa BNY963 A_s_h_e_m_u Azusa_Zz slowstart Mah0 My_AngeI_Mathi Creamy_Candy Noko_BSF asuasu_yura Bokaminum
BeatmapID:1988499
BeatmapSetID:949614

[Difficulty]
HPDrainRate:3
CircleSize:4
OverallDifficulty:0
ApproachRate:10
SliderMultiplier:1.6
SliderTickRate:1

[Events]
//Background and Video events
0,0,"68146051_p0_masterdrtfd1200.jpg",0,0
//Break Periods
//Storyboard Layer 0 (Background)
//Storyboard Layer 1 (Fail)
//Storyboard Layer 2 (Pass)
//Storyboard Layer 3 (Foreground)
//Storyboard Sound Samples

[TimingPoints]
1024,322.58064516129,4,1,0,30,1,0
11346,-100,4,1,0,30,0,1
29330,-100,4,1,0,30,0,0

[HitObjects]
448,192,1024,128,0,1346:0:0:0:0:
320,192,1024,128,0,1346:0:0:0:0:
64,192,1024,128,0,1346:0:0:0:0:
320,192,2314,128,0,2636:0:0:0:0:
192,192,2314,128,0,2636:0:0:0:0:
64,192,2314,128,0,2636:0:0:0:0:
448,192,3604,128,0,3927:0:0:0:0:
192,192,3604,128,0,3927:0:0:0:0:
64,192,3604,128,0,3927:0:0:0:0:
448,192,4249,128,0,4572:0:0:0:0:
320,192,4249,128,0,4572:0:0:0:0:
192,192,4249,128,0,4572:0:0:0:0:
448,192,4894,128,0,5217:0:0:0:0:
64,192,4894,128,0,5217:0:0:0:0:
320,192,4894,128,0,5217:0:0:0:0:
192,192,4894,128,0,5217:0:0:0:0:
448,192,6185,128,0,6427:0:0:0:0:
192,192,6185,128,0,6427:0:0:0:0:
64,192,6185,128,0,6427:0:0:0:0:
320,192,6185,128,0,6427:0:0:0:0:
64,192,6507,128,0,6588:0:0:0:0:
448,192,6507,128,0,6588:0:0:0:0:
192,192,6507,128,0,6588:0:0:0:0:
320,192,6588,128,0,6669:0:0:0:0:
192,192,6669,128,0,6749:0:0:0:0:
64,192,6669,128,0,6830:0:0:0:0:
448,192,6669,128,0,6749:0:0:0:0:
320,192,6749,128,0,6830:0:0:0:0:
192,192,6830,128,0,6911:0:0:0:0:
448,192,6830,128,0,6991:0:0:0:0:
320,192,6911,128,0,6991:0:0:0:0:
64,192,6911,128,0,7072:0:0:0:0:
192,192,6991,128,0,7153:0:0:0:0:
320,192,7072,128,0,7233:0:0:0:0:
448,192,7072,128,0,7233:0:0:0:0:
64,192,7153,128,0,7233:0:0:0:0:
192,192,7233,128,0,7556:0:0:0:0:
320,192,7314,128,0,7394:0:0:0:0:
64,192,7314,128,0,7394:0:0:0:0:
448,192,7314,128,0,7717:0:0:0:0:
320,192,7475,128,0,7717:0:0:0:0:
64,192,7475,128,0,8040:0:0:0:0:
192,192,7636,128,0,7717:0:0:0:0:
320,192,7798,128,0,8040:0:0:0:0:
192,192,7798,128,0,7878:0:0:0:0:
448,192,7798,128,0,7878:0:0:0:0:
192,192,7959,128,0,8362:0:0:0:0:
448,192,7959,128,0,8201:0:0:0:0:
320,192,8120,128,0,8685:0:0:0:0:
64,192,8120,128,0,8523:0:0:0:0:
448,192,8282,128,0,8362:0:0:0:0:
448,192,8443,128,0,8685:0:0:0:0:
192,192,8443,128,0,8685:0:0:0:0:
64,192,8604,128,0,8685:0:0:0:0:
64,192,8765,128,0,9169:0:0:0:0:
320,192,8765,128,0,9007:0:0:0:0:
448,192,8765,128,0,8846:0:0:0:0:
192,192,8765,128,0,8846:0:0:0:0:
192,192,8927,128,0,9169:0:0:0:0:
448,192,8927,128,0,9169:0:0:0:0:
320,192,9088,128,0,9330:0:0:0:0:
448,192,9249,128,0,9411:0:0:0:0:
64,192,9249,128,0,9330:0:0:0:0:
192,192,9249,128,0,9330:0:0:0:0:
192,192,9411,128,0,9653:0:0:0:0:
320,192,9411,128,0,9491:0:0:0:0:
64,192,9411,128,0,9491:0:0:0:0:
448,192,9491,128,0,9653:0:0:0:0:
64,192,9572,128,0,9653:0:0:0:0:
320,192,9572,128,0,9814:0:0:0:0:
64,192,9733,128,0,9894:0:0:0:0:
192,192,9733,128,0,9975:0:0:0:0:
448,192,9733,128,0,9814:0:0:0:0:
320,192,9894,128,0,10056:0:0:0:0:
448,192,9894,128,0,10136:0:0:0:0:
64,192,9975,128,0,10056:0:0:0:0:
192,192,10056,128,0,10136:0:0:0:0:
320,192,10136,128,0,10217:0:0:0:0:
64,192,10136,128,0,10217:0:0:0:0:
192,192,10217,128,0,10298:0:0:0:0:
448,192,10217,128,0,10298:0:0:0:0:
320,192,10298,128,0,10459:0:0:0:0:
64,192,10298,128,0,10459:0:0:0:0:
192,192,10378,128,0,10459:0:0:0:0:
448,192,10378,128,0,10459:0:0:0:0:
448,192,10701,128,0,10943:0:0:0:0:
320,192,10701,128,0,10943:0:0:0:0:
192,192,10701,128,0,10943:0:0:0:0:
64,192,10701,128,0,10943:0:0:0:0:
448,192,11023,128,0,11265:0:0:0:0:
320,192,11023,128,0,11265:0:0:0:0:
192,192,11023,128,0,11265:0:0:0:0:
64,192,11023,128,0,11265:0:0:0:0:
192,192,11346,128,0,11427:0:0:0:0:
448,192,11346,128,0,11588:0:0:0:0:
64,192,11346,128,0,11427:0:0:0:0:
320,192,11346,128,0,11427:0:0:0:0:
320,192,11507,128,0,11749:0:0:0:0:
192,192,11507,128,0,11588:0:0:0:0:
64,192,11507,128,0,11588:0:0:0:0:
448,192,11669,128,0,11911:0:0:0:0:
192,192,11669,128,0,11749:0:0:0:0:
64,192,11669,128,0,11749:0:0:0:0:
320,192,11830,128,0,11911:0:0:0:0:
192,192,11830,128,0,12072:0:0:0:0:
64,192,11830,128,0,11911:0:0:0:0:
448,192,11991,128,0,12233:0:0:0:0:
64,192,11991,128,0,12072:0:0:0:0:
320,192,11991,128,0,12072:0:0:0:0:
320,192,12153,128,0,12233:0:0:0:0:
64,192,12153,128,0,12233:0:0:0:0:
192,192,12153,128,0,12394:0:0:0:0:
448,192,12314,128,0,12394:0:0:0:0:
320,192,12314,128,0,12394:0:0:0:0:
64,192,12314,128,0,12556:0:0:0:0:
448,192,12475,128,0,12556:0:0:0:0:
192,192,12475,128,0,12556:0:0:0:0:
320,192,12475,128,0,12717:0:0:0:0:
192,192,12636,128,0,12717:0:0:0:0:
64,192,12636,128,0,12717:0:0:0:0:
448,192,12636,128,0,12878:0:0:0:0:
320,192,12798,128,0,12878:0:0:0:0:
64,192,12798,128,0,12878:0:0:0:0:
192,192,12798,128,0,13040:0:0:0:0:
320,192,12959,128,0,13040:0:0:0:0:
64,192,12959,128,0,13040:0:0:0:0:
448,192,12959,128,0,13201:0:0:0:0:
192,192,13120,128,0,13201:0:0:0:0:
64,192,13120,128,0,13201:0:0:0:0:
320,192,13120,128,0,13362:0:0:0:0:
448,192,13282,128,0,13362:0:0:0:0:
192,192,13282,128,0,13362:0:0:0:0:
64,192,13282,128,0,13523:0:0:0:0:
320,192,13443,128,0,13523:0:0:0:0:
192,192,13443,128,0,13523:0:0:0:0:
448,192,13443,128,0,13685:0:0:0:0:
192,192,13604,128,0,13685:0:0:0:0:
64,192,13604,128,0,13685:0:0:0:0:
320,192,13604,128,0,13846:0:0:0:0:
448,192,13765,128,0,13846:0:0:0:0:
192,192,13765,128,0,14007:0:0:0:0:
64,192,13765,128,0,14007:0:0:0:0:
320,192,13927,128,0,14007:0:0:0:0:
448,192,13927,128,0,14169:0:0:0:0:
64,192,14088,128,0,14169:0:0:0:0:
192,192,14088,128,0,14330:0:0:0:0:
320,192,14088,128,0,14169:0:0:0:0:
64,192,14249,128,0,14330:0:0:0:0:
320,192,14249,128,0,14330:0:0:0:0:
448,192,14249,128,0,14491:0:0:0:0:
192,192,14411,128,0,14491:0:0:0:0:
64,192,14411,128,0,14491:0:0:0:0:
320,192,14411,128,0,14653:0:0:0:0:
192,192,14572,128,0,14814:0:0:0:0:
448,192,14572,128,0,14814:0:0:0:0:
64,192,14572,128,0,14814:0:0:0:0:
320,192,14733,128,0,14975:0:0:0:0:
64,192,14894,128,0,14975:0:0:0:0:
448,192,14894,128,0,15136:0:0:0:0:
192,192,14894,128,0,14975:0:0:0:0:
64,192,15056,128,0,15136:0:0:0:0:
320,192,15056,128,0,15298:0:0:0:0:
192,192,15056,128,0,15136:0:0:0:0:
192,192,15217,128,0,15298:0:0:0:0:
64,192,15217,128,0,15459:0:0:0:0:
448,192,15217,128,0,15459:0:0:0:0:
320,192,15378,128,0,15459:0:0:0:0:
192,192,15378,128,0,15620:0:0:0:0:
448,192,15540,128,0,15782:0:0:0:0:
320,192,15540,128,0,15782:0:0:0:0:
64,192,15540,128,0,15620:0:0:0:0:
192,192,15701,128,0,15782:0:0:0:0:
64,192,15701,128,0,15943:0:0:0:0:
320,192,15862,128,0,16104:0:0:0:0:
192,192,15862,128,0,15943:0:0:0:0:
448,192,15862,128,0,16104:0:0:0:0:
192,192,16023,128,0,16265:0:0:0:0:
64,192,16023,128,0,16104:0:0:0:0:
448,192,16185,128,0,16265:0:0:0:0:
320,192,16185,128,0,16427:0:0:0:0:
64,192,16185,128,0,16265:0:0:0:0:
192,192,16346,128,0,16427:0:0:0:0:
64,192,16346,128,0,16427:0:0:0:0:
448,192,16346,128,0,16588:0:0:0:0:
320,192,16507,128,0,16588:0:0:0:0:
64,192,16507,128,0,16749:0:0:0:0:
192,192,16507,128,0,16749:0:0:0:0:
320,192,16669,128,0,16830:0:0:0:0:
448,192,16669,128,0,16749:0:0:0:0:
448,192,16830,128,0,16911:0:0:0:0:
192,192,16830,128,0,16911:0:0:0:0:
64,192,16830,128,0,16991:0:0:0:0:
320,192,16911,128,0,16991:0:0:0:0:
192,192,16991,128,0,17072:0:0:0:0:
448,192,16991,128,0,17072:0:0:0:0:
64,192,17072,128,0,17233:0:0:0:0:
320,192,17072,128,0,17233:0:0:0:0:
192,192,17153,128,0,17233:0:0:0:0:
448,192,17153,128,0,17475:0:0:0:0:
192,192,17314,128,0,17556:0:0:0:0:
320,192,17314,128,0,17394:0:0:0:0:
64,192,17314,128,0,17394:0:0:0:0:
320,192,17475,128,0,17717:0:0:0:0:
64,192,17475,128,0,17878:0:0:0:0:
448,192,17556,128,0,17636:0:0:0:0:
192,192,17636,128,0,17878:0:0:0:0:
448,192,17717,128,0,18040:0:0:0:0:
320,192,17798,128,0,18120:0:0:0:0:
192,192,17959,128,0,18282:0:0:0:0:
64,192,17959,128,0,18120:0:0:0:0:
448,192,18120,128,0,18201:0:0:0:0:
320,192,18201,128,0,18362:0:0:0:0:
64,192,18201,128,0,18362:0:0:0:0:
448,192,18282,128,0,18604:0:0:0:0:
192,192,18362,128,0,18523:0:0:0:0:
64,192,18443,128,0,19169:0:0:0:0:
320,192,18443,128,0,18523:0:0:0:0:
320,192,18604,128,0,18685:0:0:0:0:
192,192,18604,128,0,19007:0:0:0:0:
448,192,18685,128,0,18846:0:0:0:0:
320,192,18765,128,0,19169:0:0:0:0:
448,192,18927,128,0,19007:0:0:0:0:
448,192,19088,128,0,19330:0:0:0:0:
192,192,19088,128,0,19330:0:0:0:0:
320,192,19249,128,0,19411:0:0:0:0:
64,192,19249,128,0,19330:0:0:0:0:
448,192,19411,128,0,19653:0:0:0:0:
192,192,19411,128,0,19491:0:0:0:0:
64,192,19411,128,0,19572:0:0:0:0:
320,192,19491,128,0,19572:0:0:0:0:
192,192,19572,128,0,19653:0:0:0:0:
64,192,19653,128,0,19733:0:0:0:0:
320,192,19653,128,0,19894:0:0:0:0:
192,192,19733,128,0,19814:0:0:0:0:
448,192,19733,128,0,19975:0:0:0:0:
64,192,19814,128,0,20056:0:0:0:0:
192,192,19894,128,0,19975:0:0:0:0:
320,192,19975,128,0,20217:0:0:0:0:
192,192,20056,128,0,20136:0:0:0:0:
448,192,20056,128,0,20298:0:0:0:0:
64,192,20136,128,0,20217:0:0:0:0:
192,192,20217,128,0,20459:0:0:0:0:
320,192,20298,128,0,20378:0:0:0:0:
64,192,20298,128,0,20540:0:0:0:0:
448,192,20378,128,0,20620:0:0:0:0:
320,192,20459,128,0,20540:0:0:0:0:
192,192,20540,128,0,20620:0:0:0:0:
64,192,20620,128,0,20782:0:0:0:0:
320,192,20620,128,0,20701:0:0:0:0:
192,192,20701,128,0,20943:0:0:0:0:
448,192,20701,128,0,20862:0:0:0:0:
320,192,20782,128,0,20862:0:0:0:0:
64,192,20862,128,0,21023:0:0:0:0:
320,192,20943,128,0,21185:0:0:0:0:
448,192,20943,128,0,21104:0:0:0:0:
192,192,21023,128,0,21104:0:0:0:0:
64,192,21104,128,0,21185:0:0:0:0:
192,192,21185,128,0,21265:0:0:0:0:
448,192,21185,128,0,21427:0:0:0:0:
320,192,21265,128,0,21346:0:0:0:0:
64,192,21265,128,0,21507:0:0:0:0:
192,192,21346,128,0,21427:0:0:0:0:
320,192,21427,128,0,21507:0:0:0:0:
448,192,21507,128,0,21830:0:0:0:0:
192,192,21507,128,0,21749:0:0:0:0:
64,192,21588,128,0,21749:0:0:0:0:
320,192,21588,128,0,21911:0:0:0:0:
192,192,21830,128,0,22072:0:0:0:0:
64,192,21830,128,0,21991:0:0:0:0:
448,192,21911,128,0,22072:0:0:0:0:
320,192,21991,128,0,22394:0:0:0:0:
64,192,22072,128,0,22233:0:0:0:0:
448,192,22153,128,0,22233:0:0:0:0:
192,192,22153,128,0,22233:0:0:0:0:
64,192,22314,128,0,22556:0:0:0:0:
448,192,22314,128,0,22556:0:0:0:0:
192,192,22314,128,0,22798:0:0:0:0:
320,192,22475,128,0,22556:0:0:0:0:
320,192,22636,128,0,22878:0:0:0:0:
64,192,22636,128,0,22878:0:0:0:0:
448,192,22636,128,0,22717:0:0:0:0:
448,192,22798,128,0,23040:0:0:0:0:
192,192,22878,128,0,23040:0:0:0:0:
320,192,22959,128,0,23120:0:0:0:0:
64,192,22959,128,0,23201:0:0:0:0:
192,192,23120,128,0,23362:0:0:0:0:
448,192,23120,128,0,23362:0:0:0:0:
320,192,23201,128,0,23685:0:0:0:0:
64,192,23282,128,0,23523:0:0:0:0:
448,192,23443,128,0,23523:0:0:0:0:
192,192,23443,128,0,23846:0:0:0:0:
64,192,23604,128,0,23846:0:0:0:0:
448,192,23604,128,0,23846:0:0:0:0:
320,192,23765,128,0,24330:0:0:0:0:
192,192,23927,128,0,24007:0:0:0:0:
448,192,23927,128,0,24169:0:0:0:0:
64,192,23927,128,0,24169:0:0:0:0:
192,192,24088,128,0,24169:0:0:0:0:
64,192,24249,128,0,24491:0:0:0:0:
192,192,24249,128,0,24491:0:0:0:0:
448,192,24249,128,0,24491:0:0:0:0:
320,192,24411,128,0,24653:0:0:0:0:
448,192,24572,128,0,24653:0:0:0:0:
64,192,24572,128,0,24975:0:0:0:0:
192,192,24572,128,0,24653:0:0:0:0:
320,192,24733,128,0,24975:0:0:0:0:
448,192,24733,128,0,24814:0:0:0:0:
192,192,24733,128,0,24814:0:0:0:0:
448,192,24894,128,0,25136:0:0:0:0:
192,192,24894,128,0,25298:0:0:0:0:
64,192,25056,128,0,25943:0:0:0:0:
320,192,25056,128,0,25459:0:0:0:0:
448,192,25217,128,0,25620:0:0:0:0:
192,192,25378,128,0,25459:0:0:0:0:
192,192,25540,128,0,25620:0:0:0:0:
320,192,25540,128,0,25620:0:0:0:0:
448,192,25701,128,0,25943:0:0:0:0:
192,192,25701,128,0,25782:0:0:0:0:
320,192,25701,128,0,25943:0:0:0:0:
192,192,25862,128,0,26104:0:0:0:0:
448,192,26023,128,0,26104:0:0:0:0:
320,192,26023,128,0,26265:0:0:0:0:
64,192,26023,128,0,26265:0:0:0:0:
448,192,26185,128,0,26588:0:0:0:0:
192,192,26185,128,0,26427:0:0:0:0:
320,192,26346,128,0,26588:0:0:0:0:
64,192,26346,128,0,26588:0:0:0:0:
192,192,26507,128,0,27153:0:0:0:0:
320,192,26669,128,0,26749:0:0:0:0:
64,192,26669,128,0,27233:0:0:0:0:
448,192,26669,128,0,26911:0:0:0:0:
320,192,26830,128,0,27072:0:0:0:0:
448,192,26991,128,0,27072:0:0:0:0:
448,192,27153,128,0,27556:0:0:0:0:
320,192,27153,128,0,27233:0:0:0:0:
192,192,27233,128,0,27556:0:0:0:0:
64,192,27314,128,0,27394:0:0:0:0:
320,192,27314,128,0,27394:0:0:0:0:
320,192,27475,128,0,27556:0:0:0:0:
64,192,27475,128,0,27798:0:0:0:0:
192,192,27636,128,0,28040:0:0:0:0:
448,192,27636,128,0,27878:0:0:0:0:
320,192,27636,128,0,27717:0:0:0:0:
320,192,27798,128,0,28201:0:0:0:0:
64,192,27878,128,0,28120:0:0:0:0:
448,192,27959,128,0,28040:0:0:0:0:
448,192,28120,128,0,28362:0:0:0:0:
192,192,28120,128,0,28362:0:0:0:0:
64,192,28201,128,0,28523:0:0:0:0:
320,192,28282,128,0,28523:0:0:0:0:
192,192,28443,128,0,29007:0:0:0:0:
448,192,28443,128,0,28523:0:0:0:0:
64,192,28604,128,0,28846:0:0:0:0:
320,192,28604,128,0,28846:0:0:0:0:
448,192,28604,128,0,28685:0:0:0:0:
448,192,28765,128,0,29007:0:0:0:0:
64,192,28927,128,0,29169:0:0:0:0:
320,192,28927,128,0,29169:0:0:0:0:
448,192,29088,128,0,29330:0:0:0:0:
192,192,29088,128,0,29814:0:0:0:0:
320,192,29249,128,0,29491:0:0:0:0:
64,192,29249,128,0,29330:0:0:0:0:
64,192,29411,128,0,29491:0:0:0:0:
448,192,29411,128,0,29653:0:0:0:0:
320,192,29572,128,0,29653:0:0:0:0:
64,192,29572,128,0,29814:0:0:0:0:
448,192,29733,128,0,29975:0:0:0:0:
320,192,29733,128,0,29975:0:0:0:0:
64,192,29894,128,0,30056:0:0:0:0:
192,192,29894,128,0,30136:0:0:0:0:
448,192,30056,128,0,30298:0:0:0:0:
320,192,30056,128,0,30459:0:0:0:0:
64,192,30136,128,0,30298:0:0:0:0:
192,192,30217,128,0,31185:0:0:0:0:
448,192,30378,128,0,30620:0:0:0:0:
64,192,30378,128,0,30459:0:0:0:0:
64,192,30540,128,0,30782:0:0:0:0:
320,192,30540,128,0,30701:0:0:0:0:
448,192,30701,128,0,30782:0:0:0:0:
320,192,30782,128,0,30943:0:0:0:0:
64,192,30862,128,0,30943:0:0:0:0:
448,192,30862,128,0,31104:0:0:0:0:
320,192,31023,128,0,31507:0:0:0:0:
64,192,31023,128,0,31265:0:0:0:0:
448,192,31185,128,0,31427:0:0:0:0:
192,192,31265,128,0,31427:0:0:0:0:
64,192,31346,128,0,31427:0:0:0:0:
448,192,31507,128,0,31749:0:0:0:0:
192,192,31507,128,0,31588:0:0:0:0:
64,192,31507,128,0,31911:0:0:0:0:
320,192,31588,128,0,31911:0:0:0:0:
192,192,31669,128,0,31749:0:0:0:0:
448,192,31830,128,0,32072:0:0:0:0:
192,192,31830,128,0,32072:0:0:0:0:
320,192,31991,128,0,32072:0:0:0:0:
64,192,31991,128,0,32233:0:0:0:0:
320,192,32153,128,0,32233:0:0:0:0:
448,192,32153,128,0,32394:0:0:0:0:
192,192,32153,128,0,32394:0:0:0:0:
64,192,32314,128,0,32394:0:0:0:0:
320,192,32314,128,0,32475:0:0:0:0:
448,192,32475,128,0,32556:0:0:0:0:
192,192,32475,128,0,32717:0:0:0:0:
64,192,32475,128,0,32556:0:0:0:0:
320,192,32556,128,0,32878:0:0:0:0:
64,192,32636,128,0,32717:0:0:0:0:
448,192,32636,128,0,32717:0:0:0:0:
448,192,32798,128,0,33040:0:0:0:0:
64,192,32798,128,0,33040:0:0:0:0:
192,192,32798,128,0,32878:0:0:0:0:
192,192,32959,128,0,33040:0:0:0:0:
320,192,32959,128,0,33201:0:0:0:0:
448,192,33120,128,0,33201:0:0:0:0:
64,192,33120,128,0,33362:0:0:0:0:
192,192,33120,128,0,33201:0:0:0:0:
320,192,33282,128,0,33362:0:0:0:0:
192,192,33282,128,0,33523:0:0:0:0:
448,192,33282,128,0,33523:0:0:0:0:
64,192,33443,128,0,33685:0:0:0:0:
320,192,33443,128,0,33685:0:0:0:0:
448,192,33604,128,0,33685:0:0:0:0:
192,192,33604,128,0,33765:0:0:0:0:
320,192,33765,128,0,33846:0:0:0:0:
64,192,33765,128,0,33846:0:0:0:0:
448,192,33765,128,0,33846:0:0:0:0:
192,192,33846,128,0,34007:0:0:0:0:
448,192,33927,128,0,34007:0:0:0:0:
64,192,33927,128,0,34169:0:0:0:0:
320,192,33927,128,0,34007:0:0:0:0:
192,192,34088,128,0,34169:0:0:0:0:
448,192,34088,128,0,34330:0:0:0:0:
320,192,34088,128,0,34169:0:0:0:0:
192,192,34249,128,0,34330:0:0:0:0:
64,192,34249,128,0,34330:0:0:0:0:
320,192,34249,128,0,34491:0:0:0:0:
448,192,34411,128,0,34491:0:0:0:0:
192,192,34411,128,0,34491:0:0:0:0:
64,192,34411,128,0,34975:0:0:0:0:
448,192,34572,128,0,34814:0:0:0:0:
320,192,34572,128,0,34653:0:0:0:0:
192,192,34572,128,0,34814:0:0:0:0:
320,192,34733,128,0,35298:0:0:0:0:
192,192,34894,128,0,34975:0:0:0:0:
448,192,34894,128,0,34975:0:0:0:0:
448,192,35056,128,0,35136:0:0:0:0:
64,192,35056,128,0,35136:0:0:0:0:
192,192,35056,128,0,35136:0:0:0:0:
448,192,35217,128,0,35298:0:0:0:0:
192,192,35217,128,0,35459:0:0:0:0:
64,192,35217,128,0,35620:0:0:0:0:
448,192,35378,128,0,35459:0:0:0:0:
320,192,35378,128,0,35620:0:0:0:0:
448,192,35540,128,0,35782:0:0:0:0:
192,192,35540,128,0,35782:0:0:0:0:
320,192,35701,128,0,35862:0:0:0:0:
64,192,35701,128,0,35943:0:0:0:0:
448,192,35862,128,0,35943:0:0:0:0:
192,192,35862,128,0,36023:0:0:0:0:
320,192,35943,128,0,36265:0:0:0:0:
448,192,36023,128,0,36104:0:0:0:0:
64,192,36023,128,0,36427:0:0:0:0:
192,192,36104,128,0,36265:0:0:0:0:
448,192,36185,128,0,36427:0:0:0:0:
320,192,36346,128,0,36588:0:0:0:0:
192,192,36346,128,0,36427:0:0:0:0:
448,192,36507,128,0,36749:0:0:0:0:
64,192,36507,128,0,36588:0:0:0:0:
192,192,36507,128,0,36749:0:0:0:0:
320,192,36669,128,0,36749:0:0:0:0:
64,192,36669,128,0,36830:0:0:0:0:
448,192,36830,128,0,36991:0:0:0:0:
192,192,36830,128,0,36991:0:0:0:0:
320,192,36830,128,0,36911:0:0:0:0:
64,192,36911,128,0,37072:0:0:0:0:
320,192,36991,128,0,37153:0:0:0:0:
192,192,37072,128,0,37153:0:0:0:0:
448,192,37072,128,0,37233:0:0:0:0:
64,192,37153,128,0,37233:0:0:0:0:
192,192,37233,128,0,37394:0:0:0:0:
320,192,37233,128,0,37314:0:0:0:0:
448,192,37314,128,0,37394:0:0:0:0:
64,192,37314,128,0,37475:0:0:0:0:
320,192,37394,128,0,37475:0:0:0:0:
192,192,37475,128,0,37556:0:0:0:0:
448,192,37475,128,0,37636:0:0:0:0:
320,192,37556,128,0,37636:0:0:0:0:
64,192,37556,128,0,37636:0:0:0:0:
192,192,37636,128,0,37717:0:0:0:0:
64,192,37717,128,0,37798:0:0:0:0:
320,192,37717,128,0,37798:0:0:0:0:
448,192,37717,128,0,37878:0:0:0:0:
192,192,37798,128,0,37878:0:0:0:0:
320,192,37878,128,0,37959:0:0:0:0:
64,192,37878,128,0,38120:0:0:0:0:
192,192,37959,128,0,38040:0:0:0:0:
448,192,37959,128,0,38201:0:0:0:0:
320,192,38040,128,0,38120:0:0:0:0:
192,192,38120,128,0,38201:0:0:0:0:
64,192,38201,128,0,38282:0:0:0:0:
320,192,38201,128,0,38282:0:0:0:0:
448,192,38282,128,0,38443:0:0:0:0:
192,192,38282,128,0,38362:0:0:0:0:
64,192,38362,128,0,38523:0:0:0:0:
320,192,38362,128,0,38443:0:0:0:0:
192,192,38443,128,0,38523:0:0:0:0:
448,192,38523,128,0,38604:0:0:0:0:
320,192,38523,128,0,38604:0:0:0:0:
64,192,38604,128,0,38765:0:0:0:0:
192,192,38604,128,0,38685:0:0:0:0:
320,192,38685,128,0,38765:0:0:0:0:
448,192,38685,128,0,38846:0:0:0:0:
192,192,38765,128,0,38846:0:0:0:0:
320,192,38846,128,0,38927:0:0:0:0:
64,192,38846,128,0,39169:0:0:0:0:
448,192,38927,128,0,39169:0:0:0:0:
192,192,38927,128,0,39330:0:0:0:0:
320,192,39007,128,0,39169:0:0:0:0:
320,192,39249,128,0,39491:0:0:0:0:
448,192,39249,128,0,39330:0:0:0:0:
64,192,39249,128,0,39330:0:0:0:0:
448,192,39411,128,0,39491:0:0:0:0:
192,192,39411,128,0,39491:0:0:0:0:
64,192,39411,128,0,39653:0:0:0:0:
320,192,39572,128,0,39653:0:0:0:0:
448,192,39572,128,0,39653:0:0:0:0:
192,192,39572,128,0,39653:0:0:0:0:
