osu file format v14

[General]
AudioFilename: audio.mp3
AudioLeadIn: 0
PreviewTime: 10620
Countdown: 0
SampleSet: None
StackLeniency: 0.7
Mode: 3
LetterboxInBreaks: 0
SpecialStyle: 0
WidescreenStoryboard: 1

[Editor]
Bookmarks: 7479
DistanceSpacing: 1.8
BeatDivisor: 4
GridSize: 8
TimelineZoom: 2.2

[Metadata]
Title:ReI
TitleUnicode:ReI
Artist:THE ORAL CIGARETTES
ArtistUnicode:THE ORAL CIGARETTES
Creator:Supicha
Version:Remia's 4K HD
Source:
Tags:Yamanaka Takuya Suzuki Shigenobu Akirakani Akira Nakanishi Masaya ReIproject -_Kurumi_- Regretful__ cmyui -_Eve_- Nsl0a SpicabuP sumabup Remiaaaaa BNY963 A_s_h_e_m_u Azusa_Zz slowstart Mah0 My_AngeI_Mathi Creamy_Candy Noko_BSF asuasu_yura Bokaminum
BeatmapID:1989509
BeatmapSetID:949614

[Difficulty]
HPDrainRate:3
CircleSize:4
OverallDifficulty:0
ApproachRate:10
SliderMultiplier:1.6
SliderTickRate:1

[Events]
//Background and Video events
0,0,"68146051_p0_masterdrtfd1200.jpg",0,0
//Break Periods
//Storyboard Layer 0 (Background)
//Storyboard Layer 1 (Fail)
//Storyboard Layer 2 (Pass)
//Storyboard Layer 3 (Foreground)
//Storyboard Sound Samples

[TimingPoints]
1024,322.58064516129,4,1,0,30,1,0
11346,-100,4,1,0,30,0,1
29330,-100,4,1,0,30,0,0

[HitObjects]
192,192,1024,128,0,1265:0:0:0:0:
64,192,1024,128,0,1265:0:0:0:0:
448,192,1024,128,0,1265:0:0:0:0:
320,192,1346,1,0,0:0:0:0:
192,192,1507,1,0,0:0:0:0:
448,192,1507,1,0,0:0:0:0:
320,192,1669,1,0,0:0:0:0:
64,192,1669,1,0,0:0:0:0:
192,192,1830,1,0,0:0:0:0:
448,192,1830,1,0,0:0:0:0:
192,192,1991,1,0,0:0:0:0:
448,192,1991,1,0,0:0:0:0:
448,192,2153,1,0,0:0:0:0:
64,192,2153,1,0,0:0:0:0:
64,192,2314,1,0,0:0:0:0:
320,192,2314,1,0,0:0:0:0:
192,192,2314,1,0,0:0:0:0:
192,192,2475,1,0,0:0:0:0:
448,192,2475,1,0,0:0:0:0:
448,192,2636,1,0,0:0:0:0:
64,192,2636,1,0,0:0:0:0:
320,192,2798,1,0,0:0:0:0:
192,192,2878,1,0,0:0:0:0:
448,192,2959,1,0,0:0:0:0:
64,192,2959,1,0,0:0:0:0:
192,192,3120,1,0,0:0:0:0:
448,192,3120,1,0,0:0:0:0:
320,192,3282,1,0,0:0:0:0:
64,192,3282,1,0,0:0:0:0:
64,192,3443,1,0,0:0:0:0:
448,192,3443,1,0,0:0:0:0:
448,192,3604,1,0,0:0:0:0:
192,192,3604,1,0,0:0:0:0:
64,192,3604,1,0,0:0:0:0:
64,192,3765,1,0,0:0:0:0:
192,192,3846,1,0,0:0:0:0:
320,192,3927,1,0,0:0:0:0:
448,192,3927,1,0,0:0:0:0:
192,192,4088,1,0,0:0:0:0:
448,192,4088,1,0,0:0:0:0:
448,192,4249,1,0,0:0:0:0:
320,192,4249,1,0,0:0:0:0:
64,192,4249,1,0,0:0:0:0:
192,192,4411,1,0,0:0:0:0:
448,192,4572,1,0,0:0:0:0:
64,192,4572,1,0,0:0:0:0:
320,192,4733,1,0,0:0:0:0:
64,192,4733,1,0,0:0:0:0:
320,192,4894,1,0,0:0:0:0:
448,192,4894,1,0,0:0:0:0:
192,192,4894,1,0,0:0:0:0:
64,192,4894,1,0,0:0:0:0:
64,192,5217,1,0,0:0:0:0:
320,192,5217,1,0,0:0:0:0:
448,192,5217,128,0,5540:0:0:0:0:
64,192,5378,1,0,0:0:0:0:
320,192,5378,1,0,0:0:0:0:
64,192,5540,1,0,0:0:0:0:
192,192,5540,1,0,0:0:0:0:
320,192,5701,1,0,0:0:0:0:
64,192,5701,1,0,0:0:0:0:
448,192,5862,1,0,0:0:0:0:
192,192,5862,1,0,0:0:0:0:
448,192,6023,1,0,0:0:0:0:
64,192,6023,1,0,0:0:0:0:
192,192,6185,1,0,0:0:0:0:
448,192,6185,1,0,0:0:0:0:
448,192,6346,1,0,0:0:0:0:
192,192,6346,1,0,0:0:0:0:
36,192,6507,5,0,0:0:0:0:
320,192,6507,1,0,0:0:0:0:
192,192,6588,1,0,0:0:0:0:
320,192,6669,1,0,0:0:0:0:
448,192,6749,1,0,0:0:0:0:
320,192,6830,1,0,0:0:0:0:
192,192,6911,1,0,0:0:0:0:
320,192,6991,1,0,0:0:0:0:
402,192,7072,1,0,0:0:0:0:
64,192,7153,1,0,0:0:0:0:
192,192,7233,1,0,0:0:0:0:
320,192,7314,1,0,0:0:0:0:
448,192,7394,1,0,0:0:0:0:
320,192,7475,1,0,0:0:0:0:
64,192,7475,1,0,0:0:0:0:
192,192,7475,1,0,0:0:0:0:
448,192,7798,1,0,0:0:0:0:
320,192,7878,1,0,0:0:0:0:
192,192,7959,1,0,0:0:0:0:
64,192,8040,1,0,0:0:0:0:
192,192,8120,1,0,0:0:0:0:
320,192,8201,1,0,0:0:0:0:
448,192,8282,1,0,0:0:0:0:
320,192,8362,1,0,0:0:0:0:
192,192,8443,1,0,0:0:0:0:
64,192,8523,1,0,0:0:0:0:
192,192,8604,1,0,0:0:0:0:
448,192,8765,1,0,0:0:0:0:
320,192,8846,1,0,0:0:0:0:
192,192,8927,1,0,0:0:0:0:
448,192,9088,1,0,0:0:0:0:
64,192,9088,1,0,0:0:0:0:
448,192,9249,1,0,0:0:0:0:
64,192,9249,1,0,0:0:0:0:
448,192,9411,1,0,0:0:0:0:
64,192,9411,1,0,0:0:0:0:
192,192,9572,1,0,0:0:0:0:
320,192,9572,1,0,0:0:0:0:
320,192,9733,1,0,0:0:0:0:
192,192,9733,1,0,0:0:0:0:
64,192,9894,1,0,0:0:0:0:
448,192,9894,1,0,0:0:0:0:
448,192,10056,1,0,0:0:0:0:
64,192,10056,1,0,0:0:0:0:
320,192,10136,1,0,0:0:0:0:
192,192,10217,1,0,0:0:0:0:
64,192,10298,1,0,0:0:0:0:
448,192,10378,1,0,0:0:0:0:
192,192,10378,1,0,0:0:0:0:
320,192,10378,1,0,0:0:0:0:
448,192,10540,1,0,0:0:0:0:
192,192,10540,1,0,0:0:0:0:
448,192,10701,128,0,10943:0:0:0:0:
192,192,10701,128,0,10943:0:0:0:0:
64,192,10701,128,0,10943:0:0:0:0:
320,192,10701,128,0,10943:0:0:0:0:
448,192,11023,128,0,11265:0:0:0:0:
320,192,11023,128,0,11265:0:0:0:0:
192,192,11023,128,0,11265:0:0:0:0:
64,192,11023,128,0,11265:0:0:0:0:
192,192,11346,1,0,0:0:0:0:
448,192,11346,1,0,0:0:0:0:
320,192,11507,1,0,0:0:0:0:
192,192,11669,1,0,0:0:0:0:
448,192,11669,1,0,0:0:0:0:
64,192,11830,1,0,0:0:0:0:
320,192,11830,1,0,0:0:0:0:
192,192,11991,1,0,0:0:0:0:
320,192,12153,1,0,0:0:0:0:
448,192,12153,1,0,0:0:0:0:
64,192,12153,1,0,0:0:0:0:
448,192,12314,1,0,0:0:0:0:
192,192,12314,1,0,0:0:0:0:
448,192,12475,1,0,0:0:0:0:
192,192,12475,1,0,0:0:0:0:
448,192,12636,128,0,12878:0:0:0:0:
64,192,12636,1,0,0:0:0:0:
192,192,12798,1,0,0:0:0:0:
64,192,12959,1,0,0:0:0:0:
320,192,12959,1,0,0:0:0:0:
320,192,13120,1,0,0:0:0:0:
64,192,13282,128,0,13523:0:0:0:0:
448,192,13282,1,0,0:0:0:0:
192,192,13282,1,0,0:0:0:0:
320,192,13443,1,0,0:0:0:0:
192,192,13604,1,0,0:0:0:0:
448,192,13604,1,0,0:0:0:0:
192,192,13765,1,0,0:0:0:0:
448,192,13765,1,0,0:0:0:0:
64,192,13927,1,0,0:0:0:0:
320,192,13927,1,0,0:0:0:0:
448,192,13927,128,0,14169:0:0:0:0:
192,192,14088,1,0,0:0:0:0:
64,192,14249,1,0,0:0:0:0:
192,192,14411,1,0,0:0:0:0:
448,192,14411,1,0,0:0:0:0:
320,192,14572,1,0,0:0:0:0:
192,192,14733,1,0,0:0:0:0:
448,192,14733,1,0,0:0:0:0:
320,192,14894,1,0,0:0:0:0:
64,192,14894,1,0,0:0:0:0:
448,192,15056,1,0,0:0:0:0:
192,192,15056,1,0,0:0:0:0:
448,192,15217,1,0,0:0:0:0:
192,192,15217,1,0,0:0:0:0:
448,192,15378,1,0,0:0:0:0:
64,192,15378,1,0,0:0:0:0:
192,192,15378,1,0,0:0:0:0:
320,192,15540,1,0,0:0:0:0:
64,192,15540,1,0,0:0:0:0:
192,192,15701,1,0,0:0:0:0:
448,192,15701,1,0,0:0:0:0:
448,192,15862,1,0,0:0:0:0:
64,192,15862,1,0,0:0:0:0:
64,192,16023,1,0,0:0:0:0:
320,192,16023,1,0,0:0:0:0:
448,192,16185,128,0,16507:0:0:0:0:
64,192,16185,1,0,0:0:0:0:
192,192,16346,1,0,0:0:0:0:
64,192,16507,1,0,0:0:0:0:
64,192,16669,128,0,16830:0:0:0:0:
320,192,16669,1,0,0:0:0:0:
448,192,16830,1,0,0:0:0:0:
320,192,16911,1,0,0:0:0:0:
192,192,16991,1,0,0:0:0:0:
64,192,17072,1,0,0:0:0:0:
448,192,17153,1,0,0:0:0:0:
192,192,17153,1,0,0:0:0:0:
320,192,17153,1,0,0:0:0:0:
64,192,17314,1,0,0:0:0:0:
320,192,17314,1,0,0:0:0:0:
192,192,17314,1,0,0:0:0:0:
448,192,17314,1,0,0:0:0:0:
64,192,17475,1,0,0:0:0:0:
192,192,17556,1,0,0:0:0:0:
320,192,17636,1,0,0:0:0:0:
448,192,17717,1,0,0:0:0:0:
192,192,17798,1,0,0:0:0:0:
320,192,17798,1,0,0:0:0:0:
64,192,17798,1,0,0:0:0:0:
448,192,17959,1,0,0:0:0:0:
192,192,17959,1,0,0:0:0:0:
320,192,17959,1,0,0:0:0:0:
64,192,17959,1,0,0:0:0:0:
448,192,18120,1,0,0:0:0:0:
320,192,18201,1,0,0:0:0:0:
192,192,18282,1,0,0:0:0:0:
64,192,18362,1,0,0:0:0:0:
192,192,18443,1,0,0:0:0:0:
320,192,18523,1,0,0:0:0:0:
448,192,18604,1,0,0:0:0:0:
320,192,18685,1,0,0:0:0:0:
192,192,18765,1,0,0:0:0:0:
448,192,18765,128,0,19088:0:0:0:0:
64,192,18927,1,0,0:0:0:0:
320,192,19088,128,0,19572:0:0:0:0:
64,192,19088,1,0,0:0:0:0:
192,192,19249,1,0,0:0:0:0:
448,192,19411,1,0,0:0:0:0:
448,192,19572,128,0,19733:0:0:0:0:
192,192,19572,1,0,0:0:0:0:
64,192,19733,1,0,0:0:0:0:
192,192,19814,1,0,0:0:0:0:
320,192,19894,1,0,0:0:0:0:
448,192,19975,1,0,0:0:0:0:
320,192,20056,1,0,0:0:0:0:
192,192,20136,1,0,0:0:0:0:
64,192,20217,1,0,0:0:0:0:
192,192,20298,1,0,0:0:0:0:
320,192,20378,1,0,0:0:0:0:
448,192,20459,1,0,0:0:0:0:
320,192,20540,1,0,0:0:0:0:
192,192,20620,1,0,0:0:0:0:
64,192,20701,1,0,0:0:0:0:
448,192,20782,1,0,0:0:0:0:
320,192,20862,1,0,0:0:0:0:
192,192,20943,1,0,0:0:0:0:
448,192,21023,1,0,0:0:0:0:
320,192,21104,1,0,0:0:0:0:
192,192,21185,1,0,0:0:0:0:
64,192,21265,1,0,0:0:0:0:
192,192,21346,1,0,0:0:0:0:
320,192,21427,1,0,0:0:0:0:
448,192,21507,1,0,0:0:0:0:
320,192,21588,1,0,0:0:0:0:
64,192,21669,1,0,0:0:0:0:
192,192,21669,1,0,0:0:0:0:
448,192,21830,1,0,0:0:0:0:
192,192,21830,1,0,0:0:0:0:
448,192,21991,1,0,0:0:0:0:
192,192,21991,1,0,0:0:0:0:
320,192,22153,1,0,0:0:0:0:
64,192,22153,1,0,0:0:0:0:
448,192,22314,1,0,0:0:0:0:
64,192,22314,128,0,22636:0:0:0:0:
192,192,22636,1,0,0:0:0:0:
448,192,22636,128,0,22959:0:0:0:0:
320,192,22959,1,0,0:0:0:0:
64,192,22959,1,0,0:0:0:0:
192,192,23120,1,0,0:0:0:0:
448,192,23282,1,0,0:0:0:0:
64,192,23282,1,0,0:0:0:0:
320,192,23443,1,0,0:0:0:0:
448,192,23604,1,0,0:0:0:0:
192,192,23604,1,0,0:0:0:0:
64,192,23765,1,0,0:0:0:0:
448,192,23765,1,0,0:0:0:0:
64,192,23927,1,0,0:0:0:0:
448,192,23927,1,0,0:0:0:0:
320,192,24088,1,0,0:0:0:0:
192,192,24088,1,0,0:0:0:0:
64,192,24088,1,0,0:0:0:0:
320,192,24249,1,0,0:0:0:0:
448,192,24249,1,0,0:0:0:0:
192,192,24411,1,0,0:0:0:0:
64,192,24411,1,0,0:0:0:0:
192,192,24572,1,0,0:0:0:0:
448,192,24572,1,0,0:0:0:0:
64,192,24733,1,0,0:0:0:0:
320,192,24733,1,0,0:0:0:0:
192,192,24894,1,0,0:0:0:0:
64,192,24894,1,0,0:0:0:0:
320,192,25056,1,0,0:0:0:0:
64,192,25056,1,0,0:0:0:0:
448,192,25056,1,0,0:0:0:0:
192,192,25217,1,0,0:0:0:0:
448,192,25217,1,0,0:0:0:0:
64,192,25217,1,0,0:0:0:0:
448,192,25378,1,0,0:0:0:0:
192,192,25378,1,0,0:0:0:0:
320,192,25540,1,0,0:0:0:0:
64,192,25540,1,0,0:0:0:0:
448,192,25701,1,0,0:0:0:0:
192,192,25862,1,0,0:0:0:0:
64,192,25862,1,0,0:0:0:0:
320,192,26023,1,0,0:0:0:0:
64,192,26023,1,0,0:0:0:0:
64,192,26185,1,0,0:0:0:0:
448,192,26185,1,0,0:0:0:0:
192,192,26346,1,0,0:0:0:0:
448,192,26346,1,0,0:0:0:0:
320,192,26507,1,0,0:0:0:0:
64,192,26507,1,0,0:0:0:0:
192,192,26669,1,0,0:0:0:0:
448,192,26669,1,0,0:0:0:0:
64,192,26669,1,0,0:0:0:0:
320,192,26830,1,0,0:0:0:0:
64,192,26830,1,0,0:0:0:0:
192,192,26991,1,0,0:0:0:0:
448,192,26991,1,0,0:0:0:0:
64,192,27153,1,0,0:0:0:0:
448,192,27153,1,0,0:0:0:0:
448,192,27314,1,0,0:0:0:0:
192,192,27314,1,0,0:0:0:0:
64,192,27475,1,0,0:0:0:0:
320,192,27475,1,0,0:0:0:0:
192,192,27636,1,0,0:0:0:0:
448,192,27636,1,0,0:0:0:0:
448,192,27798,1,0,0:0:0:0:
320,192,27798,1,0,0:0:0:0:
64,192,27798,1,0,0:0:0:0:
448,192,27959,1,0,0:0:0:0:
192,192,27959,1,0,0:0:0:0:
448,192,28120,1,0,0:0:0:0:
192,192,28120,1,0,0:0:0:0:
192,192,28282,1,0,0:0:0:0:
64,192,28282,1,0,0:0:0:0:
320,192,28362,1,0,0:0:0:0:
448,192,28443,1,0,0:0:0:0:
64,192,28443,1,0,0:0:0:0:
448,192,28604,1,0,0:0:0:0:
192,192,28604,1,0,0:0:0:0:
320,192,28765,1,0,0:0:0:0:
448,192,28927,1,0,0:0:0:0:
192,192,28927,1,0,0:0:0:0:
448,192,29088,1,0,0:0:0:0:
64,192,29088,1,0,0:0:0:0:
320,192,29249,1,0,0:0:0:0:
64,192,29249,1,0,0:0:0:0:
192,192,29411,1,0,0:0:0:0:
448,192,29411,1,0,0:0:0:0:
320,192,29572,1,0,0:0:0:0:
64,192,29733,1,0,0:0:0:0:
448,192,29733,1,0,0:0:0:0:
320,192,29894,1,0,0:0:0:0:
192,192,30056,1,0,0:0:0:0:
448,192,30217,1,0,0:0:0:0:
64,192,30217,1,0,0:0:0:0:
320,192,30378,1,0,0:0:0:0:
64,192,30378,1,0,0:0:0:0:
448,192,30540,1,0,0:0:0:0:
192,192,30540,1,0,0:0:0:0:
320,192,30701,1,0,0:0:0:0:
64,192,30701,1,0,0:0:0:0:
448,192,30862,1,0,0:0:0:0:
64,192,30862,1,0,0:0:0:0:
320,192,31023,1,0,0:0:0:0:
64,192,31023,1,0,0:0:0:0:
448,192,31185,1,0,0:0:0:0:
192,192,31185,1,0,0:0:0:0:
320,192,31346,1,0,0:0:0:0:
64,192,31346,1,0,0:0:0:0:
192,192,31507,1,0,0:0:0:0:
448,192,31507,1,0,0:0:0:0:
448,192,31669,1,0,0:0:0:0:
64,192,31669,1,0,0:0:0:0:
320,192,31830,1,0,0:0:0:0:
64,192,31830,1,0,0:0:0:0:
448,192,31991,1,0,0:0:0:0:
192,192,31991,1,0,0:0:0:0:
320,192,32153,1,0,0:0:0:0:
448,192,32314,1,0,0:0:0:0:
64,192,32314,1,0,0:0:0:0:
192,192,32475,1,0,0:0:0:0:
320,192,32556,1,0,0:0:0:0:
448,192,32636,1,0,0:0:0:0:
64,192,32636,1,0,0:0:0:0:
320,192,32798,1,0,0:0:0:0:
448,192,32959,1,0,0:0:0:0:
192,192,32959,1,0,0:0:0:0:
64,192,32959,1,0,0:0:0:0:
320,192,33120,1,0,0:0:0:0:
64,192,33120,1,0,0:0:0:0:
448,192,33282,1,0,0:0:0:0:
192,192,33282,1,0,0:0:0:0:
320,192,33443,1,0,0:0:0:0:
448,192,33604,1,0,0:0:0:0:
64,192,33604,1,0,0:0:0:0:
192,192,33604,1,0,0:0:0:0:
320,192,33765,1,0,0:0:0:0:
448,192,33927,1,0,0:0:0:0:
64,192,33927,1,0,0:0:0:0:
320,192,34088,1,0,0:0:0:0:
64,192,34088,1,0,0:0:0:0:
448,192,34249,1,0,0:0:0:0:
192,192,34249,1,0,0:0:0:0:
320,192,34411,1,0,0:0:0:0:
448,192,34572,1,0,0:0:0:0:
192,192,34572,1,0,0:0:0:0:
64,192,34572,1,0,0:0:0:0:
320,192,34733,1,0,0:0:0:0:
448,192,34894,1,0,0:0:0:0:
192,192,34894,1,0,0:0:0:0:
320,192,35056,1,0,0:0:0:0:
320,192,35217,1,0,0:0:0:0:
64,192,35217,1,0,0:0:0:0:
448,192,35217,1,0,0:0:0:0:
192,192,35378,1,0,0:0:0:0:
448,192,35540,1,0,0:0:0:0:
192,192,35540,1,0,0:0:0:0:
64,192,35701,1,0,0:0:0:0:
320,192,35701,1,0,0:0:0:0:
192,192,35862,1,0,0:0:0:0:
448,192,36023,1,0,0:0:0:0:
64,192,36023,1,0,0:0:0:0:
192,192,36185,1,0,0:0:0:0:
448,192,36185,1,0,0:0:0:0:
320,192,36346,1,0,0:0:0:0:
64,192,36507,1,0,0:0:0:0:
448,192,36507,1,0,0:0:0:0:
320,192,36669,1,0,0:0:0:0:
64,192,36830,1,0,0:0:0:0:
448,192,36991,1,0,0:0:0:0:
192,192,36991,1,0,0:0:0:0:
448,192,37314,1,0,0:0:0:0:
192,192,37314,1,0,0:0:0:0:
320,192,37475,1,0,0:0:0:0:
64,192,37475,1,0,0:0:0:0:
448,192,37798,1,0,0:0:0:0:
192,192,37798,1,0,0:0:0:0:
320,192,37878,1,0,0:0:0:0:
192,192,37959,1,0,0:0:0:0:
64,192,37959,1,0,0:0:0:0:
64,192,38282,1,0,0:0:0:0:
320,192,38282,1,0,0:0:0:0:
192,192,38362,1,0,0:0:0:0:
320,192,38443,1,0,0:0:0:0:
448,192,38443,1,0,0:0:0:0:
448,192,38765,1,0,0:0:0:0:
64,192,38765,1,0,0:0:0:0:
320,192,38846,1,0,0:0:0:0:
192,192,38927,1,0,0:0:0:0:
64,192,38927,1,0,0:0:0:0:
64,192,39249,1,0,0:0:0:0:
192,192,39249,1,0,0:0:0:0:
448,192,39249,1,0,0:0:0:0:
64,192,39411,1,0,0:0:0:0:
448,192,39411,1,0,0:0:0:0:
320,192,39411,1,0,0:0:0:0:
320,192,39572,1,0,0:0:0:0:
192,192,39572,1,0,0:0:0:0:
64,192,39572,1,0,0:0:0:0:
