osu file format v14

[General]
AudioFilename: audio.mp3
AudioLeadIn: 0
PreviewTime: 10620
Countdown: 0
SampleSet: None
StackLeniency: 0.7
Mode: 0
LetterboxInBreaks: 0
WidescreenStoryboard: 0

[Editor]
DistanceSpacing: 0.6
BeatDivisor: 4
GridSize: 32
TimelineZoom: 2.2

[Metadata]
Title:ReI
TitleUnicode:ReI
Artist:THE ORAL CIGARETTES
ArtistUnicode:THE ORAL CIGARETTES
Creator:Supicha
Version:Creamy's Juicy PP
Source:
Tags:Yamanaka Takuya Suzuki Shigenobu Akirakani Akira Nakanishi Masaya ReIproject -_Kurumi_- Regretful__ cmyui -_Eve_- Nsl0a SpicabuP sumabup Remiaaaaa BNY963 A_s_h_e_m_u Azusa_Zz slowstart Mah0 My_AngeI_Mathi Creamy_Candy Noko_BSF asuasu_yura Bokaminum
BeatmapID:1990953
BeatmapSetID:949614

[Difficulty]
HPDrainRate:4.5
CircleSize:3.8
OverallDifficulty:9
ApproachRate:9.6
SliderMultiplier:1.6
SliderTickRate:1

[Events]
//Background and Video events
0,0,"68146051_p0_masterdrtfd1200.jpg",0,0
//Break Periods
//Storyboard Layer 0 (Background)
//Storyboard Layer 1 (Fail)
//Storyboard Layer 2 (Pass)
//Storyboard Layer 3 (Foreground)
//Storyboard Sound Samples

[TimingPoints]
1024,322.58064516129,4,2,1,60,1,0
6507,-100,4,2,1,60,0,0
6669,-66.6666666666667,4,2,1,60,0,0
9411,-100,4,2,1,60,0,0
10217,-66.6666666666667,4,2,1,60,0,0
10701,-66.6666666666667,4,2,1,30,0,0
11346,-66.6666666666667,4,2,1,80,0,0
12636,-100,4,2,1,80,0,0
16462,-100,4,2,1,80,0,0
16507,-76.9230769230769,4,2,1,80,0,0
17153,-66.6666666666667,4,2,1,80,0,0
17798,-58.8235294117647,4,2,1,80,0,0
18443,-52.6315789473684,4,2,1,80,0,0
19088,-47.6190476190476,4,2,1,80,0,0
21023,-66.6666666666667,4,2,1,80,0,0
29411,-66.6666666666667,4,2,1,70,0,0
36023,-66.6666666666667,4,2,1,80,0,0

[HitObjects]
74,164,1024,6,0,P|110:137|148:124,1,80,6|0,0:0|0:0,0:0:0:0:
207,54,1346,2,0,P|263:59|314:76,1,80,2|0,0:0|0:0,0:0:0:0:
382,65,1669,2,0,P|404:109|412:148,1,80,2|0,0:0|0:0,0:0:0:0:
464,217,1991,2,0,P|453:255|421:300,1,80,2|0,0:0|0:0,0:0:0:0:
150,245,2314,5,6,0:0:0:0:
264,161,2475,1,0,0:0:0:0:
301,355,2636,2,0,L|202:351,1,80,2|0,0:0|0:0,0:0:0:0:
70,248,2959,2,0,L|169:244,1,80,2|0,0:0|0:0,0:0:0:0:
1,305,3282,2,0,P|-17:230|18:175,1,120,2|0,0:0|0:0,0:0:0:0:
10,174,3604,6,0,P|43:127|36:90,1,80,6|0,0:0|0:0,0:0:0:0:
163,33,3927,2,0,P|177:94|200:121,1,80,2|0,0:0|0:0,0:0:0:0:
381,255,4249,2,0,P|367:190|257:180,1,160,6|2,0:0|0:0,0:0:0:0:
188,223,4733,1,0,0:0:0:0:
367,36,4894,6,0,L|482:43,1,80,6|0,0:0|0:0,0:0:0:0:
285,164,5217,2,0,L|170:171,1,80,2|0,0:0|0:0,0:0:0:0:
354,47,5540,2,0,L|469:54,1,80,0|0,0:0|0:0,0:0:0:0:
298,152,5862,2,0,L|183:159,1,80,2|0,0:0|0:0,0:0:0:0:
510,11,6185,5,4,0:0:0:0:
435,245,6507,1,2,3:2:0:0:
435,245,6588,1,2,3:2:0:0:
435,245,6669,2,2,L|351:232,1,60.0000022888184,2|2,3:2|3:2,3:2:0:0:
218,156,6830,1,2,3:2:0:0:
185,171,6911,1,2,3:2:0:0:
150,180,6991,1,2,3:2:0:0:
113,181,7072,1,0,1:2:0:0:
79,168,7153,1,0,1:0:0:0:
68,133,7233,1,0,1:2:0:0:
78,98,7314,1,8,0:0:0:0:
107,77,7394,1,8,0:0:0:0:
143,79,7475,6,0,L|167:267,1,180.000006866455,6|0,0:0|0:0,0:0:0:0:
34,355,7798,1,2,1:2:0:0:
67,329,7878,1,0,1:2:0:0:
109,329,7959,1,0,1:2:0:0:
148,343,8040,1,0,1:0:0:0:
189,344,8120,1,10,0:0:0:0:
228,329,8201,1,8,0:0:0:0:
254,296,8282,1,8,0:0:0:0:
262,255,8362,1,8,0:0:0:0:
253,213,8443,2,2,L|173:208,1,60.0000022888184,2|2,3:2|3:2,3:2:0:0:
62,289,8604,2,2,L|142:284,1,60.0000022888184,2|2,3:2|3:2,3:2:0:0:
338,163,8765,5,4,0:0:0:0:
280,60,8927,1,2,0:0:0:0:
218,316,9088,1,8,0:0:0:0:
471,243,9249,1,0,0:0:0:0:
176,130,9411,2,0,L|192:208,1,80,2|2,0:0|0:0,0:0:0:0:
404,69,9733,1,8,0:0:0:0:
154,133,9894,1,0,0:0:0:0:
445,366,10056,5,2,3:2:0:0:
445,366,10136,1,2,3:2:0:0:
445,366,10217,2,0,L|423:256,1,60.0000022888184,2|2,3:2|3:2,0:0:0:0:
404,69,10378,1,8,0:0:0:0:
179,258,11346,5,12,0:0:0:0:
155,104,11507,1,2,0:0:0:0:
299,164,11669,5,8,0:0:0:0:
71,269,11830,1,2,0:0:0:0:
268,57,11991,5,8,0:0:0:0:
279,317,12153,1,2,0:0:0:0:
81,173,12314,5,8,0:0:0:0:
375,240,12475,1,2,0:0:0:0:
90,346,12636,6,0,L|62:232,1,80,12|2,0:0|0:0,0:0:0:0:
213,121,12959,5,8,0:0:0:0:
0,204,13120,1,2,0:0:0:0:
258,345,13282,5,8,0:0:0:0:
206,100,13443,1,2,0:0:0:0:
73,349,13604,5,8,0:0:0:0:
399,284,13765,1,2,0:0:0:0:
399,284,13846,1,0,0:0:0:0:
399,284,13927,5,12,0:0:0:0:
175,229,14088,1,2,0:0:0:0:
376,384,14249,5,8,0:0:0:0:
434,151,14411,1,2,0:0:0:0:
97,328,14572,5,12,0:0:0:0:
79,188,14733,1,2,0:0:0:0:
276,367,14894,5,8,0:0:0:0:
323,96,15056,1,2,0:0:0:0:
323,96,15136,1,2,0:0:0:0:
323,96,15217,5,12,0:0:0:0:
94,184,15378,1,2,0:0:0:0:
434,221,15540,5,12,0:0:0:0:
162,93,15701,1,2,0:0:0:0:
299,348,15862,5,12,0:0:0:0:
373,19,16023,1,2,0:0:0:0:
159,269,16185,5,12,0:0:0:0:
512,169,16346,1,2,0:0:0:0:
512,169,16427,1,0,0:0:0:0:
512,169,16507,6,0,L|354:153,1,155.999992858887,6|0,0:0|0:0,0:0:0:0:
239,80,16830,1,0,1:0:0:0:
200,106,16911,1,0,1:0:0:0:
155,118,16991,1,0,1:0:0:0:
108,120,17072,1,8,1:2:0:0:
61,110,17153,6,0,P|156:95|225:178,1,180.000006866455,14|0,0:0|0:0,0:0:0:0:
152,351,17475,1,0,1:0:0:0:
145,309,17556,1,0,1:0:0:0:
138,267,17636,1,0,1:0:0:0:
132,225,17717,1,0,1:3:0:0:
125,183,17798,6,0,B|259:170|259:170|292:181|330:218,1,204.000003890991,14|0,0:0|0:0,0:0:0:0:
421,298,18120,1,0,1:0:0:0:
444,263,18201,1,0,1:0:0:0:
460,224,18282,1,0,1:0:0:0:
458,182,18362,1,8,1:2:0:0:
441,142,18443,6,0,B|348:138|348:138|283:169|283:169|175:175,1,227.999993911743,14|0,0:0|0:0,0:0:0:0:
35,68,18765,1,0,1:0:0:0:
87,79,18846,1,0,1:0:0:0:
122,118,18927,1,0,1:0:0:0:
139,167,19007,1,8,1:2:0:0:
132,225,19088,6,0,P|118:150|276:86,1,251.999992309571,14|0,0:0|0:0,0:0:0:0:
357,300,19411,1,0,1:0:0:0:
326,271,19491,1,0,1:0:0:0:
313,230,19572,1,0,1:0:0:0:
329,191,19653,1,0,1:0:0:0:
360,163,19733,1,8,1:2:0:0:
394,138,19814,1,8,2:2:0:0:
414,101,19894,1,8,0:0:0:0:
420,59,19975,1,8,2:2:0:0:
405,19,20056,1,10,0:0:0:0:
366,2,20136,1,8,0:0:0:0:
324,10,20217,1,8,0:0:0:0:
306,48,20298,1,8,0:0:0:0:
309,89,20378,1,10,0:0:0:0:
337,131,20459,5,2,3:2:0:0:
286,100,20540,1,2,3:2:0:0:
227,98,20620,1,2,3:2:0:0:
172,121,20701,1,2,3:2:0:0:
132,164,20782,1,2,3:2:0:0:
76,181,20862,1,2,3:2:0:0:
22,155,20943,1,2,3:2:0:0:
16,96,21023,6,0,L|23:32,1,60.0000022888184,10|8,0:0|0:0,0:0:0:0:
92,275,21185,2,0,L|98:334,1,60.0000022888184,8|0,0:0|0:0,0:0:0:0:
157,99,21346,1,10,0:0:0:0:
190,86,21427,1,8,0:0:0:0:
225,84,21507,1,8,0:0:0:0:
260,92,21588,1,8,0:0:0:0:
289,112,21669,5,2,0:0:0:0:
360,216,21830,1,2,0:0:0:0:
480,17,21991,1,8,0:0:0:0:
499,189,22153,1,0,0:0:0:0:
499,189,22233,1,8,0:0:0:0:
499,189,22314,1,2,0:0:0:0:
368,48,22475,1,2,0:0:0:0:
164,253,22636,2,0,P|247:218|336:207,1,180.000006866455,8|0,0:0|0:0,0:0:0:0:
449,115,22959,6,0,P|414:172|458:272,1,180.000006866455,6|0,0:0|0:0,0:0:0:0:
492,346,23282,6,0,P|405:299|308:325,1,180.000006866455,6|0,0:0|0:0,0:0:0:0:
218,357,23604,6,0,P|310:284|280:198,1,180.000006866455,6|0,0:0|0:0,0:0:0:0:
296,213,23927,6,0,P|223:195|232:273,1,180.000006866455,6|6,0:0|0:0,0:0:0:0:
331,331,24249,6,0,P|403:210|366:135,1,180.000006866455,6|0,0:0|0:0,0:0:0:0:
345,98,24572,5,8,0:0:0:0:
487,226,24733,1,8,0:0:0:0:
511,35,24894,5,8,0:0:0:0:
332,118,25056,1,8,0:0:0:0:
503,215,25217,5,8,0:0:0:0:
426,11,25378,1,8,0:0:0:0:
350,285,25540,5,8,0:0:0:0:
477,127,25701,1,8,0:0:0:0:
252,154,25862,5,8,0:0:0:0:
458,310,26023,1,8,0:0:0:0:
293,40,26185,5,8,0:0:0:0:
213,270,26346,1,8,0:0:0:0:
398,137,26507,5,8,0:0:0:0:
153,51,26669,1,8,0:0:0:0:
389,298,26830,1,12,0:0:0:0:
400,24,26991,5,2,0:0:0:0:
134,193,27153,1,2,0:0:0:0:
512,215,27314,1,12,0:0:0:0:
250,121,27475,5,2,0:0:0:0:
324,354,27636,1,2,0:0:0:0:
400,24,27798,1,12,0:0:0:0:
178,283,27959,5,2,0:0:0:0:
488,204,28120,1,2,0:0:0:0:
109,180,28282,1,12,0:0:0:0:
431,362,28443,5,2,0:0:0:0:
458,107,28604,1,2,0:0:0:0:
184,357,28765,1,14,3:2:0:0:
181,320,28846,1,2,3:2:0:0:
178,283,28927,1,2,3:2:0:0:
175,247,29007,1,2,3:2:0:0:
176,210,29088,1,6,0:0:0:0:
176,210,29411,5,8,0:0:0:0:
348,309,29572,1,2,0:0:0:0:
33,265,29733,5,8,0:0:0:0:
312,184,29894,1,2,0:0:0:0:
80,374,30056,5,8,0:0:0:0:
85,60,30217,1,2,0:0:0:0:
356,325,30378,5,12,0:0:0:0:
0,167,30540,1,8,0:0:0:0:
329,161,30701,5,2,0:0:0:0:
38,284,30862,1,8,0:0:0:0:
241,13,31023,5,12,0:0:0:0:
266,355,31185,1,2,0:0:0:0:
488,124,31346,5,12,0:0:0:0:
160,255,31507,1,2,0:0:0:0:
160,255,31588,1,2,0:0:0:0:
160,255,31669,5,12,0:0:0:0:
391,331,31830,1,2,0:0:0:0:
226,82,31991,5,8,0:0:0:0:
322,382,32153,1,2,0:0:0:0:
377,29,32314,5,8,0:0:0:0:
123,235,32475,1,2,0:0:0:0:
422,296,32636,5,8,0:0:0:0:
287,22,32798,1,2,0:0:0:0:
202,373,32959,5,8,0:0:0:0:
392,0,33120,1,12,0:0:0:0:
131,189,33282,5,2,0:0:0:0:
489,245,33443,1,8,0:0:0:0:
182,40,33604,5,12,0:0:0:0:
303,384,33765,1,2,0:0:0:0:
303,384,33846,1,2,0:0:0:0:
303,384,33927,5,12,0:0:0:0:
420,158,34088,1,2,0:0:0:0:
98,317,34249,5,12,0:0:0:0:
57,20,34411,1,2,0:0:0:0:
256,288,34572,5,8,0:0:0:0:
307,38,34733,1,2,0:0:0:0:
47,165,34894,5,8,0:0:0:0:
393,211,35056,1,2,0:0:0:0:
151,46,35217,5,8,0:0:0:0:
155,337,35378,1,2,0:0:0:0:
403,113,35540,5,8,0:0:0:0:
0,249,35701,1,12,0:0:0:0:
368,300,35862,5,2,0:0:0:0:
7,157,36023,1,8,0:0:0:0:
398,17,36185,5,12,0:0:0:0:
31,270,36346,1,2,0:0:0:0:
31,270,36427,1,2,0:0:0:0:
31,270,36507,5,12,0:0:0:0:
393,271,36669,1,2,0:0:0:0:
65,1,36830,5,12,0:0:0:0:
149,372,36991,1,12,0:0:0:0:
61,140,37314,5,8,0:0:0:0:
496,226,37475,1,8,0:0:0:0:
264,98,37636,1,2,0:0:0:0:
264,98,37717,1,2,0:0:0:0:
264,98,37798,1,8,0:0:0:0:
401,369,37959,5,8,0:0:0:0:
499,28,38120,1,2,0:0:0:0:
499,28,38201,1,2,0:0:0:0:
499,28,38282,1,8,0:0:0:0:
86,244,38443,5,8,0:0:0:0:
503,171,38604,1,2,0:0:0:0:
503,171,38685,1,2,0:0:0:0:
503,171,38765,1,12,0:0:0:0:
183,93,38927,5,12,0:0:0:0:
351,269,39088,1,0,0:0:0:0:
423,47,39249,5,12,0:0:0:0:
254,375,39411,1,12,0:0:0:0:
89,47,39572,1,12,0:0:0:0:
