osu file format v14

[General]
AudioFilename: audio.mp3
AudioLeadIn: 0
PreviewTime: 85604
Countdown: 0
SampleSet: Soft
StackLeniency: 0.7
Mode: 3
LetterboxInBreaks: 0
SpecialStyle: 0
WidescreenStoryboard: 0

[Editor]
DistanceSpacing: 1
BeatDivisor: 4
GridSize: 32
TimelineZoom: 2.5

[Metadata]
Title:ReI
TitleUnicode:ReI
Artist:THE ORAL CIGARETTES
ArtistUnicode:THE ORAL CIGARETTES
Creator:Stelar
Version:Insane
Source:
Tags:toc a-sketch japanese rock J-rock daeng simatta llenn- kanon matsubara -tsukasa- Kisses and Kills Before It’s Too Late ReI project short version
BeatmapID:2384814
BeatmapSetID:1141872

[Difficulty]
HPDrainRate:8.5
CircleSize:4
OverallDifficulty:8
ApproachRate:5
SliderMultiplier:1.4
SliderTickRate:1

[Events]
//Background and Video events
0,0,"950001.jpg",0,0
//Break Periods
//Storyboard Layer 0 (Background)
//Storyboard Layer 1 (Fail)
//Storyboard Layer 2 (Pass)
//Storyboard Layer 3 (Foreground)
//Storyboard Layer 4 (Overlay)
//Storyboard Sound Samples

[TimingPoints]
32137,322.58064516129,4,2,1,55,1,0
76007,-100,4,2,1,55,0,1
85362,-100,4,2,1,55,0,0
86330,-100,4,2,1,55,0,1
104395,-100,4,2,1,55,0,0

[HitObjects]
64,192,32136,5,8,0:0:0:0:
320,192,32136,1,4,0:0:0:0:
448,192,32136,1,0,0:0:0:0:
64,192,32298,1,2,0:0:0:0:
192,192,32298,1,0,0:0:0:0:
192,192,32459,1,8,0:0:0:0:
320,192,32459,1,0,0:0:0:75:Hat open.wav
448,192,32459,1,0,0:0:0:0:
64,192,32620,1,2,0:0:0:0:
448,192,32620,1,0,0:0:0:0:
64,192,32782,1,8,0:0:0:0:
192,192,32782,1,0,0:0:0:75:Hat open.wav
320,192,32782,1,0,0:0:0:0:
320,192,32943,1,2,0:0:0:0:
448,192,32943,1,0,0:0:0:0:
64,192,33104,1,8,0:0:0:0:
192,192,33104,1,0,0:0:0:75:Splash.wav
320,192,33104,1,0,0:0:0:0:
448,192,33104,1,0,0:0:0:0:
64,192,33266,1,8,0:0:0:0:
192,192,33266,1,0,0:0:0:75:Splash.wav
320,192,33266,1,0,0:0:0:0:
448,192,33266,1,0,0:0:0:0:
64,192,33427,1,2,0:0:0:0:
192,192,33427,1,0,0:0:0:0:
64,192,33588,1,8,0:0:0:0:
192,192,33588,1,0,0:0:0:60:Crash 2.wav
320,192,33588,1,0,0:0:0:0:
448,192,33588,1,0,0:0:0:0:
64,192,33749,1,8,0:0:0:0:
192,192,33749,1,0,0:0:0:60:Crash 2.wav
320,192,33749,1,0,0:0:0:0:
448,192,33749,1,0,0:0:0:0:
192,192,33911,1,2,0:0:0:0:
448,192,33911,1,0,0:0:0:0:
320,192,33991,1,2,0:0:0:0:
64,192,34072,1,8,0:0:0:0:
192,192,34072,1,4,0:0:0:0:
448,192,34072,1,0,0:0:0:0:
64,192,34233,1,2,0:0:0:0:
320,192,34233,1,0,0:0:0:0:
192,192,34314,1,2,0:0:0:0:
64,192,34395,1,8,0:0:0:0:
320,192,34395,1,4,0:0:0:0:
448,192,34395,1,0,0:0:0:0:
192,192,34556,1,2,0:0:0:0:
448,192,34556,1,0,0:0:0:0:
320,192,34636,1,2,0:0:0:0:
64,192,34717,1,8,0:0:0:0:
192,192,34717,1,0,0:0:0:60:Crash 2.wav
448,192,34717,1,0,0:0:0:0:
192,192,34878,1,2,0:0:0:0:
320,192,34878,1,0,0:0:0:0:
64,192,35040,1,8,0:0:0:0:
192,192,35040,1,0,0:0:0:75:Hat open.wav
448,192,35040,1,0,0:0:0:0:
320,192,35201,1,2,0:0:0:0:
448,192,35201,1,0,0:0:0:0:
64,192,35362,1,8,0:0:0:0:
192,192,35362,1,0,0:0:0:75:Hat open.wav
320,192,35362,1,0,0:0:0:0:
64,192,35524,1,2,0:0:0:0:
448,192,35524,1,0,0:0:0:0:
64,192,35685,1,8,0:0:0:0:
192,192,35685,1,0,0:0:0:75:Splash.wav
320,192,35685,1,0,0:0:0:0:
448,192,35685,1,0,0:0:0:0:
64,192,35846,1,8,0:0:0:0:
192,192,35846,1,0,0:0:0:75:Splash.wav
320,192,35846,1,0,0:0:0:0:
448,192,35846,1,0,0:0:0:0:
192,192,36007,1,2,0:0:0:0:
320,192,36007,1,0,0:0:0:0:
64,192,36169,1,8,0:0:0:0:
192,192,36169,1,0,0:0:0:60:Crash 2.wav
320,192,36169,1,0,0:0:0:0:
448,192,36169,1,0,0:0:0:0:
64,192,36330,1,8,0:0:0:0:
192,192,36330,1,0,0:0:0:60:Crash 2.wav
320,192,36330,1,0,0:0:0:0:
448,192,36330,1,0,0:0:0:0:
64,192,36491,1,2,0:0:0:0:
192,192,36491,1,0,0:0:0:0:
320,192,36572,1,2,0:0:0:0:
64,192,36653,1,8,0:0:0:0:
192,192,36653,1,4,0:0:0:0:
448,192,36653,1,0,0:0:0:0:
320,192,36814,1,2,0:0:0:0:
448,192,36814,1,0,0:0:0:0:
192,192,36895,1,2,0:0:0:0:
64,192,36975,1,8,0:0:0:0:
320,192,36975,1,4,0:0:0:0:
448,192,36975,1,0,0:0:0:0:
64,192,37136,1,2,0:0:0:0:
192,192,37136,1,0,0:0:0:0:
320,192,37217,1,2,0:0:0:0:
64,192,37298,1,8,0:0:0:0:
192,192,37298,1,0,0:0:0:60:Crash 2.wav
448,192,37298,1,0,0:0:0:0:
320,192,37459,1,2,0:0:0:0:
448,192,37459,1,0,0:0:0:0:
64,192,37620,1,8,0:0:0:0:
192,192,37620,1,0,0:0:0:75:Hat open.wav
320,192,37620,1,0,0:0:0:0:
64,192,37782,1,2,0:0:0:0:
448,192,37782,1,0,0:0:0:0:
192,192,37943,1,8,0:0:0:0:
320,192,37943,1,0,0:0:0:75:Hat open.wav
448,192,37943,1,0,0:0:0:0:
64,192,38104,1,2,0:0:0:0:
192,192,38104,1,0,0:0:0:0:
64,192,38266,1,8,0:0:0:0:
192,192,38266,1,0,0:0:0:75:Splash.wav
320,192,38266,1,0,0:0:0:0:
448,192,38266,1,0,0:0:0:0:
64,192,38427,1,8,0:0:0:0:
192,192,38427,1,0,0:0:0:75:Splash.wav
320,192,38427,1,0,0:0:0:0:
448,192,38427,1,0,0:0:0:0:
192,192,38588,1,2,0:0:0:0:
320,192,38588,1,0,0:0:0:0:
64,192,38749,1,8,0:0:0:0:
192,192,38749,1,0,0:0:0:60:Crash 2.wav
320,192,38749,1,0,0:0:0:0:
448,192,38749,1,0,0:0:0:0:
64,192,38911,1,8,0:0:0:0:
192,192,38911,1,0,0:0:0:60:Crash 2.wav
320,192,38911,1,0,0:0:0:0:
448,192,38911,1,0,0:0:0:0:
192,192,39072,1,2,0:0:0:0:
448,192,39072,1,0,0:0:0:0:
320,192,39153,1,2,0:0:0:0:
64,192,39233,1,8,0:0:0:0:
192,192,39233,1,4,0:0:0:0:
448,192,39233,1,0,0:0:0:0:
64,192,39395,1,2,0:0:0:0:
320,192,39395,1,0,0:0:0:0:
192,192,39475,1,2,0:0:0:0:
64,192,39556,1,8,0:0:0:0:
320,192,39556,1,4,0:0:0:0:
448,192,39556,1,0,0:0:0:0:
192,192,39717,1,2,0:0:0:0:
448,192,39717,1,0,0:0:0:0:
320,192,39798,1,2,0:0:0:0:
64,192,39878,1,8,0:0:0:0:
192,192,39878,1,0,0:0:0:60:Crash 2.wav
448,192,39878,1,0,0:0:0:0:
192,192,40040,1,2,0:0:0:0:
320,192,40040,1,0,0:0:0:0:
64,192,40201,1,8,0:0:0:0:
320,192,40201,1,0,0:0:0:75:Hat open.wav
448,192,40201,1,0,0:0:0:0:
64,192,40362,1,2,0:0:0:0:
192,192,40362,1,0,0:0:0:0:
192,192,40524,1,8,0:0:0:0:
320,192,40524,1,0,0:0:0:75:Hat open.wav
448,192,40524,1,0,0:0:0:0:
64,192,40685,1,2,0:0:0:0:
448,192,40685,1,0,0:0:0:0:
64,192,40846,1,8,0:0:0:0:
192,192,40846,1,0,0:0:0:75:Splash.wav
320,192,40846,1,0,0:0:0:0:
448,192,40846,1,0,0:0:0:0:
64,192,41007,1,8,0:0:0:0:
192,192,41007,1,0,0:0:0:75:Splash.wav
320,192,41007,1,0,0:0:0:0:
448,192,41007,1,0,0:0:0:0:
192,192,41169,1,2,0:0:0:0:
448,192,41169,1,0,0:0:0:0:
320,192,41249,1,2,0:0:0:0:
64,192,41330,1,8,0:0:0:0:
192,192,41330,1,0,0:0:0:60:Crash 2.wav
448,192,41330,1,0,0:0:0:0:
64,192,41491,1,8,0:0:0:0:
192,192,41491,1,0,0:0:0:60:Crash 2.wav
320,192,41491,1,0,0:0:0:0:
448,192,41491,1,0,0:0:0:0:
64,192,41814,1,8,0:0:0:0:
192,192,41814,1,2,0:0:0:0:
448,192,41814,1,0,0:0:0:0:
320,192,41895,1,8,0:0:0:0:
64,192,41975,1,8,0:0:0:0:
448,192,41975,1,0,0:0:0:0:
192,192,42056,1,8,0:0:0:0:
320,192,42136,1,2,0:0:0:0:
448,192,42136,1,0,0:0:0:60:Tom1.wav
64,192,42217,1,0,0:0:0:60:Tom1.wav
192,192,42217,1,0,0:0:0:0:
320,192,42298,1,0,0:0:0:65:Tom2.wav
448,192,42298,1,0,0:0:0:0:
192,192,42378,1,0,0:0:0:65:Tom3.wav
64,192,42459,1,2,0:0:0:0:
320,192,42459,1,4,0:0:0:0:
448,192,42459,128,0,42782:0:0:0:0:
64,192,42782,1,8,0:0:0:0:
192,192,42782,1,0,0:0:0:0:
320,192,42782,1,0,0:0:0:0:
448,192,42943,1,0,0:0:0:0:
64,192,43104,1,2,0:0:0:0:
192,192,43104,1,0,0:0:0:95:HiHat.wav
320,192,43266,1,2,0:0:0:0:
448,192,43266,1,0,0:0:0:95:HiHat.wav
64,192,43427,1,8,0:0:0:0:
192,192,43427,1,0,0:0:0:95:HiHat.wav
448,192,43427,1,0,0:0:0:0:
320,192,43588,1,0,0:0:0:95:HiHat.wav
64,192,43749,1,2,0:0:0:0:
192,192,43749,128,0,44072:0:0:0:95:HiHat.wav
64,192,44072,1,8,0:0:0:0:
320,192,44072,1,0,0:0:0:95:HiHat.wav
448,192,44072,1,0,0:0:0:0:
192,192,44233,1,0,0:0:0:95:HiHat.wav
64,192,44395,1,2,0:0:0:0:
448,192,44395,1,0,0:0:0:95:HiHat.wav
192,192,44556,1,2,0:0:0:0:
320,192,44556,1,0,0:0:0:95:HiHat.wav
64,192,44717,1,8,0:0:0:0:
320,192,44717,1,0,0:0:0:95:HiHat.wav
448,192,44717,1,0,0:0:0:0:
192,192,44878,1,0,0:0:0:95:HiHat.wav
320,192,45040,128,2,45362:0:0:0:0:
448,192,45040,1,0,0:0:0:95:HiHat.wav
64,192,45362,1,8,0:0:0:0:
192,192,45362,1,0,0:0:0:95:HiHat.wav
448,192,45362,1,0,0:0:0:0:
320,192,45524,1,0,0:0:0:95:HiHat.wav
64,192,45685,1,2,0:0:0:0:
192,192,45685,1,0,0:0:0:95:HiHat.wav
320,192,45846,1,2,0:0:0:0:
448,192,45846,1,0,0:0:0:95:HiHat.wav
64,192,46007,1,8,0:0:0:0:
192,192,46007,1,0,0:0:0:95:HiHat.wav
448,192,46007,1,0,0:0:0:0:
320,192,46169,1,0,0:0:0:95:HiHat.wav
64,192,46330,1,2,0:0:0:0:
448,192,46330,128,0,46653:0:0:0:95:HiHat.wav
64,192,46653,1,8,0:0:0:0:
192,192,46653,1,0,0:0:0:95:HiHat.wav
320,192,46653,1,0,0:0:0:0:
448,192,46814,1,0,0:0:0:95:HiHat.wav
64,192,46975,1,2,0:0:0:0:
192,192,46975,128,0,47298:0:0:0:95:HiHat.wav
320,192,47136,1,2,0:0:0:0:
448,192,47136,1,0,0:0:0:95:HiHat.wav
64,192,47298,1,8,0:0:0:0:
320,192,47298,1,0,0:0:0:95:HiHat.wav
448,192,47298,1,0,0:0:0:0:
192,192,47459,1,0,0:0:0:95:HiHat.wav
320,192,47540,1,0,0:0:0:95:HiHat.wav
64,192,47620,1,2,0:0:0:0:
192,192,47620,1,0,0:0:0:75:Splash.wav
448,192,47620,128,0,47943:0:0:0:0:
64,192,47943,1,8,0:0:0:0:
192,192,47943,1,0,0:0:0:0:
320,192,47943,1,0,0:0:0:0:
448,192,48104,1,0,0:0:0:95:HiHat.wav
64,192,48266,1,2,0:0:0:0:
192,192,48266,1,0,0:0:0:95:HiHat.wav
320,192,48427,1,2,0:0:0:0:
448,192,48427,1,0,0:0:0:95:HiHat.wav
64,192,48588,1,8,0:0:0:0:
192,192,48588,1,0,0:0:0:95:HiHat.wav
448,192,48588,1,0,0:0:0:0:
320,192,48749,1,0,0:0:0:95:HiHat.wav
64,192,48911,1,2,0:0:0:0:
192,192,48911,128,0,49233:0:0:0:95:HiHat.wav
64,192,49233,1,8,0:0:0:0:
320,192,49233,1,0,0:0:0:95:HiHat.wav
448,192,49233,1,0,0:0:0:0:
192,192,49395,1,0,0:0:0:95:HiHat.wav
64,192,49556,1,2,0:0:0:0:
448,192,49556,1,0,0:0:0:95:HiHat.wav
192,192,49717,1,2,0:0:0:0:
320,192,49717,1,0,0:0:0:95:HiHat.wav
64,192,49878,1,8,0:0:0:0:
320,192,49878,1,0,0:0:0:95:HiHat.wav
448,192,49878,1,0,0:0:0:0:
192,192,50040,1,0,0:0:0:95:HiHat.wav
320,192,50201,1,2,0:0:0:0:
448,192,50201,128,0,50524:0:0:0:95:HiHat.wav
64,192,50524,1,8,0:0:0:0:
192,192,50524,1,0,0:0:0:95:HiHat.wav
320,192,50524,1,0,0:0:0:0:
448,192,50685,1,0,0:0:0:95:HiHat.wav
192,192,50846,1,2,0:0:0:0:
320,192,50846,1,0,0:0:0:95:HiHat.wav
64,192,51007,1,2,0:0:0:0:
448,192,51007,1,0,0:0:0:95:HiHat.wav
64,192,51169,1,8,0:0:0:0:
192,192,51169,1,0,0:0:0:95:HiHat.wav
320,192,51169,1,0,0:0:0:0:
448,192,51330,1,0,0:0:0:95:HiHat.wav
64,192,51491,1,2,0:0:0:0:
192,192,51491,128,0,51814:0:0:0:95:HiHat.wav
320,192,51814,1,2,0:0:0:0:
448,192,51814,1,0,0:0:0:75:Splash.wav
64,192,51975,1,8,0:0:0:0:
192,192,51975,1,0,0:0:0:0:
448,192,51975,1,0,0:0:0:0:
192,192,52136,1,2,0:0:0:0:
320,192,52136,1,0,0:0:0:95:HiHat.wav
64,192,52298,1,0,0:0:0:95:HiHat.wav
320,192,52459,1,2,0:0:0:0:
448,192,52459,1,0,0:0:0:95:HiHat.wav
64,192,52620,1,8,0:0:0:0:
192,192,52620,1,0,0:0:0:0:
448,192,52620,1,0,0:0:0:0:
64,192,52782,1,2,0:0:0:0:
320,192,52782,128,4,53104:0:0:0:0:
448,192,52782,1,0,0:0:0:0:
64,192,53104,1,8,0:0:0:0:
192,192,53104,1,0,0:0:0:95:HiHat.wav
448,192,53104,1,0,0:0:0:0:
320,192,53266,1,0,0:0:0:95:HiHat.wav
64,192,53427,1,2,0:0:0:0:
448,192,53427,1,0,0:0:0:95:HiHat.wav
192,192,53588,1,2,0:0:0:0:
320,192,53588,1,0,0:0:0:95:HiHat.wav
64,192,53749,1,8,0:0:0:0:
320,192,53749,1,0,0:0:0:95:HiHat.wav
448,192,53749,1,0,0:0:0:0:
192,192,53911,1,0,0:0:0:95:HiHat.wav
320,192,54072,128,2,54395:0:0:0:0:
448,192,54072,1,0,0:0:0:95:HiHat.wav
64,192,54395,1,8,0:0:0:0:
192,192,54395,1,0,0:0:0:95:HiHat.wav
448,192,54395,1,0,0:0:0:0:
320,192,54556,1,0,0:0:0:95:HiHat.wav
64,192,54717,1,2,0:0:0:0:
448,192,54717,1,0,0:0:0:95:HiHat.wav
192,192,54878,1,2,0:0:0:0:
320,192,54878,1,0,0:0:0:95:HiHat.wav
64,192,55040,1,8,0:0:0:0:
192,192,55040,1,0,0:0:0:95:HiHat.wav
448,192,55040,1,0,0:0:0:0:
320,192,55201,1,0,0:0:0:95:HiHat.wav
64,192,55362,1,2,0:0:0:0:
192,192,55362,128,0,55685:0:0:0:95:HiHat.wav
64,192,55685,1,8,0:0:0:0:
320,192,55685,1,0,0:0:0:95:HiHat.wav
448,192,55685,1,0,0:0:0:0:
192,192,55846,1,0,0:0:0:95:HiHat.wav
320,192,56007,1,2,0:0:0:0:
448,192,56007,1,0,0:0:0:95:HiHat.wav
64,192,56169,1,2,0:0:0:0:
192,192,56169,1,0,0:0:0:95:HiHat.wav
64,192,56330,1,8,0:0:0:0:
320,192,56330,1,0,0:0:0:95:HiHat.wav
448,192,56330,1,0,0:0:0:0:
192,192,56491,1,0,0:0:0:95:HiHat.wav
64,192,56653,128,2,56975:0:0:0:0:
448,192,56653,1,0,0:0:0:95:HiHat.wav
192,192,56975,1,8,0:0:0:0:
320,192,56975,1,0,0:0:0:95:HiHat.wav
448,192,56975,1,0,0:0:0:0:
64,192,57136,1,0,0:0:0:95:HiHat.wav
320,192,57298,128,2,57620:0:0:0:0:
448,192,57298,1,0,0:0:0:95:HiHat.wav
64,192,57459,1,2,0:0:0:0:
192,192,57459,1,0,0:0:0:95:HiHat.wav
64,192,57620,1,8,0:0:0:0:
192,192,57620,1,0,0:0:0:95:HiHat.wav
448,192,57620,1,0,0:0:0:0:
320,192,57782,1,0,0:0:0:95:HiHat.wav
448,192,57862,1,0,0:0:0:95:HiHat.wav
64,192,57943,1,2,0:0:0:0:
192,192,57943,128,0,58266:0:0:0:60:Crash 2.wav
320,192,57943,1,0,0:0:0:0:
64,192,58266,1,8,0:0:0:0:
320,192,58266,1,0,0:0:0:95:HiHat.wav
448,192,58266,1,0,0:0:0:0:
192,192,58427,1,0,0:0:0:95:HiHat.wav
64,192,58588,1,2,0:0:0:0:
448,192,58588,1,0,0:0:0:95:HiHat.wav
192,192,58749,1,2,0:0:0:0:
320,192,58749,1,0,0:0:0:95:HiHat.wav
64,192,58911,1,8,0:0:0:0:
320,192,58911,1,0,0:0:0:95:HiHat.wav
448,192,58911,1,0,0:0:0:0:
192,192,59072,1,0,0:0:0:95:HiHat.wav
320,192,59233,128,2,59556:0:0:0:0:
448,192,59233,1,0,0:0:0:95:HiHat.wav
64,192,59556,1,8,0:0:0:0:
192,192,59556,1,0,0:0:0:95:HiHat.wav
448,192,59556,1,0,0:0:0:0:
320,192,59717,1,0,0:0:0:95:HiHat.wav
64,192,59878,1,2,0:0:0:0:
448,192,59878,1,0,0:0:0:95:HiHat.wav
192,192,60040,1,2,0:0:0:0:
320,192,60040,1,0,0:0:0:95:HiHat.wav
64,192,60201,1,8,0:0:0:0:
192,192,60201,1,0,0:0:0:95:HiHat.wav
448,192,60201,1,0,0:0:0:0:
320,192,60362,1,0,0:0:0:95:HiHat.wav
64,192,60524,128,2,60846:0:0:0:0:
192,192,60524,1,0,0:0:0:95:HiHat.wav
192,192,60846,1,8,0:0:0:0:
320,192,60846,1,0,0:0:0:95:HiHat.wav
448,192,60846,1,0,0:0:0:0:
64,192,61007,1,0,0:0:0:95:HiHat.wav
320,192,61169,1,2,0:0:0:0:
448,192,61169,1,0,0:0:0:95:HiHat.wav
64,192,61330,1,2,0:0:0:0:
192,192,61330,1,0,0:0:0:95:HiHat.wav
64,192,61491,1,8,0:0:0:0:
192,192,61491,1,4,0:0:0:0:
320,192,61491,1,0,0:0:0:0:
448,192,61491,1,0,0:0:0:0:
64,192,61814,1,2,0:0:0:0:
192,192,61814,1,8,0:0:0:0:
448,192,61814,1,0,0:0:0:0:
320,192,61975,1,8,0:0:0:0:
448,192,61975,1,0,0:0:0:0:
64,192,62056,1,8,0:0:0:0:
192,192,62056,1,0,0:0:0:0:
320,192,62136,1,8,0:0:0:0:
448,192,62136,1,2,0:0:0:0:
64,192,62298,1,8,0:0:0:0:
192,192,62298,1,0,0:0:0:0:
320,192,62298,1,0,0:0:0:0:
64,192,62459,1,2,0:0:0:0:
448,192,62459,1,0,0:0:0:60:Tom1.wav
192,192,62540,1,0,0:0:0:60:Tom1.wav
320,192,62620,1,0,0:0:0:60:Tom1.wav
448,192,62620,1,0,0:0:0:0:
192,192,62701,1,0,0:0:0:60:Tom1.wav
64,192,62782,1,2,0:0:0:0:
448,192,62782,1,0,0:0:0:65:Tom2.wav
320,192,62862,1,0,0:0:0:65:Tom2.wav
64,192,62943,1,0,0:0:0:65:Tom3.wav
192,192,62943,1,0,0:0:0:0:
320,192,63024,1,0,0:0:0:65:Tom3.wav
64,192,63104,1,2,0:0:0:0:
192,192,63104,1,0,0:0:0:60:Crash 2.wav
448,192,63104,1,0,0:0:0:0:
192,192,63266,1,2,0:0:0:0:
320,192,63266,1,0,0:0:0:0:
64,192,63427,1,8,0:0:0:0:
320,192,63427,1,0,0:0:0:0:
448,192,63427,1,0,0:0:0:0:
192,192,63588,1,0,0:0:0:60:Tom1.wav
320,192,63669,1,0,0:0:0:65:Tom2.wav
64,192,63749,1,2,0:0:0:0:
448,192,63749,1,0,0:0:0:65:Tom3.wav
192,192,63911,1,2,0:0:0:0:
320,192,63911,1,0,0:0:0:0:
64,192,64072,1,8,0:0:0:0:
192,192,64072,1,0,0:0:0:0:
448,192,64072,1,0,0:0:0:0:
320,192,64233,1,0,0:0:0:75:Hat open.wav
64,192,64395,1,2,0:0:0:0:
192,192,64395,1,0,0:0:0:0:
320,192,64556,1,2,0:0:0:0:
448,192,64556,1,0,0:0:0:0:
64,192,64717,1,8,0:0:0:0:
192,192,64717,1,0,0:0:0:0:
448,192,64717,1,0,0:0:0:0:
320,192,64878,1,0,0:0:0:60:Tom1.wav
192,192,64959,1,0,0:0:0:65:Tom2.wav
64,192,65040,1,2,0:0:0:0:
448,192,65040,1,0,0:0:0:65:Tom3.wav
320,192,65120,1,0,0:0:0:65:Tom2.wav
64,192,65201,1,2,0:0:0:0:
192,192,65201,1,0,0:0:0:65:Tom3.wav
192,192,65362,1,8,0:0:0:0:
320,192,65362,1,0,0:0:0:0:
448,192,65362,1,0,0:0:0:0:
64,192,65524,1,0,0:0:0:65:Tom3.wav
192,192,65685,1,2,0:0:0:0:
448,192,65685,1,4,0:0:0:0:
64,192,65846,1,2,0:0:0:0:
320,192,65846,1,0,0:0:0:0:
64,192,66007,1,8,0:0:0:0:
192,192,66007,1,0,0:0:0:0:
448,192,66007,1,0,0:0:0:0:
320,192,66169,1,0,0:0:0:60:Tom1.wav
192,192,66249,1,0,0:0:0:65:Tom2.wav
320,192,66330,1,2,0:0:0:0:
448,192,66330,1,0,0:0:0:65:Tom3.wav
64,192,66491,1,2,0:0:0:0:
192,192,66491,1,0,0:0:0:0:
64,192,66653,1,8,0:0:0:0:
320,192,66653,1,0,0:0:0:0:
448,192,66653,1,0,0:0:0:0:
192,192,66814,1,0,0:0:0:75:Hat open.wav
64,192,66975,1,2,0:0:0:0:
448,192,66975,1,0,0:0:0:0:
192,192,67136,1,2,0:0:0:0:
320,192,67136,1,0,0:0:0:0:
64,192,67298,1,8,0:0:0:0:
320,192,67298,1,0,0:0:0:0:
448,192,67298,1,0,0:0:0:0:
192,192,67459,1,0,0:0:0:60:Tom1.wav
320,192,67540,1,0,0:0:0:65:Tom2.wav
64,192,67620,1,2,0:0:0:0:
448,192,67620,1,0,0:0:0:65:Tom3.wav
192,192,67701,1,0,0:0:0:65:Tom2.wav
320,192,67782,1,2,0:0:0:0:
448,192,67782,1,0,0:0:0:0:
64,192,67943,1,8,0:0:0:0:
192,192,67943,1,0,0:0:0:0:
320,192,68024,1,8,0:0:0:0:
448,192,68024,1,0,0:0:0:0:
64,192,68104,1,8,0:0:0:0:
192,192,68104,1,0,0:0:0:0:
320,192,68185,1,8,0:0:0:0:
448,192,68185,1,0,0:0:0:0:
64,192,68266,1,2,0:0:0:0:
192,192,68266,1,4,0:0:0:0:
320,192,68427,1,2,0:0:0:0:
448,192,68427,1,0,0:0:0:0:
64,192,68588,1,8,0:0:0:0:
192,192,68588,1,0,0:0:0:0:
448,192,68588,1,0,0:0:0:0:
320,192,68749,1,0,0:0:0:60:Tom1.wav
192,192,68830,1,0,0:0:0:65:Tom2.wav
64,192,68911,1,2,0:0:0:0:
448,192,68911,1,0,0:0:0:65:Tom3.wav
192,192,69072,1,2,0:0:0:0:
320,192,69072,1,0,0:0:0:0:
64,192,69233,1,8,0:0:0:0:
320,192,69233,1,0,0:0:0:0:
448,192,69233,1,0,0:0:0:0:
192,192,69395,1,0,0:0:0:75:Hat open.wav
320,192,69556,1,2,0:0:0:0:
448,192,69556,1,0,0:0:0:0:
64,192,69717,1,2,0:0:0:0:
192,192,69717,1,0,0:0:0:0:
64,192,69878,1,8,0:0:0:0:
320,192,69878,1,0,0:0:0:0:
448,192,69878,1,0,0:0:0:0:
192,192,70040,1,0,0:0:0:60:Tom1.wav
320,192,70120,1,0,0:0:0:65:Tom2.wav
64,192,70201,1,2,0:0:0:0:
448,192,70201,1,0,0:0:0:65:Tom3.wav
192,192,70282,1,0,0:0:0:65:Tom2.wav
320,192,70362,1,2,0:0:0:0:
448,192,70362,1,0,0:0:0:0:
64,192,70524,1,8,0:0:0:0:
192,192,70524,1,0,0:0:0:0:
320,192,70524,1,0,0:0:0:0:
448,192,70685,1,0,0:0:0:30:Tom3.wav
192,192,70766,1,8,0:0:0:0:
320,192,70766,1,0,0:0:0:0:
64,192,70846,1,2,0:0:0:0:
448,192,70846,1,4,0:0:0:0:
192,192,71007,1,2,0:0:0:0:
320,192,71007,1,0,0:0:0:0:
64,192,71169,1,8,0:0:0:0:
320,192,71169,1,0,0:0:0:75:Hat open.wav
448,192,71169,1,0,0:0:0:0:
192,192,71330,1,0,0:0:0:0:
64,192,71411,1,8,0:0:0:0:
448,192,71411,1,0,0:0:0:0:
192,192,71491,1,2,0:0:0:0:
320,192,71491,1,0,0:0:0:75:Hat open.wav
64,192,71653,1,2,0:0:0:0:
192,192,71653,1,0,0:0:0:0:
64,192,71814,1,8,0:0:0:0:
320,192,71814,1,0,0:0:0:75:Hat open.wav
448,192,71814,1,0,0:0:0:0:
192,192,71975,1,0,0:0:0:0:
320,192,72056,1,8,0:0:0:0:
448,192,72056,1,0,0:0:0:0:
64,192,72136,1,2,0:0:0:0:
192,192,72136,1,0,0:0:0:75:Hat open.wav
320,192,72298,1,2,0:0:0:0:
448,192,72298,1,0,0:0:0:0:
64,192,72459,1,8,0:0:0:0:
192,192,72459,1,0,0:0:0:75:Hat open.wav
448,192,72459,1,0,0:0:0:0:
320,192,72620,1,0,0:0:0:0:
64,192,72782,1,8,0:0:0:0:
192,192,72782,1,0,0:0:0:0:
320,192,72862,1,8,0:0:0:0:
448,192,72862,1,0,0:0:0:0:
64,192,72943,1,2,0:0:0:0:
192,192,73024,1,2,0:0:0:0:
64,192,73104,1,8,0:0:0:0:
320,192,73104,1,0,0:0:0:60:Crash 2.wav
448,192,73104,1,0,0:0:0:0:
64,192,73427,1,8,0:0:0:0:
192,192,73427,1,4,0:0:0:0:
448,192,73427,1,0,0:0:0:0:
64,192,73588,1,2,0:0:0:0:
192,192,73588,1,0,0:0:0:0:
64,192,73749,1,2,0:0:0:0:
192,192,73749,1,0,0:0:0:0:
64,192,73911,1,8,0:0:0:0:
320,192,73911,1,4,0:0:0:0:
448,192,73911,1,0,0:0:0:0:
320,192,74072,1,2,0:0:0:0:
448,192,74072,1,0,0:0:0:0:
320,192,74233,1,2,0:0:0:0:
448,192,74233,1,0,0:0:0:0:
64,192,74395,1,8,0:0:0:0:
192,192,74395,1,0,0:0:0:65:Tom3.wav
320,192,74395,1,0,0:0:0:0:
64,192,74556,1,8,0:0:0:0:
192,192,74556,1,0,0:0:0:65:Tom3.wav
448,192,74556,1,0,0:0:0:0:
320,192,74717,1,2,0:0:0:0:
448,192,74717,1,0,0:0:0:0:
192,192,74798,1,2,0:0:0:0:
64,192,74878,1,8,0:0:0:0:
320,192,74878,1,0,0:0:0:60:Crash 2.wav
448,192,74878,1,0,0:0:0:0:
64,192,75040,1,8,0:0:0:0:
192,192,75040,1,0,0:0:0:60:Crash 2.wav
320,192,75040,1,0,0:0:0:0:
448,192,75040,1,0,0:0:0:0:
320,192,75362,1,8,0:0:0:0:
448,192,75362,1,2,0:0:0:0:
64,192,75443,1,8,0:0:0:0:
192,192,75443,1,0,0:0:0:0:
320,192,75524,1,8,0:0:0:0:
448,192,75524,1,0,0:0:0:0:
64,192,75604,1,8,0:0:0:0:
192,192,75604,1,0,0:0:0:0:
320,192,75685,1,8,0:0:0:0:
448,192,75685,1,2,0:0:0:0:
64,192,75766,1,8,0:0:0:0:
192,192,75766,1,0,0:0:0:0:
320,192,75846,1,8,0:0:0:0:
448,192,75846,1,0,0:0:0:0:
64,192,75927,1,8,0:0:0:0:
192,192,75927,1,0,0:0:0:0:
320,192,76007,1,2,0:0:0:0:
448,192,76007,1,4,0:0:0:0:
64,192,76169,1,2,0:0:0:0:
192,192,76169,1,0,0:0:0:0:
64,192,76330,1,8,0:0:0:0:
320,192,76330,1,0,0:0:0:65:Ride.wav
448,192,76330,1,0,0:0:0:0:
192,192,76491,1,0,0:0:0:0:
320,192,76572,1,8,0:0:0:0:
448,192,76572,1,0,0:0:0:0:
64,192,76653,1,2,0:0:0:0:
192,192,76653,1,0,0:0:0:65:Ride.wav
320,192,76814,1,2,0:0:0:0:
448,192,76814,1,0,0:0:0:0:
64,192,76975,1,8,0:0:0:0:
192,192,76975,1,0,0:0:0:65:Ride.wav
448,192,76975,1,0,0:0:0:0:
320,192,77136,1,0,0:0:0:0:
64,192,77298,1,2,0:0:0:0:
192,192,77298,1,0,0:0:0:65:Ride.wav
320,192,77459,1,2,0:0:0:0:
448,192,77459,1,0,0:0:0:0:
64,192,77620,1,8,0:0:0:0:
192,192,77620,1,0,0:0:0:65:Ride.wav
448,192,77620,1,0,0:0:0:0:
320,192,77782,1,0,0:0:0:0:
64,192,77862,1,8,0:0:0:0:
192,192,77862,1,0,0:0:0:0:
320,192,77943,1,2,0:0:0:0:
448,192,77943,1,0,0:0:0:65:Ride.wav
192,192,78104,1,2,0:0:0:0:
320,192,78104,1,0,0:0:0:0:
64,192,78266,1,8,0:0:0:0:
192,192,78266,1,0,0:0:0:65:Ride.wav
448,192,78266,1,0,0:0:0:0:
320,192,78427,1,8,0:0:0:0:
448,192,78427,1,0,0:0:0:0:
64,192,78507,1,8,0:0:0:0:
192,192,78507,1,0,0:0:0:0:
320,192,78588,1,2,0:0:0:0:
448,192,78588,1,0,0:0:0:65:Ride.wav
64,192,78749,1,2,0:0:0:0:
192,192,78749,1,0,0:0:0:0:
64,192,78911,1,8,0:0:0:0:
320,192,78911,1,0,0:0:0:65:Ride.wav
448,192,78911,1,0,0:0:0:0:
192,192,79072,1,0,0:0:0:0:
64,192,79233,1,2,0:0:0:0:
448,192,79233,1,0,0:0:0:65:Ride.wav
192,192,79395,1,2,0:0:0:0:
320,192,79395,1,0,0:0:0:0:
64,192,79556,1,8,0:0:0:0:
320,192,79556,1,0,0:0:0:65:Ride.wav
448,192,79556,1,0,0:0:0:0:
192,192,79717,1,0,0:0:0:0:
320,192,79798,1,8,0:0:0:0:
448,192,79798,1,0,0:0:0:0:
64,192,79878,1,2,0:0:0:0:
192,192,79878,1,0,0:0:0:65:Ride.wav
320,192,80040,1,2,0:0:0:0:
448,192,80040,1,0,0:0:0:0:
64,192,80201,1,8,0:0:0:0:
192,192,80201,1,0,0:0:0:60:Crash 2.wav
448,192,80201,1,0,0:0:0:0:
320,192,80362,1,0,0:0:0:0:
64,192,80524,1,8,0:0:0:0:
192,192,80524,1,2,0:0:0:0:
320,192,80604,1,8,0:0:0:0:
448,192,80604,1,0,0:0:0:0:
64,192,80685,1,8,0:0:0:0:
192,192,80685,1,0,0:0:0:0:
320,192,80766,1,8,0:0:0:0:
448,192,80766,1,0,0:0:0:0:
64,192,80846,1,0,0:0:0:60:Tom1.wav
192,192,80846,1,0,0:0:0:0:
320,192,80927,1,0,0:0:0:60:Tom1.wav
64,192,81007,1,0,0:0:0:65:Tom2.wav
448,192,81007,1,0,0:0:0:0:
192,192,81088,1,0,0:0:0:65:Tom3.wav
64,192,81169,1,2,0:0:0:0:
320,192,81169,1,4,0:0:0:0:
448,192,81169,1,0,0:0:0:0:
192,192,81330,1,2,0:0:0:0:
320,192,81330,1,0,0:0:0:0:
64,192,81491,1,8,0:0:0:0:
192,192,81491,1,0,0:0:0:65:Ride.wav
448,192,81491,1,0,0:0:0:0:
320,192,81653,1,0,0:0:0:0:
64,192,81733,1,8,0:0:0:0:
192,192,81733,1,0,0:0:0:0:
320,192,81814,1,2,0:0:0:0:
448,192,81814,1,0,0:0:0:60:Crash 2.wav
64,192,81975,1,2,0:0:0:0:
192,192,81975,1,0,0:0:0:0:
64,192,82136,1,8,0:0:0:0:
320,192,82136,1,0,0:0:0:65:Ride.wav
448,192,82136,1,0,0:0:0:0:
192,192,82298,1,0,0:0:0:0:
320,192,82378,1,8,0:0:0:0:
448,192,82378,1,0,0:0:0:0:
64,192,82459,1,2,0:0:0:0:
192,192,82459,1,4,0:0:0:0:
192,192,82620,1,2,0:0:0:0:
320,192,82620,1,0,0:0:0:0:
64,192,82782,1,8,0:0:0:0:
320,192,82782,1,0,0:0:0:65:Ride.wav
448,192,82782,1,0,0:0:0:0:
192,192,82943,1,0,0:0:0:0:
320,192,83024,1,8,0:0:0:0:
448,192,83024,1,0,0:0:0:0:
64,192,83104,1,2,0:0:0:0:
192,192,83104,1,0,0:0:0:60:Crash 2.wav
192,192,83266,1,2,0:0:0:0:
320,192,83266,1,0,0:0:0:0:
64,192,83427,1,8,0:0:0:0:
320,192,83427,1,0,0:0:0:65:Ride.wav
448,192,83427,1,0,0:0:0:0:
64,192,83588,1,8,0:0:0:0:
192,192,83588,1,0,0:0:0:0:
320,192,83669,1,8,0:0:0:0:
448,192,83669,1,0,0:0:0:0:
64,192,83749,1,2,0:0:0:0:
192,192,83749,1,4,0:0:0:0:
320,192,83911,1,2,0:0:0:0:
448,192,83911,1,0,0:0:0:0:
64,192,84072,1,8,0:0:0:0:
192,192,84072,1,0,0:0:0:65:Ride.wav
448,192,84072,1,0,0:0:0:0:
320,192,84233,1,0,0:0:0:0:
64,192,84314,1,8,0:0:0:0:
192,192,84314,1,0,0:0:0:0:
320,192,84395,1,2,0:0:0:0:
448,192,84395,1,0,0:0:0:65:Ride.wav
192,192,84556,1,2,0:0:0:0:
320,192,84556,1,0,0:0:0:0:
64,192,84717,1,8,0:0:0:0:
192,192,84717,1,0,0:0:0:65:Ride.wav
448,192,84717,1,0,0:0:0:0:
320,192,84878,1,0,0:0:0:0:
64,192,85040,1,0,0:0:0:60:Tom1.wav
192,192,85040,1,0,0:0:0:0:
320,192,85120,1,0,0:0:0:60:Tom1.wav
64,192,85201,1,0,0:0:0:65:Tom2.wav
448,192,85201,1,0,0:0:0:0:
192,192,85282,1,0,0:0:0:65:Tom3.wav
64,192,85362,1,8,0:0:0:0:
320,192,85362,1,0,0:0:0:0:
448,192,85362,1,0,0:0:0:0:
64,192,86330,1,8,0:0:0:0:
192,192,86330,1,4,0:0:0:0:
320,192,86330,1,0,0:0:0:0:
448,192,86330,1,0,0:0:0:0:
64,192,86491,1,2,0:0:0:0:
192,192,86491,1,0,0:0:0:0:
192,192,86653,1,8,0:0:0:0:
320,192,86653,1,0,0:0:0:75:Hat open.wav
448,192,86653,1,0,0:0:0:0:
64,192,86814,1,2,0:0:0:0:
448,192,86814,1,0,0:0:0:0:
64,192,86975,1,8,0:0:0:0:
192,192,86975,1,0,0:0:0:75:Hat open.wav
320,192,86975,1,0,0:0:0:0:
320,192,87136,1,2,0:0:0:0:
448,192,87136,1,0,0:0:0:0:
64,192,87298,1,8,0:0:0:0:
192,192,87298,1,0,0:0:0:75:Hat open.wav
448,192,87298,1,0,0:0:0:0:
64,192,87459,1,2,0:0:0:0:
320,192,87459,1,0,0:0:0:0:
192,192,87540,1,2,0:0:0:0:
64,192,87620,1,8,0:0:0:0:
320,192,87620,1,0,0:0:0:60:Crash 2.wav
448,192,87620,1,0,0:0:0:0:
192,192,87782,1,2,0:0:0:0:
448,192,87782,1,0,0:0:0:0:
64,192,87943,1,8,0:0:0:0:
192,192,87943,1,0,0:0:0:75:Hat open.wav
320,192,87943,1,0,0:0:0:0:
64,192,88104,1,2,0:0:0:0:
448,192,88104,1,0,0:0:0:0:
192,192,88266,1,8,0:0:0:0:
320,192,88266,1,0,0:0:0:75:Hat open.wav
448,192,88266,1,0,0:0:0:0:
64,192,88427,1,2,0:0:0:0:
192,192,88427,1,0,0:0:0:0:
64,192,88588,1,8,0:0:0:0:
320,192,88588,1,0,0:0:0:75:Hat open.wav
448,192,88588,1,0,0:0:0:0:
192,192,88749,1,2,0:0:0:0:
448,192,88749,1,0,0:0:0:0:
320,192,88830,1,2,0:0:0:0:
64,192,88911,1,8,0:0:0:0:
192,192,88911,1,4,0:0:0:0:
448,192,88911,1,0,0:0:0:0:
192,192,89072,1,2,0:0:0:0:
320,192,89072,1,0,0:0:0:0:
64,192,89233,1,8,0:0:0:0:
320,192,89233,1,0,0:0:0:75:Hat open.wav
448,192,89233,1,0,0:0:0:0:
64,192,89395,1,2,0:0:0:0:
192,192,89395,1,0,0:0:0:0:
192,192,89556,1,8,0:0:0:0:
320,192,89556,1,0,0:0:0:75:Hat open.wav
448,192,89556,1,0,0:0:0:0:
64,192,89717,1,2,0:0:0:0:
448,192,89717,1,0,0:0:0:0:
64,192,89878,1,8,0:0:0:0:
192,192,89878,1,0,0:0:0:75:Hat open.wav
320,192,89878,1,0,0:0:0:0:
192,192,90040,1,2,0:0:0:0:
448,192,90040,1,0,0:0:0:0:
320,192,90120,1,2,0:0:0:0:
64,192,90201,1,8,0:0:0:0:
192,192,90201,1,0,0:0:0:60:Crash 2.wav
448,192,90201,1,0,0:0:0:0:
64,192,90362,1,2,0:0:0:0:
320,192,90362,1,0,0:0:0:0:
192,192,90524,1,8,0:0:0:0:
320,192,90524,1,0,0:0:0:75:Hat open.wav
448,192,90524,1,0,0:0:0:0:
64,192,90685,1,2,0:0:0:0:
192,192,90685,1,0,0:0:0:0:
64,192,90846,1,8,0:0:0:0:
320,192,90846,1,0,0:0:0:75:Hat open.wav
448,192,90846,1,0,0:0:0:0:
192,192,91007,1,2,0:0:0:0:
320,192,91007,1,0,0:0:0:0:
64,192,91169,1,8,0:0:0:0:
192,192,91169,1,0,0:0:0:75:Hat open.wav
448,192,91169,1,0,0:0:0:0:
320,192,91330,1,2,0:0:0:0:
448,192,91330,1,0,0:0:0:0:
192,192,91411,1,2,0:0:0:0:
64,192,91491,1,8,0:0:0:0:
320,192,91491,128,4,91814:0:0:0:0:
448,192,91491,128,0,91814:0:0:0:0:
64,192,91814,1,8,0:0:0:0:
192,192,91814,1,2,0:0:0:0:
448,192,91895,1,8,0:0:0:0:
192,192,91975,1,8,0:0:0:0:
320,192,91975,1,0,0:0:0:0:
64,192,92056,1,8,0:0:0:0:
192,192,92136,1,2,0:0:0:0:
320,192,92136,128,0,92459:0:0:0:60:Crash 2.wav
448,192,92136,128,0,92459:0:0:0:0:
64,192,92459,1,8,0:0:0:0:
192,192,92459,1,2,0:0:0:0:
320,192,92540,1,8,0:0:0:0:
192,192,92620,1,8,0:0:0:0:
448,192,92620,1,0,0:0:0:0:
64,192,92701,1,8,0:0:0:0:
192,192,92782,1,2,0:0:0:0:
320,192,92782,128,4,93104:0:0:0:0:
448,192,92782,128,0,93104:0:0:0:0:
64,192,93104,1,8,0:0:0:0:
192,192,93104,1,2,0:0:0:0:
320,192,93185,1,8,0:0:0:0:
64,192,93266,1,8,0:0:0:0:
448,192,93266,1,0,0:0:0:0:
192,192,93346,1,8,0:0:0:0:
64,192,93427,1,2,0:0:0:0:
320,192,93427,128,0,93749:0:0:0:60:Crash 2.wav
448,192,93427,128,0,93749:0:0:0:0:
64,192,93749,1,8,0:0:0:0:
192,192,93749,1,2,0:0:0:0:
448,192,93830,1,8,0:0:0:0:
64,192,93911,1,8,0:0:0:0:
320,192,93911,1,0,0:0:0:0:
192,192,93991,1,8,0:0:0:0:
64,192,94072,1,2,0:0:0:0:
320,192,94072,128,4,94395:0:0:0:0:
448,192,94072,128,0,94395:0:0:0:0:
64,192,94395,1,8,0:0:0:0:
192,192,94395,1,2,0:0:0:0:
320,192,94475,1,8,0:0:0:0:
64,192,94556,1,8,0:0:0:0:
448,192,94556,1,0,0:0:0:0:
192,192,94636,1,8,0:0:0:0:
320,192,94717,1,2,0:0:0:0:
448,192,94717,1,8,0:0:0:0:
192,192,94798,1,8,0:0:0:0:
64,192,94878,1,8,0:0:0:0:
448,192,94878,1,0,0:0:0:0:
320,192,94959,1,8,0:0:0:0:
64,192,95040,1,2,0:0:0:0:
192,192,95040,1,8,0:0:0:0:
448,192,95120,1,8,0:0:0:0:
192,192,95201,1,8,0:0:0:0:
320,192,95201,1,0,0:0:0:0:
64,192,95282,1,8,0:0:0:0:
320,192,95362,1,8,0:0:0:0:
448,192,95362,1,2,0:0:0:0:
64,192,95443,1,8,0:0:0:0:
192,192,95443,1,0,0:0:0:0:
320,192,95524,1,8,0:0:0:0:
448,192,95524,1,0,0:0:0:0:
64,192,95604,1,8,0:0:0:0:
192,192,95604,1,0,0:0:0:0:
320,192,95685,1,8,0:0:0:0:
448,192,95685,1,2,0:0:0:0:
64,192,95766,1,8,0:0:0:0:
192,192,95766,1,0,0:0:0:0:
320,192,95846,1,8,0:0:0:0:
448,192,95846,1,0,0:0:0:0:
64,192,95927,1,8,0:0:0:0:
192,192,95927,1,0,0:0:0:0:
320,192,96007,1,2,0:0:0:0:
448,192,96007,1,0,0:0:0:60:Tom1.wav
64,192,96088,1,0,0:0:0:60:Tom1.wav
192,192,96169,1,0,0:0:0:60:Tom1.wav
320,192,96169,1,0,0:0:0:0:
448,192,96249,1,0,0:0:0:60:Tom1.wav
64,192,96330,1,2,0:0:0:0:
192,192,96330,1,0,0:0:0:65:Tom2.wav
320,192,96411,1,0,0:0:0:65:Tom2.wav
64,192,96491,1,0,0:0:0:65:Tom3.wav
448,192,96491,1,0,0:0:0:0:
192,192,96572,1,0,0:0:0:65:Tom3.wav
64,192,96653,1,2,0:0:0:0:
320,192,96653,1,4,0:0:0:0:
448,192,96653,1,0,0:0:0:0:
64,192,96814,1,2,0:0:0:0:
192,192,96814,1,0,0:0:0:0:
192,192,96975,1,8,0:0:0:0:
320,192,96975,1,0,0:0:0:75:Hat open.wav
448,192,96975,1,0,0:0:0:0:
64,192,97136,1,0,0:0:0:0:
320,192,97217,1,8,0:0:0:0:
448,192,97217,1,0,0:0:0:0:
64,192,97298,1,2,0:0:0:0:
192,192,97298,1,0,0:0:0:60:Crash 2.wav
320,192,97459,1,2,0:0:0:0:
448,192,97459,1,0,0:0:0:0:
64,192,97620,1,8,0:0:0:0:
192,192,97620,128,0,97943:0:0:0:75:Hat open.wav
448,192,97620,1,0,0:0:0:0:
64,192,97943,1,2,0:0:0:0:
320,192,97943,128,4,98266:0:0:0:0:
448,192,97943,1,0,0:0:0:0:
64,192,98266,128,2,98588:0:0:0:0:
192,192,98266,1,0,0:0:0:60:Crash 2.wav
448,192,98266,1,0,0:0:0:0:
192,192,98588,1,2,0:0:0:0:
320,192,98588,1,4,0:0:0:0:
448,192,98588,128,0,98911:0:0:0:0:
64,192,98911,1,2,0:0:0:0:
192,192,98911,128,0,99233:0:0:0:60:Crash 2.wav
320,192,98911,1,0,0:0:0:0:
64,192,99233,1,2,0:0:0:0:
320,192,99233,1,4,0:0:0:0:
448,192,99233,128,0,99556:0:0:0:0:
64,192,99556,1,10,0:0:0:0:
192,192,99556,1,0,0:0:0:30:Tom3.wav
64,192,99717,1,8,0:0:0:0:
192,192,99717,1,0,0:0:0:30:Tom3.wav
320,192,99878,1,10,0:0:0:0:
448,192,99878,1,0,0:0:0:30:Tom3.wav
320,192,100040,1,8,0:0:0:0:
448,192,100040,1,0,0:0:0:30:Tom3.wav
64,192,100201,1,10,0:0:0:0:
192,192,100201,1,0,0:0:0:30:Tom3.wav
64,192,100362,1,8,0:0:0:0:
192,192,100362,1,0,0:0:0:30:Tom3.wav
64,192,100524,1,8,0:0:0:0:
320,192,100524,1,2,0:0:0:0:
448,192,100524,1,0,0:0:0:40:Tom3.wav
64,192,100685,1,8,0:0:0:0:
192,192,100685,1,0,0:0:0:40:Tom3.wav
448,192,100685,1,0,0:0:0:0:
192,192,100846,1,8,0:0:0:0:
320,192,100846,1,2,0:0:0:0:
448,192,100846,1,0,0:0:0:40:Tom3.wav
64,192,101007,1,8,0:0:0:0:
192,192,101007,1,0,0:0:0:40:Tom3.wav
320,192,101007,1,0,0:0:0:0:
64,192,101169,1,8,0:0:0:0:
320,192,101169,1,2,0:0:0:0:
448,192,101169,1,0,0:0:0:50:Tom3.wav
64,192,101330,1,8,0:0:0:0:
192,192,101330,1,0,0:0:0:50:Tom3.wav
448,192,101330,1,0,0:0:0:0:
192,192,101491,1,8,0:0:0:0:
320,192,101491,1,2,0:0:0:0:
448,192,101491,1,0,0:0:0:60:Tom3.wav
64,192,101653,1,8,0:0:0:0:
192,192,101653,1,0,0:0:0:70:Tom3.wav
320,192,101653,1,0,0:0:0:0:
64,192,101814,1,8,0:0:0:0:
192,192,101814,1,4,0:0:0:0:
320,192,101814,1,0,0:0:0:0:
448,192,101814,1,0,0:0:0:0:
320,192,101975,1,2,0:0:0:0:
448,192,101975,1,0,0:0:0:0:
320,192,102136,1,2,0:0:0:0:
448,192,102136,1,0,0:0:0:0:
64,192,102298,1,8,0:0:0:0:
192,192,102298,1,0,0:0:0:60:Crash 2.wav
320,192,102298,1,0,0:0:0:0:
448,192,102298,1,0,0:0:0:0:
64,192,102459,1,2,0:0:0:0:
192,192,102459,1,0,0:0:0:0:
64,192,102620,1,2,0:0:0:0:
192,192,102620,1,0,0:0:0:0:
64,192,102782,1,8,0:0:0:0:
192,192,102782,1,4,0:0:0:0:
320,192,102782,1,0,0:0:0:0:
448,192,102782,1,0,0:0:0:0:
192,192,102943,1,2,0:0:0:0:
320,192,102943,1,0,0:0:0:0:
192,192,103104,1,2,0:0:0:0:
320,192,103104,1,0,0:0:0:0:
64,192,103266,1,8,0:0:0:0:
192,192,103266,1,0,0:0:0:60:Crash 2.wav
320,192,103266,1,0,0:0:0:0:
448,192,103266,1,0,0:0:0:0:
64,192,103427,1,2,0:0:0:0:
448,192,103427,1,0,0:0:0:0:
64,192,103588,1,2,0:0:0:0:
448,192,103588,1,0,0:0:0:0:
320,192,103749,1,8,0:0:0:0:
448,192,103749,1,0,0:0:0:0:
192,192,103830,1,0,0:0:0:60:Tom1.wav
64,192,103911,1,0,0:0:0:65:Tom2.wav
448,192,103911,1,0,0:0:0:0:
320,192,103991,1,0,0:0:0:65:Tom3.wav
64,192,104072,1,8,0:0:0:0:
192,192,104072,1,4,0:0:0:0:
448,192,104072,1,0,0:0:0:0:
64,192,104395,1,8,0:0:0:0:
320,192,104395,1,0,0:0:0:75:Hat open.wav
448,192,104395,1,0,0:0:0:0:
64,192,104556,1,2,0:0:0:0:
192,192,104556,1,0,0:0:0:0:
192,192,104717,1,8,0:0:0:0:
320,192,104717,1,0,0:0:0:75:Hat open.wav
448,192,104717,1,0,0:0:0:0:
64,192,104878,1,2,0:0:0:0:
448,192,104878,1,0,0:0:0:0:
64,192,105040,1,8,0:0:0:0:
192,192,105040,1,0,0:0:0:75:Hat open.wav
320,192,105040,1,0,0:0:0:0:
320,192,105201,1,2,0:0:0:0:
448,192,105201,1,0,0:0:0:0:
64,192,105362,1,8,0:0:0:0:
192,192,105362,1,0,0:0:0:75:Splash.wav
320,192,105362,1,0,0:0:0:0:
448,192,105362,1,0,0:0:0:0:
64,192,105524,1,8,0:0:0:0:
192,192,105524,1,0,0:0:0:75:Splash.wav
320,192,105524,1,0,0:0:0:0:
448,192,105524,1,0,0:0:0:0:
64,192,105685,1,2,0:0:0:0:
192,192,105685,1,0,0:0:0:0:
64,192,105846,1,8,0:0:0:0:
192,192,105846,1,0,0:0:0:60:Crash 2.wav
320,192,105846,1,0,0:0:0:0:
448,192,105846,1,0,0:0:0:0:
64,192,106007,1,8,0:0:0:0:
192,192,106007,1,0,0:0:0:60:Crash 2.wav
320,192,106007,1,0,0:0:0:0:
448,192,106007,1,0,0:0:0:0:
192,192,106169,1,2,0:0:0:0:
448,192,106169,1,0,0:0:0:0:
320,192,106249,1,2,0:0:0:0:
64,192,106330,1,8,0:0:0:0:
192,192,106330,1,0,0:0:0:75:Hat open.wav
448,192,106330,1,0,0:0:0:0:
64,192,106491,1,2,0:0:0:0:
320,192,106491,1,0,0:0:0:0:
192,192,106572,1,2,0:0:0:0:
64,192,106653,1,8,0:0:0:0:
320,192,106653,1,0,0:0:0:75:Hat open.wav
448,192,106653,1,0,0:0:0:0:
192,192,106814,1,2,0:0:0:0:
448,192,106814,1,0,0:0:0:0:
320,192,106895,1,2,0:0:0:0:
64,192,106975,1,8,0:0:0:0:
192,192,106975,1,4,0:0:0:0:
448,192,106975,1,0,0:0:0:0:
192,192,107136,1,2,0:0:0:0:
320,192,107136,1,0,0:0:0:0:
64,192,107298,1,8,0:0:0:0:
192,192,107298,1,0,0:0:0:75:Hat open.wav
448,192,107298,1,0,0:0:0:0:
320,192,107459,1,2,0:0:0:0:
448,192,107459,1,0,0:0:0:0:
64,192,107620,1,8,0:0:0:0:
192,192,107620,1,0,0:0:0:75:Hat open.wav
320,192,107620,1,0,0:0:0:0:
64,192,107782,1,2,0:0:0:0:
448,192,107782,1,0,0:0:0:0:
64,192,107943,1,8,0:0:0:0:
192,192,107943,1,0,0:0:0:75:Splash.wav
320,192,107943,1,0,0:0:0:0:
448,192,107943,1,0,0:0:0:0:
64,192,108104,1,8,0:0:0:0:
192,192,108104,1,0,0:0:0:75:Splash.wav
320,192,108104,1,0,0:0:0:0:
448,192,108104,1,0,0:0:0:0:
192,192,108266,1,2,0:0:0:0:
320,192,108266,1,0,0:0:0:0:
64,192,108427,1,8,0:0:0:0:
192,192,108427,1,0,0:0:0:60:Crash 2.wav
320,192,108427,1,0,0:0:0:0:
448,192,108427,1,0,0:0:0:0:
64,192,108588,1,8,0:0:0:0:
192,192,108588,1,0,0:0:0:60:Crash 2.wav
320,192,108588,1,0,0:0:0:0:
448,192,108588,1,0,0:0:0:0:
64,192,108749,1,2,0:0:0:0:
192,192,108749,1,0,0:0:0:0:
320,192,108830,1,2,0:0:0:0:
64,192,108911,1,8,0:0:0:0:
192,192,108911,1,4,0:0:0:0:
448,192,108911,1,0,0:0:0:0:
320,192,109072,1,2,0:0:0:0:
448,192,109072,1,0,0:0:0:0:
192,192,109153,1,2,0:0:0:0:
64,192,109233,1,8,0:0:0:0:
320,192,109233,1,0,0:0:0:60:Crash 2.wav
448,192,109233,1,0,0:0:0:0:
64,192,109395,1,2,0:0:0:0:
192,192,109395,1,0,0:0:0:0:
320,192,109475,1,2,0:0:0:0:
64,192,109556,1,8,0:0:0:0:
192,192,109556,1,4,0:0:0:0:
448,192,109556,1,0,0:0:0:0:
320,192,109717,1,2,0:0:0:0:
448,192,109717,1,0,0:0:0:0:
64,192,109878,1,8,0:0:0:0:
192,192,109878,1,0,0:0:0:75:Hat open.wav
320,192,109878,1,0,0:0:0:0:
64,192,110040,1,2,0:0:0:0:
448,192,110040,1,0,0:0:0:0:
64,192,110201,1,8,0:0:0:0:
192,192,110201,1,0,0:0:0:75:Hat open.wav
448,192,110201,1,0,0:0:0:0:
192,192,110362,1,2,0:0:0:0:
320,192,110362,1,0,0:0:0:0:
64,192,110524,1,8,0:0:0:0:
192,192,110524,1,0,0:0:0:75:Splash.wav
320,192,110524,1,0,0:0:0:0:
448,192,110524,1,0,0:0:0:0:
64,192,110685,1,8,0:0:0:0:
192,192,110685,1,0,0:0:0:75:Splash.wav
320,192,110685,1,0,0:0:0:0:
448,192,110685,1,0,0:0:0:0:
64,192,110846,1,2,0:0:0:0:
192,192,110846,1,0,0:0:0:0:
64,192,111007,1,8,0:0:0:0:
192,192,111007,1,0,0:0:0:60:Crash 2.wav
320,192,111007,1,0,0:0:0:0:
448,192,111007,1,0,0:0:0:0:
64,192,111169,1,8,0:0:0:0:
192,192,111169,1,0,0:0:0:60:Crash 2.wav
320,192,111169,1,0,0:0:0:0:
448,192,111169,1,0,0:0:0:0:
192,192,111330,1,2,0:0:0:0:
448,192,111330,1,0,0:0:0:0:
320,192,111411,1,2,0:0:0:0:
64,192,111491,1,8,0:0:0:0:
192,192,111491,1,0,0:0:0:75:Hat open.wav
448,192,111491,1,0,0:0:0:0:
64,192,111653,1,2,0:0:0:0:
320,192,111653,1,0,0:0:0:0:
192,192,111733,1,2,0:0:0:0:
64,192,111814,1,8,0:0:0:0:
320,192,111814,1,0,0:0:0:75:Splash.wav
448,192,111814,1,0,0:0:0:0:
64,192,111975,1,8,0:0:0:0:
192,192,111975,1,0,0:0:0:75:Splash.wav
320,192,111975,1,0,0:0:0:0:
448,192,111975,1,0,0:0:0:0:
192,192,112136,1,2,0:0:0:0:
320,192,112136,1,0,0:0:0:0:
64,192,112298,1,8,0:0:0:0:
320,192,112298,1,0,0:0:0:65:Tom3.wav
448,192,112298,1,0,0:0:0:0:
64,192,112459,1,8,0:0:0:0:
192,192,112459,1,0,0:0:0:65:Tom3.wav
448,192,112459,1,0,0:0:0:0:
320,192,112620,1,2,0:0:0:0:
448,192,112701,1,2,0:0:0:0:
64,192,112782,1,8,0:0:0:0:
192,192,112782,1,0,0:0:0:65:Ride.wav
320,192,112782,1,0,0:0:0:0:
192,192,112943,1,8,0:0:0:0:
320,192,112943,1,0,0:0:0:65:Ride.wav
448,192,112943,1,0,0:0:0:0:
64,192,113104,1,2,0:0:0:0:
192,192,113185,1,2,0:0:0:0:
64,192,113266,1,8,0:0:0:0:
320,192,113266,1,0,0:0:0:65:Tom3.wav
448,192,113266,1,0,0:0:0:0:
64,192,113427,1,8,0:0:0:0:
192,192,113427,1,0,0:0:0:65:Tom3.wav
448,192,113427,1,0,0:0:0:0:
320,192,113588,1,2,0:0:0:0:
192,192,113669,1,2,0:0:0:0:
64,192,113749,1,8,0:0:0:0:
320,192,113749,1,4,0:0:0:0:
448,192,113749,1,0,0:0:0:0:
64,192,113911,1,8,0:0:0:0:
192,192,113911,1,4,0:0:0:0:
448,192,113911,1,0,0:0:0:0:
192,192,114072,1,2,0:0:0:0:
320,192,114072,1,0,0:0:0:0:
64,192,114233,1,8,0:0:0:0:
192,192,114233,1,0,0:0:0:60:Crash 2.wav
320,192,114233,1,0,0:0:0:0:
448,192,114233,1,0,0:0:0:0:
64,192,114395,1,8,0:0:0:0:
192,192,114395,1,0,0:0:0:60:Crash 2.wav
320,192,114395,1,0,0:0:0:0:
448,192,114395,1,0,0:0:0:0:
64,192,114556,128,8,115040:0:0:0:0:
192,192,114556,128,0,115040:0:0:0:80:Crash 2.wav
320,192,114556,128,0,115040:0:0:0:0:
448,192,114556,128,0,115040:0:0:0:0:
