osu file format v14

[General]
AudioFilename: audio.mp3
AudioLeadIn: 0
PreviewTime:211350
Countdown: 0
SampleSet: Soft
StackLeniency: 0.7
Mode: 0
LetterboxInBreaks: 0
WidescreenStoryboard: 1

[Editor]
DistanceSpacing: 1.4
BeatDivisor: 4
GridSize: 32
TimelineZoom: 1.5

[Metadata]
Title:ReI
TitleUnicode:ReI
Artist:THE ORAL CIGARETTES
ArtistUnicode:THE ORAL CIGARETTES
Creator:Sotarks
Version:banter's Insane
Source:
Tags:pepekcz banter toc rel male vocals vocalist rock jrock j-rock japanese Yamanaka Takuya Suzuki Shigenobu Akirakani Akira Nakanishi Masaya ReIproject kisses and kills ジ・オーラル・シガレッツ 中西 雅哉 鈴木 重伸 あきらかにあきら 山中 拓也
BeatmapID:3669579
BeatmapSetID:1790119

[Difficulty]
HPDrainRate:5
CircleSize:3.8
OverallDifficulty:8
ApproachRate:9
SliderMultiplier:1.65
SliderTickRate:1

[Events]
//Background and Video events
0,0,"BG.jpg",0,0
//Break Periods
2,99372,106314
2,166469,173411
//Storyboard Layer 0 (Background)
//Storyboard Layer 1 (Fail)
//Storyboard Layer 2 (Pass)
//Storyboard Layer 3 (Foreground)
//Storyboard Layer 4 (Overlay)
//Storyboard Sound Samples

[TimingPoints]
2062,491.803278688525,4,2,22,42,1,0
2062,-166.666666666667,4,2,22,42,0,0
3045,466.019417475728,4,2,22,42,1,0
3045,-166.666666666667,4,2,22,42,0,0
3977,480,4,2,22,42,1,0
3977,-166.666666666667,4,2,22,42,0,0
5852,468.75,4,2,22,42,1,0
5852,-166.666666666667,4,2,22,42,0,0
7707,465.116279069767,4,2,22,42,1,0
7707,-166.666666666667,4,2,22,42,0,0
9567,477.707006369427,4,2,22,42,1,0
9567,-166.666666666667,4,2,22,42,0,0
11477,454.545454545455,4,2,22,42,1,0
11477,-166.666666666667,4,2,22,42,0,0
13332,468.75,4,2,22,42,1,0
13332,-166.666666666667,4,2,22,42,0,0
17125,468.75,4,2,22,42,1,0
17125,-166.666666666667,4,2,22,42,0,0
19977,468.75,4,2,22,42,1,0
19977,-166.666666666667,4,2,22,42,0,0
20964,451.127819548872,4,2,22,42,1,0
20964,-166.666666666667,4,2,22,42,0,0
24573,508.474576271186,4,2,22,42,1,0
24573,-166.666666666667,4,2,22,42,0,0
26546,454.545454545455,4,2,22,42,1,0
26546,-166.666666666667,4,2,22,42,0,0
28384,468.75,4,2,22,42,1,0
32076,322.58064516129,4,2,22,42,1,0
32076,-100,4,2,22,72,0,0
42398,-111.111111111111,4,2,22,62,0,0
63043,-111.111111111111,4,2,22,62,0,0
70624,-111.111111111111,4,2,22,72,0,0
73366,-99.9999999999999,4,2,22,72,0,0
75946,-99.9999999999999,4,2,22,82,0,1
96592,-99.9999999999999,4,2,22,72,0,0
106914,-125,4,2,22,52,0,0
116592,-125,4,2,22,42,0,0
116914,-142.857142857143,4,2,22,42,0,0
116995,-142.857142857143,4,2,22,5,0,0
117075,-142.857142857143,4,2,22,42,0,0
117156,-142.857142857143,4,2,22,5,0,0
117237,-111.111111111111,4,2,22,62,0,0
127559,-125,4,2,22,62,0,0
135463,-100,4,2,22,62,0,0
137882,-93.4579439252336,4,2,22,82,0,1
157237,-93.4579439252336,4,2,22,82,0,1
158527,-100,4,2,22,82,0,1
159172,-90.9090909090909,4,2,22,82,0,1
161108,-83.3333333333333,4,2,22,82,0,1
162398,-100,4,2,22,82,0,1
163366,-117.647058823529,4,2,22,82,0,1
163688,-117.647058823529,4,2,22,62,0,0
174011,-142.857142857143,4,2,22,62,0,0
181430,-125,4,2,22,62,0,0
182075,-125,4,2,22,62,0,0
182317,-125,4,2,22,5,0,0
182398,-125,4,2,22,62,0,0
182640,-125,4,2,22,5,0,0
182721,-105.263157894737,4,2,22,62,0,0
182963,-105.263157894737,4,2,22,5,0,0
183043,-105.263157894737,4,2,22,62,0,0
183285,-105.263157894737,4,2,22,5,0,0
183366,-90.9090909090909,4,2,22,62,0,0
183608,-90.9090909090909,4,2,22,5,0,0
183688,-111.111111111111,4,2,22,62,0,0
184334,-133.333333333333,4,2,22,62,0,0
194656,-117.647058823529,4,2,22,62,0,0
199817,-105.263157894737,4,2,22,72,0,0
202398,-95.238095238095,4,2,22,72,0,0
204979,-90.9090909090909,4,2,22,62,0,0
207559,-111.111111111111,4,2,22,52,0,0
209495,-111.111111111111,4,2,22,62,0,0
209979,-111.111111111111,4,2,22,72,0,0
210059,-111.111111111111,4,2,22,32,0,0
211350,-111.111111111111,4,2,22,5,0,0
211430,-125,4,2,22,62,0,0
216592,-105.263157894737,4,2,22,82,0,1
216914,-105.263157894737,4,2,22,82,0,1
219172,-95.2380952380954,4,2,22,82,0,1
220785,-95.2380952380954,4,2,22,72,0,0
221108,-133.333333333333,4,2,22,52,0,0
221350,-105.263157894737,4,2,22,5,0,0
221430,-105.263157894737,4,2,22,52,0,0
221672,-105.263157894737,4,2,22,5,0,0
221753,-86.9565217391304,4,2,22,82,0,1
232075,-86.9565217391304,4,2,22,82,0,1
233043,-86.9565217391304,4,2,22,82,0,1
233366,-86.9565217391304,4,2,22,72,0,0
233608,-86.9565217391304,4,2,22,5,0,0
233688,-95.2380952380952,4,2,22,72,0,0
233930,-95.2380952380952,4,2,22,5,0,0
234011,-105.263157894737,4,2,22,72,0,0
234253,-105.263157894737,4,2,22,5,0,0
234334,-117.647058823529,4,2,22,72,0,0
234575,-117.647058823529,4,2,22,5,0,0
234656,-90.9090909090909,4,2,22,82,0,1
237237,-86.9565217391304,4,2,22,82,0,1
239495,-100,4,2,22,82,0,1
239817,-100,4,2,22,72,0,0
247882,-100,4,2,22,72,0,0
248366,-95.2380952380952,4,2,22,72,0,0
248850,-90.9090909090909,4,2,22,72,0,0
249334,-86.9565217391304,4,2,22,72,0,0
249656,-86.9565217391304,4,2,22,82,0,0

[Colours]
Combo1 : 147,139,209
Combo2 : 220,175,206
Combo3 : 213,175,226
Combo4 : 172,135,218

[HitObjects]
419,135,2062,6,0,P|373:94|280:94,1,148.49999546814,2|0,0:0|0:0,0:0:0:0:
216,144,3045,2,0,B|208:189|208:189|242:238|242:238|234:279,1,148.49999546814,2|0,0:0|0:0,0:0:0:0:
215,363,3977,1,2,0:0:0:0:
215,363,4937,6,0,L|365:331,1,148.49999546814,2|0,0:0|0:0,0:0:0:0:
442,373,5852,2,0,P|484:358|486:217,1,197.99999395752,2|0,0:0|0:0,0:0:0:0:
428,164,7023,2,0,L|364:180,2,49.4999984893799,2|0|0,0:0|0:0|0:0,0:0:0:0:
462,85,7707,1,2,0:0:0:0:
316,245,8637,6,0,P|279:243|229:191,2,98.9999969787599,2|0|2,0:0|0:0|0:0,0:0:0:0:
242,69,10283,5,2,0:0:0:0:
242,69,10522,2,0,B|166:54|179:100|89:84,1,148.49999546814,2|0,0:0|0:0,0:0:0:0:
9,53,11477,1,2,0:0:0:0:
9,53,12386,6,0,L|20:109,1,49.4999984893799,2|0,0:0|0:0,0:0:0:0:
78,167,12840,2,0,L|67:223,1,49.4999984893799,2|0,0:0|0:0,0:0:0:0:
42,295,13332,2,0,P|92:267|145:269,1,98.9999969787599,2|0,0:0|0:0,0:0:0:0:
178,191,14035,2,0,P|228:219|281:217,1,98.9999969787599,2|0,0:0|0:0,0:0:0:0:
357,250,14738,2,0,L|366:196,1,49.4999984893799,2|0,0:0|0:0,0:0:0:0:
341,122,15207,1,2,0:0:0:0:
341,122,16144,6,0,P|310:114|282:97,1,49.4999984893799,2|0,0:0|0:0,0:0:0:0:
295,21,16613,2,0,P|326:29|354:46,1,49.4999984893799,2|0,0:0|0:0,0:0:0:0:
427,94,17125,6,0,L|402:255,1,148.49999546814,2|0,0:0|0:0,0:0:0:0:
416,334,18062,2,0,B|364:318|364:318|327:325|327:325|259:306,1,148.49999546814,2|0,0:0|0:0,0:0:0:0:
222,234,19000,1,2,0:0:0:0:
222,234,19977,6,0,B|201:279|153:281|125:242|148:198,1,148.49999546814,2|0,0:0|0:0,0:0:0:0:
19,139,20964,2,0,B|39:155|50:180|50:180|58:156|76:142|76:142|101:150|116:168|116:168|117:142|127:117,1,197.99999395752,2|0,0:0|0:0,0:0:0:0:
197,64,22091,2,0,P|188:33|170:2,2,49.4999984893799,2|0|0,0:0|0:0|0:0,0:0:0:0:
266,115,22768,1,2,0:0:0:0:
401,278,23670,6,0,P|436:273|484:221,2,98.9999969787599,2|0|2,0:0|0:0|0:0,0:0:0:0:
338,23,25335,5,2,0:0:0:0:
338,23,25589,2,0,P|367:69|378:173,1,148.49999546814,2|0,0:0|0:0,0:0:0:0:
325,231,26546,1,2,0:0:0:0:
325,231,27227,2,0,L|266:245,2,49.4999984893799,2|0|0,0:0|0:0|0:0,0:0:0:0:
398,289,27909,2,0,L|457:303,1,49.4999984893799,2|0,0:0|0:0,0:0:0:0:
348,363,28384,5,2,0:0:0:0:
69,221,30259,1,2,0:0:0:0:
347,120,32076,6,0,L|441:99,1,82.5,14|0,0:2|3:2,0:0:0:0:
325,218,32398,1,10,0:2:0:0:
249,63,32559,2,0,P|187:20|88:36,1,165,2|0,3:2|3:2,0:0:0:0:
78,157,33043,5,10,0:2:0:0:
196,213,33205,2,0,L|173:108,1,82.5,10|0,0:2|0:0,0:0:0:0:
16,252,33527,1,10,0:2:0:0:
158,315,33688,2,0,L|265:324,1,82.5,10|0,0:2|3:2,0:0:0:0:
240,321,33930,1,0,3:2:0:0:
240,321,34011,1,10,0:2:0:0:
369,269,34172,1,0,3:2:0:0:
206,140,34334,1,10,0:2:0:0:
283,246,34495,1,0,3:2:0:0:
283,246,34576,1,0,3:2:0:0:
283,246,34656,6,0,P|299:206|297:151,1,82.5,14|0,0:2|3:2,0:0:0:0:
403,148,34979,1,10,0:2:0:0:
234,64,35140,2,0,B|295:53|295:53|333:66|333:66|405:52,1,165,2|0,3:2|3:2,0:0:0:0:
201,165,35624,5,10,0:2:0:0:
120,78,35785,2,0,L|14:49,1,82.5,10|0,0:2|0:0,0:0:0:0:
231,49,36108,1,10,0:2:0:0:
96,181,36269,2,0,B|77:218|77:218|90:282,1,82.5,10|0,0:2|3:2,0:0:0:0:
86,259,36511,1,0,3:2:0:0:
86,259,36592,1,10,0:2:0:0:
183,200,36753,1,0,3:2:0:0:
125,353,36914,1,10,0:2:0:0:
262,277,37075,1,0,3:2:0:0:
262,277,37156,1,0,3:2:0:0:
262,277,37237,6,0,P|303:283|352:312,1,82.5,14|0,0:2|3:2,0:0:0:0:
483,342,37559,1,10,0:2:0:0:
387,375,37721,2,0,B|378:329|378:329|416:274|416:274|406:217,1,165,2|0,3:2|3:2,0:0:0:0:
298,100,38205,5,10,0:2:0:0:
417,197,38366,2,0,P|458:191|503:171,1,82.5,10|0,0:2|0:0,0:0:0:0:
364,23,38688,1,10,0:2:0:0:
311,190,38850,2,0,L|298:281,1,82.5,10|0,0:2|3:2,0:0:0:0:
299,271,39092,1,0,3:2:0:0:
299,271,39172,1,10,0:2:0:0:
203,211,39334,1,0,3:2:0:0:
155,377,39495,1,10,0:2:0:0:
219,304,39656,1,0,3:2:0:0:
87,199,39817,6,0,L|-6:221,1,82.5,14|0,0:2|3:2,0:0:0:0:
130,292,40140,1,10,0:2:0:0:
162,129,40301,2,0,P|224:120|296:197,1,165,2|0,3:2|3:2,0:0:0:0:
431,155,40785,5,10,0:2:0:0:
348,261,40946,2,0,L|333:357,1,82.5,2|0,3:2|0:0,0:0:0:0:
335,342,41188,1,0,3:2:0:0:
335,342,41269,1,10,0:2:0:0:
499,223,41430,2,0,B|520:187|520:187|511:141,1,82.5,10|0,0:2|0:0,0:0:0:0:
410,42,41753,5,10,0:2:0:0:
389,38,41833,1,8,0:2:0:0:
369,40,41914,1,8,0:2:0:0:
350,48,41994,1,8,0:2:0:0:
334,61,42075,2,0,L|342:110,1,41.25,8|8,3:3|3:3,0:0:0:0:
278,158,42237,2,0,L|286:207,1,41.25,4|4,3:3|3:3,0:0:0:0:
227,269,42398,6,0,P|162:269|105:196,1,148.49999546814,6|8,0:2|0:2,0:0:0:0:
185,74,42882,1,0,0:0:0:0:
185,74,43043,2,0,L|171:152,1,74.2499977340699,2|0,3:2|3:2,0:0:0:0:
85,77,43366,1,8,0:2:0:0:
276,188,43688,6,0,B|334:178|334:178|365:189|365:189|440:176,1,148.49999546814,2|8,3:2|0:2,0:0:0:0:
512,135,44172,1,2,0:0:0:0:
512,135,44334,2,0,P|462:181|461:269,1,148.49999546814,2|8,3:2|0:2,0:0:0:0:
508,339,44817,1,2,0:0:0:0:
359,306,44979,6,0,L|276:332,1,74.2499977340699,2|0,3:2|0:0,0:0:0:0:
167,383,45301,2,0,P|118:358|115:253,1,148.49999546814,8|0,0:2|3:2,0:0:0:0:
258,168,45785,1,0,3:2:0:0:
189,263,45946,2,0,L|173:176,1,74.2499977340699,10|0,0:2|0:0,0:0:0:0:
38,58,46269,6,0,L|199:89,1,148.49999546814,2|8,3:2|0:2,0:0:0:0:
359,40,46753,1,0,0:0:0:0:
256,187,46914,2,0,B|248:149|248:149|278:91|278:91|269:47,1,148.49999546814,2|8,3:2|0:2,0:0:0:0:
342,159,47398,1,8,0:0:0:0:
351,166,47479,1,8,0:0:0:0:
359,172,47559,6,0,P|398:144|390:40,1,148.49999546814,6|8,3:2|0:2,0:0:0:0:
243,136,48043,1,0,0:0:0:0:
243,136,48205,2,0,L|259:218,1,74.2499977340699,2|0,3:2|3:2,0:0:0:0:
373,252,48527,1,8,0:2:0:0:
188,351,48850,6,0,B|130:341|130:341|99:352|99:352|24:339,1,148.49999546814,2|8,3:2|0:2,0:0:0:0:
0,246,49334,1,2,0:0:0:0:
123,173,49495,2,0,L|107:256,1,74.2499977340699,2|0,3:2|3:2,0:0:0:0:
32,148,49817,2,0,L|46:75,1,74.2499977340699,8|0,0:2|0:0,0:0:0:0:
218,10,50140,6,0,P|250:83|239:172,1,148.49999546814,2|8,3:2|0:2,0:0:0:0:
150,259,50624,2,0,P|139:226|138:173,1,74.2499977340699,2|0,0:0|3:2,0:0:0:0:
166,91,50946,1,0,3:2:0:0:
262,166,51108,2,0,L|341:184,1,74.2499977340699,8|2,0:2|0:0,0:0:0:0:
490,50,51430,6,0,P|438:41|357:107,1,148.49999546814,2|4,3:3|3:2,0:0:0:0:
494,238,51914,1,8,0:2:0:0:
419,166,52075,2,0,L|404:243,1,74.2499977340699,2|0,3:2|0:0,0:0:0:0:
331,317,52398,1,2,3:2:0:0:
271,171,52559,1,8,0:2:0:0:
114,302,52721,6,0,L|267:261,1,148.49999546814,6|8,3:2|0:2,0:0:0:0:
190,117,53205,1,0,0:0:0:0:
190,117,53366,2,0,P|175:159|174:201,1,74.2499977340699,2|0,3:2|3:2,0:0:0:0:
286,149,53688,2,0,P|301:107|302:65,1,74.2499977340699,8|0,0:2|0:0,0:0:0:0:
148,22,54011,6,0,B|90:12|90:12|59:23|59:23|-16:10,1,148.49999546814,2|8,3:2|0:2,0:0:0:0:
6,159,54495,1,2,0:0:0:0:
6,159,54656,2,0,P|57:123|149:122,1,148.49999546814,2|8,3:2|0:2,0:0:0:0:
204,194,55140,1,2,0:0:0:0:
369,98,55301,6,0,L|386:14,1,74.2499977340699,2|0,3:2|0:0,0:0:0:0:
267,126,55624,2,0,L|237:271,1,148.49999546814,8|0,0:2|3:2,0:0:0:0:
309,358,56108,1,0,3:2:0:0:
404,246,56269,2,0,P|365:252|329:268,1,74.2499977340699,10|0,0:2|0:0,0:0:0:0:
186,351,56592,6,0,P|111:343|71:286,1,148.49999546814,2|8,3:2|0:2,0:0:0:0:
92,196,57075,1,2,0:0:0:0:
202,122,57237,2,0,L|222:285,1,148.49999546814,2|8,3:2|0:2,0:0:0:0:
124,62,57721,1,8,0:0:0:0:
124,62,57801,1,8,0:0:0:0:
124,62,57882,6,0,B|207:44|183:91|268:76,1,148.49999546814,6|8,3:2|0:2,0:0:0:0:
418,139,58366,1,0,0:0:0:0:
418,139,58527,2,0,P|434:99|439:47,1,74.2499977340699,2|0,3:2|3:2,0:0:0:0:
384,225,58850,2,0,L|456:241,1,74.2499977340699,8|0,0:2|0:0,0:0:0:0:
268,160,59172,6,0,P|196:155|134:217,1,148.49999546814,2|8,3:2|0:2,0:0:0:0:
108,315,59656,1,0,0:0:0:0:
25,227,59817,2,0,L|10:150,1,74.2499977340699,2|0,3:2|3:2,0:0:0:0:
81,51,60140,2,0,L|95:123,1,74.2499977340699,8|0,0:2|0:0,0:0:0:0:
224,238,60463,6,0,P|279:284|351:279,1,148.49999546814,2|8,3:2|0:2,0:0:0:0:
421,158,60946,1,2,0:0:0:0:
421,158,61108,2,0,L|342:179,1,74.2499977340699,0|0,3:2|3:2,0:0:0:0:
228,117,61430,2,0,B|210:83|210:83|220:21,1,74.2499977340699,12|0,0:2|0:0,0:0:0:0:
397,0,61753,5,2,3:2:0:0:
317,84,61914,1,8,0:2:0:0:
317,84,61995,1,8,0:2:0:0:
317,84,62075,2,0,L|305:164,1,74.2499977340699,8|8,0:2|0:2,0:0:0:0:
387,258,62398,1,8,3:3:0:0:
405,260,62478,1,8,3:3:0:0:
423,256,62559,1,8,3:3:0:0:
439,247,62639,1,8,3:3:0:0:
451,233,62721,2,0,L|441:184,3,37.1249988670349,4|4|4|4,3:3|3:3|3:3|3:3,0:0:0:0:
492,122,63043,6,0,B|434:112|434:112|403:123|403:123|328:110,1,148.49999546814,6|8,3:2|0:2,0:0:0:0:
223,62,63527,1,0,3:0:0:0:
216,69,63608,1,0,3:2:0:0:
210,76,63688,2,0,L|223:156,1,74.2499977340699,0|0,3:2|3:2,0:0:0:0:
308,212,64011,1,8,0:2:0:0:
142,288,64172,6,0,P|178:283|211:267,1,74.2499977340699,2|0,0:2|3:2,0:0:0:0:
91,185,64495,2,0,P|54:189|21:205,1,74.2499977340699,0|8,3:2|0:2,0:0:0:0:
187,182,64817,2,0,L|200:121,3,37.1249988670349,0|0|2|0,3:2|3:2|3:2|0:0,0:0:0:0:
156,73,65140,1,0,3:2:0:0:
291,131,65301,2,0,L|370:110,1,74.2499977340699,8|0,0:2|3:0,0:0:0:0:
483,276,65624,6,0,P|407:273|358:209,1,148.49999546814,6|8,3:2|0:2,0:0:0:0:
450,99,66108,1,0,3:0:0:0:
457,106,66188,1,0,3:2:0:0:
463,113,66269,2,0,L|450:193,1,74.2499977340699,0|0,3:2|3:2,0:0:0:0:
399,303,66592,1,8,0:2:0:0:
279,189,66753,6,0,B|196:171|220:218|135:203,1,148.49999546814,0|0,0:2|0:0,0:0:0:0:
36,107,67237,1,8,0:2:0:0:
162,108,67398,2,0,L|202:96,3,37.1249988670349,0|0|0|0,3:2|3:2|3:2|0:0,0:0:0:0:
249,32,67721,1,0,3:2:0:0:
368,165,67882,1,8,0:2:0:0:
354,161,67962,1,8,0:2:0:0:
340,158,68043,1,8,0:2:0:0:
325,154,68123,1,8,0:2:0:0:
311,151,68205,6,0,P|269:178|267:284,1,148.49999546814,2|8,3:2|0:2,0:0:0:0:
341,380,68689,1,0,3:2:0:0:
348,373,68769,1,0,3:2:0:0:
354,366,68850,2,0,L|341:286,1,74.2499977340699,0|0,3:2|3:2,0:0:0:0:
417,240,69172,1,8,0:2:0:0:
253,302,69334,6,0,L|160:273,1,74.2499977340699,2|0,0:2|3:2,0:0:0:0:
148,165,69656,2,0,L|218:187,1,74.2499977340699,0|8,3:2|0:2,0:0:0:0:
62,228,69979,2,0,L|53:172,3,37.1249988670349,0|0|0|0,3:0|3:2|3:2|3:0,0:0:0:0:
74,110,70301,1,0,3:2:0:0:
233,171,70463,2,0,P|251:135|256:90,1,74.2499977340699,8|8,0:2|0:0,0:0:0:0:
176,91,70705,1,8,3:2:0:0:
176,91,70785,6,0,L|196:249,1,148.49999546814,6|8,3:2|0:2,0:0:0:0:
294,330,71269,1,0,3:0:0:0:
294,330,71350,1,0,3:2:0:0:
294,330,71430,2,0,L|311:246,1,74.2499977340699,0|0,3:2|3:2,0:0:0:0:
265,159,71753,1,8,0:2:0:0:
396,282,71914,6,0,P|460:278|511:197,1,148.49999546814,0|0,3:0|3:2,0:0:0:0:
497,77,72398,2,0,L|402:92,1,74.2499977340699,8|0,0:2|0:0,0:0:0:0:
302,69,72721,1,8,0:2:0:0:
302,69,72801,1,8,0:2:0:0:
302,69,72882,1,8,0:2:0:0:
435,177,73043,1,8,0:2:0:0:
165,271,73366,5,14,0:2:0:0:
69,125,73527,2,0,L|53:17,1,82.5,0|0,3:2|3:2,0:0:0:0:
197,61,73850,5,14,0:2:0:0:
81,221,74011,2,0,L|-20:245,1,82.5,0|0,0:0|3:2,0:0:0:0:
160,164,74334,5,10,0:2:0:0:
266,325,74495,1,8,0:2:0:0:
138,300,74656,5,0,3:2:0:0:
142,288,74737,1,0,3:2:0:0:
155,279,74817,1,14,0:2:0:0:
321,231,74979,2,0,P|340:194|337:127,1,82.5,10|0,0:2|0:0,0:0:0:0:
218,146,75301,5,8,3:2:0:0:
222,166,75382,1,8,3:2:0:0:
226,186,75463,1,8,3:2:0:0:
230,205,75543,1,8,3:2:0:0:
234,225,75624,1,8,3:2:0:0:
238,245,75705,1,8,3:2:0:0:
243,264,75785,1,8,3:2:0:0:
248,284,75866,1,8,3:2:0:0:
253,303,75946,6,0,P|315:317|404:241,1,165,6|8,3:2|0:2,0:0:0:0:
438,125,76430,1,0,0:0:0:0:
438,125,76511,1,8,3:2:0:0:
438,125,76592,2,0,L|342:148,1,82.5,2|0,3:2|3:2,0:0:0:0:
197,152,76914,2,0,P|175:89|177:18,1,123.75,8|0,0:2|0:0,0:0:0:0:
270,0,77237,6,0,L|255:82,1,82.5,2|0,3:2|0:0,0:0:0:0:
195,237,77559,2,0,L|106:215,1,82.5,8|8,0:2|0:0,0:0:0:0:
115,218,77801,1,8,3:2:0:0:
115,218,77882,1,2,3:2:0:0:
149,340,78043,1,0,3:2:0:0:
29,219,78205,1,10,0:2:0:0:
213,157,78366,1,8,0:2:0:0:
223,162,78446,1,8,0:2:0:0:
233,165,78527,6,0,B|293:154|293:154|332:167|332:167|404:153,1,165,6|8,3:2|0:2,0:0:0:0:
448,68,79011,1,2,0:0:0:0:
358,276,79172,2,0,P|312:255|262:248,1,82.5,2|0,3:2|3:2,0:0:0:0:
307,371,79495,1,8,0:2:0:0:
447,345,79656,1,8,0:0:0:0:
447,345,79737,1,8,3:2:0:0:
447,345,79817,6,0,L|462:249,1,82.5,2|0,3:2|3:2,0:0:0:0:
365,84,80140,2,0,L|352:165,1,82.5,10|0,0:2|0:0,0:0:0:0:
263,264,80463,1,8,0:2:0:0:
247,277,80543,1,8,0:2:0:0:
228,285,80624,1,8,0:2:0:0:
207,286,80704,1,8,0:2:0:0:
188,281,80785,2,0,L|115:300,1,41.25,12|12,3:3|3:3,0:0:0:0:
74,200,80946,2,0,L|147:219,1,41.25,12|12,3:3|3:3,0:0:0:0:
230,183,81108,6,0,P|258:141|235:23,1,165,6|8,3:2|0:2,0:0:0:0:
111,120,81592,1,8,0:0:0:0:
111,120,81672,1,8,3:2:0:0:
111,120,81753,2,0,L|127:212,1,82.5,6|0,3:2|3:2,0:0:0:0:
153,34,82075,2,0,L|52:11,1,82.5,8|8,0:2|0:0,0:0:0:0:
236,143,82398,6,0,P|320:144|386:70,1,165,6|8,3:2|0:2,0:0:0:0:
496,56,82882,1,8,0:0:0:0:
496,56,82963,1,8,0:0:0:0:
496,56,83043,2,0,L|474:162,1,82.5,6|0,3:2|3:2,0:0:0:0:
401,289,83366,1,8,0:2:0:0:
512,233,83527,1,8,0:2:0:0:
504,226,83608,1,8,0:2:0:0:
496,218,83688,6,0,L|329:247,1,165,6|8,3:2|0:2,0:0:0:0:
178,188,84172,1,0,3:0:0:0:
178,188,84253,1,0,3:0:0:0:
178,188,84334,2,0,P|165:140|167:90,1,82.5,2|0,3:2|3:0,0:0:0:0:
279,21,84656,2,0,L|263:108,1,82.5,8|0,0:2|3:0,0:0:0:0:
270,112,84898,1,0,3:0:0:0:
278,123,84979,2,0,L|262:210,1,82.5,2|0,3:2|3:0,0:0:0:0:
125,34,85301,1,8,0:2:0:0:
3,352,85624,5,10,0:2:0:0:
29,358,85704,1,8,0:2:0:0:
58,356,85785,1,8,0:2:0:0:
85,344,85865,1,8,0:2:0:0:
106,324,85946,1,8,0:2:0:0:
128,304,86028,1,8,0:2:0:0:
155,292,86108,1,8,0:2:0:0:
184,289,86189,1,8,0:2:0:0:
212,295,86269,6,0,P|160:236|173:156,1,165,6|8,3:2|0:2,0:0:0:0:
265,43,86753,1,0,0:0:0:0:
265,43,86834,1,8,3:2:0:0:
265,43,86914,2,0,L|353:67,1,82.5,2|0,3:2|3:2,0:0:0:0:
487,61,87237,1,8,0:2:0:0:
356,237,87398,1,0,0:0:0:0:
494,157,87559,6,0,B|434:146|434:146|395:159|395:159|323:145,1,165,2|8,3:2|0:2,0:0:0:0:
176,127,88043,1,8,0:0:0:0:
176,127,88124,1,8,0:2:0:0:
176,127,88205,2,0,L|196:218,1,82.5,2|0,3:2|3:2,0:0:0:0:
246,367,88527,1,10,0:2:0:0:
332,254,88688,1,8,0:2:0:0:
320,244,88769,1,8,0:2:0:0:
304,241,88850,6,0,P|263:275|135:270,1,165,2|8,3:2|0:2,0:0:0:0:
55,137,89334,1,0,0:0:0:0:
55,137,89414,1,8,3:2:0:0:
55,137,89495,2,0,P|96:103|224:108,1,165,2|8,3:2|0:2,0:0:0:0:
329,151,89979,1,8,0:0:0:0:
329,151,90059,1,8,3:2:0:0:
329,151,90140,6,0,L|349:57,1,82.5,2|0,3:2|3:2,0:0:0:0:
207,114,90463,2,0,L|173:275,1,165,10|0,0:2|3:2,0:0:0:0:
241,377,90946,1,0,3:2:0:0:
364,230,91108,1,10,0:2:0:0:
394,227,91188,1,8,0:2:0:0:
423,238,91269,1,8,0:2:0:0:
445,260,91349,1,8,0:2:0:0:
455,288,91430,6,0,B|395:277|395:277|356:290|356:290|284:276,1,165,6|8,3:2|0:2,0:0:0:0:
226,218,91834,1,8,0:2:0:0:
226,218,91914,2,0,L|218:164,1,41.25,8|8,0:2|0:2,0:0:0:0:
131,71,92075,6,0,P|84:65|29:126,1,123.75,6|0,3:2|0:0,0:0:0:0:
83,181,92398,2,0,L|140:165,1,41.25,8|8,0:2|0:2,0:0:0:0:
217,90,92559,2,0,L|274:106,1,41.25,8|8,0:2|0:2,0:0:0:0:
352,208,92721,6,0,L|371:330,1,123.75,6|0,3:2|0:0,0:0:0:0:
300,379,93043,2,0,P|286:351|285:308,1,41.25,8|8,0:2|0:2,0:0:0:0:
217,262,93205,2,0,P|234:235|270:213,1,41.25,8|8,0:2|0:2,0:0:0:0:
376,192,93366,5,12,3:3:0:0:
391,178,93446,1,12,3:3:0:0:
401,160,93527,1,12,3:3:0:0:
404,140,93607,1,12,3:3:0:0:
401,120,93688,2,0,L|342:103,3,41.25,12|12|12|12,3:3|3:3|3:3|3:3,0:0:0:0:
306,36,94011,6,0,P|252:31|185:115,1,165,6|8,3:2|0:2,0:0:0:0:
276,242,94495,1,8,0:0:0:0:
276,242,94575,1,8,0:2:0:0:
276,242,94656,2,0,L|262:133,1,82.5,0|0,3:2|3:2,0:0:0:0:
195,295,94979,1,8,0:2:0:0:
299,336,95140,1,0,0:0:0:0:
171,206,95301,5,10,0:2:0:0:
141,197,95381,1,8,0:2:0:0:
110,200,95462,1,8,0:2:0:0:
84,215,95542,1,8,0:2:0:0:
62,239,95624,2,0,L|75:307,1,41.25,8|8,0:2|0:2,0:0:0:0:
159,361,95785,2,0,L|167:320,1,41.25,8|8,0:2|0:2,0:0:0:0:
250,252,95946,1,12,3:3:0:0:
261,255,96026,1,12,3:3:0:0:
273,259,96107,1,12,3:3:0:0:
285,263,96187,1,12,3:3:0:0:
297,266,96269,2,12,L|386:247,1,82.5,12|12,3:3|3:3,3:3:0:0:
428,165,96592,5,6,3:2:0:0:
256,192,96672,12,12,99172,0:2:0:0:
127,80,106914,6,0,P|43:87|11:137,1,132,6|8,3:2|0:2,0:0:0:0:
52,207,107398,1,0,0:0:0:0:
52,207,107559,2,0,L|136:227,1,66,2|0,3:2|0:0,0:0:0:0:
148,304,107882,2,0,L|232:324,1,66,8|0,0:2|0:0,0:0:0:0:
299,267,108205,2,0,P|340:218|313:143,1,132,2|8,3:2|0:2,0:0:0:0:
220,69,108688,1,0,0:0:0:0:
220,69,108850,2,0,L|242:206,1,132,2|4,3:2|3:2,0:0:0:0:
382,63,109495,6,0,B|433:55|433:55|460:61|460:61|515:54,1,132,2|8,3:2|0:2,0:0:0:0:
481,165,109979,1,0,0:0:0:0:
481,165,110140,2,0,P|443:146|406:142,1,66,0|0,3:2|0:0,0:0:0:0:
309,158,110463,1,10,0:2:0:0:
309,158,110624,2,0,P|264:188|164:179,1,132
116,129,111108,2,0,L|103:49,1,66,8|0,0:2|0:0,0:0:0:0:
211,10,111430,5,6,3:2:0:0:
88,223,111753,1,6,3:2:0:0:
329,190,112075,6,0,P|376:198|422:289,1,132,6|8,3:2|0:2,0:0:0:0:
256,277,112559,1,0,3:0:0:0:
256,277,112721,2,0,P|238:200|233:126,1,132,2|8,3:2|0:2,0:0:0:0:
236,52,113205,1,0,0:0:0:0:
236,52,113366,2,0,P|204:107|142:125,2,132,2|8|2,3:2|0:2|3:2,0:0:0:0:
21,0,114334,1,6,3:2:0:0:
6,253,114656,6,0,L|141:229,1,132,6|8,3:2|0:2,0:0:0:0:
176,325,115140,2,0,L|46:348,1,132,2|0,0:0|0:0,0:0:0:0:
154,219,115624,1,8,0:2:0:0:
261,339,115785,1,10,0:2:0:0:
393,105,116592,6,0,P|435:78|500:83,1,99,2|0,0:3|0:0,0:0:0:0:
495,90,116914,2,0,L|476:182,1,86.6249973564149
512,263,117237,6,0,B|454:253|454:253|423:264|423:264|348:251,1,148.49999546814,6|8,3:2|0:2,0:0:0:0:
284,176,117721,1,0,0:0:0:0:
284,176,117882,2,0,L|273:116,2,37.1249988670349,2|2|2,3:2|0:3|0:3,0:0:0:0:
227,279,118205,2,0,L|213:352,1,74.2499977340699,8|0,0:2|0:0,0:0:0:0:
125,189,118527,6,0,P|94:118|134:32,1,148.49999546814,2|8,3:2|0:2,0:0:0:0:
220,30,119011,1,2,0:0:0:0:
354,136,119172,2,0,P|402:123|435:99,1,74.2499977340699,2|2,3:2|0:3,0:0:0:0:
265,107,119495,2,0,L|252:201,1,74.2499977340699,8|2,0:2|0:3,0:0:0:0:
365,337,119817,6,0,P|312:277|237:280,2,148.49999546814,2|8|0,3:2|0:2|3:2,0:0:0:0:
227,369,120624,1,2,0:3:0:0:
227,369,120785,2,0,L|153:378,1,74.2499977340699,10|2,0:2|0:0,0:0:0:0:
2,261,121108,6,0,L|149:279,1,148.49999546814,2|8,3:2|0:2,0:0:0:0:
243,197,121592,1,2,0:3:0:0:
243,197,121753,2,0,P|257:160|259:108,1,74.2499977340699,2|0,3:2|0:0,0:0:0:0:
173,25,122075,2,0,P|159:62|157:114,1,74.2499977340699,10|0,0:2|0:0,0:0:0:0:
333,61,122398,6,0,B|391:51|391:51|422:62|422:62|497:49,1,148.49999546814,2|8,3:2|0:2,0:0:0:0:
455,160,122882,1,2,0:0:0:0:
455,160,123043,2,0,L|444:216,2,37.1249988670349,2|2|2,3:2|0:3|0:3,0:0:0:0:
355,162,123366,2,0,L|262:143,1,74.2499977340699,8|2,0:2|0:0,0:0:0:0:
149,285,123688,6,0,P|222:288|279:227,1,148.49999546814,2|8,3:2|0:2,0:0:0:0:
198,126,124172,1,2,0:0:0:0:
192,135,124253,1,2,0:3:0:0:
186,143,124334,2,0,L|193:190,2,37.1249988670349,2|2|2,3:2|0:3|0:0,0:0:0:0:
88,207,124656,2,0,P|47:198|4:173,1,74.2499977340699,10|0,0:2|0:0,0:0:0:0:
129,54,124979,6,0,L|282:21,1,148.49999546814,2|2,3:2|3:2,0:0:0:0:
407,5,125463,2,0,L|382:95,1,74.2499977340699,14|0,0:2|0:0,0:0:0:0:
345,183,125785,1,0,0:0:0:0:
491,71,125946,2,0,L|510:-1,1,74.2499977340699,10|2,0:2|0:0,0:0:0:0:
293,36,126269,1,4,3:2:0:0:
171,280,126592,5,10,0:2:0:0:
151,299,126672,1,8,0:2:0:0:
126,312,126753,1,10,0:2:0:0:
99,316,126833,1,8,0:2:0:0:
72,311,126914,2,0,L|66:274,3,37.1249988670349,8|12|8|8,3:3|3:3|3:3|3:3,0:0:0:0:
56,178,127237,2,0,P|79:183|108:198,1,37.1249988670349,4|4,3:3|3:3,0:0:0:0:
163,243,127398,2,0,P|186:238|215:223,1,37.1249988670349,4|4,3:3|3:3,0:0:0:0:
272,154,127559,6,0,L|284:72,1,66,6|0,3:2|3:2,0:0:0:0:
160,15,127882,2,0,L|181:161,1,132,8|0,0:2|3:2,0:0:0:0:
217,242,128366,1,0,3:2:0:0:
306,171,128527,2,0,P|346:180|383:209,1,66,8|0,0:2|3:0,0:0:0:0:
376,204,128769,1,0,3:2:0:0:
379,218,128850,6,0,L|368:291,1,66,0|0,3:2|3:2,0:0:0:0:
420,384,129172,1,8,0:2:0:0:
278,285,129334,2,0,P|211:288|157:332,1,132,4|0,3:2|3:2,0:0:0:0:
0,262,129817,1,8,0:2:0:0:
69,342,129979,1,0,3:0:0:0:
69,342,130059,1,0,3:2:0:0:
69,342,130140,6,0,L|85:268,1,66,6|0,3:2|3:2,0:0:0:0:
20,164,130463,2,0,B|71:155|71:155|98:164|98:164|148:156,1,132,8|0,0:2|3:2,0:0:0:0:
236,201,130946,1,0,3:2:0:0:
324,110,131108,2,0,L|252:92,1,66,8|0,0:2|3:2,0:0:0:0:
247,100,131350,1,0,3:2:0:0:
231,107,131430,6,0,P|212:72|214:32,1,66,0|0,3:2|3:2,0:0:0:0:
315,1,131753,1,8,0:2:0:0:
363,151,131914,2,0,L|346:233,1,66,4|0,3:2|3:2,0:0:0:0:
489,363,132237,1,0,3:2:0:0:
430,258,132398,1,8,3:2:0:0:
489,363,132559,1,0,3:2:0:0:
356,332,132721,6,0,L|285:353,1,66,6|0,3:2|0:0,0:0:0:0:
146,218,133043,2,0,P|213:221|267:265,1,132,8|0,0:2|3:2,0:0:0:0:
183,332,133527,1,0,3:2:0:0:
71,282,133688,2,0,L|59:191,1,66,8|0,0:2|3:0,0:0:0:0:
53,208,133930,1,0,3:2:0:0:
43,199,134011,6,0,L|31:108,1,66,0|0,3:2|3:2,0:0:0:0:
94,46,134334,1,8,0:2:0:0:
211,121,134495,2,0,L|185:257,1,132,4|0,3:2|3:2,0:0:0:0:
186,250,134898,1,0,3:2:0:0:
186,250,134979,1,12,0:2:0:0:
118,128,135140,1,0,3:0:0:0:
323,311,135463,5,10,0:2:0:0:
398,180,135624,2,0,B|432:159|432:159|474:162,1,82.5,10|0,0:2|3:0,0:0:0:0:
415,350,135946,5,10,0:2:0:0:
303,209,136108,2,0,L|286:98,1,82.5,10|0,0:2|3:0,0:0:0:0:
300,117,136350,1,0,3:0:0:0:
313,104,136430,2,0,B|248:92|248:92|214:104|214:104|152:93,1,165,14|8,0:2|0:2,0:0:0:0:
26,267,136914,1,8,0:2:0:0:
188,190,137075,1,8,0:2:0:0:
28,131,137237,5,8,0:2:0:0:
18,106,137317,1,8,0:2:0:0:
21,80,137398,1,8,0:2:0:0:
35,59,137478,1,8,0:2:0:0:
58,46,137559,1,8,0:2:0:0:
83,50,137639,1,8,0:2:0:0:
109,54,137720,1,8,0:2:0:0:
135,59,137800,1,8,0:2:0:0:
160,64,137882,6,0,P|201:117|306:125,1,176.549994612122,6|8,3:2|0:2,0:0:0:0:
429,86,138366,1,8,0:0:0:0:
429,86,138446,1,8,0:0:0:0:
429,86,138527,2,0,L|408:195,1,88.2749973060609,2|0,3:2|3:2,0:0:0:0:
465,365,138850,2,0,L|481:278,1,88.2749973060609,8|8,0:2|0:0,0:0:0:0:
474,267,139092,1,8,0:0:0:0:
464,257,139172,6,0,P|408:271|359:299,1,88.2749973060609,2|0,3:2|3:2,0:0:0:0:
226,172,139495,2,0,P|266:190|309:199,1,88.2749973060609,8|8,0:2|0:0,0:0:0:0:
309,199,139737,1,8,0:2:0:0:
309,199,139817,1,2,3:2:0:0:
397,142,139979,1,0,3:2:0:0:
293,296,140140,1,10,0:2:0:0:
213,137,140301,1,8,3:2:0:0:
204,129,140381,1,8,3:2:0:0:
195,121,140462,6,0,B|130:109|130:109|87:123|87:123|23:110,1,176.549994612122,2|8,3:2|0:2,0:0:0:0:
0,251,140946,1,8,0:0:0:0:
0,251,141027,1,8,0:0:0:0:
0,251,141108,2,0,L|22:364,1,88.2749973060609,2|0,3:2|3:2,0:0:0:0:
105,213,141430,1,8,0:2:0:0:
202,337,141592,1,0,0:0:0:0:
215,340,141672,1,0,3:2:0:0:
229,333,141753,6,0,P|247:288|248:237,1,88.2749973060609,2|0,3:2|3:2,0:0:0:0:
158,75,142075,2,0,L|173:165,1,88.2749973060609,14|0,0:2|0:0,0:0:0:0:
378,178,142398,1,8,0:2:0:0:
363,161,142478,1,8,0:2:0:0:
344,150,142559,1,8,0:2:0:0:
323,145,142639,1,8,0:0:0:0:
301,146,142721,2,0,L|259:160,1,44.1374986530304,12|12,3:3|3:3,0:0:0:0:
193,245,142882,2,0,L|234:259,1,44.1374986530304,12|12,3:3|3:3,0:0:0:0:
334,331,143043,6,0,L|150:363,1,176.549994612122,6|8,3:2|0:2,0:0:0:0:
35,299,143527,1,8,0:0:0:0:
35,299,143608,1,8,0:0:0:0:
35,299,143688,2,0,P|21:254|20:211,1,88.2749973060609,6|0,3:2|3:2,0:0:0:0:
99,55,144011,2,0,P|113:100|114:143,1,88.2749973060609,8|8,0:2|0:0,0:0:0:0:
106,151,144253,1,8,0:0:0:0:
92,159,144334,6,0,P|113:116|244:109,1,176.549994612122,6|8,3:2|0:2,0:0:0:0:
290,209,144817,1,8,0:0:0:0:
290,209,144898,1,8,3:2:0:0:
290,209,144979,2,0,L|271:301,1,88.2749973060609,6|0,3:2|3:2,0:0:0:0:
181,230,145301,1,8,0:2:0:0:
318,102,145463,1,8,3:2:0:0:
330,95,145543,1,8,3:2:0:0:
341,87,145624,6,0,B|406:75|406:75|449:89|449:89|513:76,1,176.549994612122,6|8,3:2|0:2,0:0:0:0:
476,197,146108,1,2,3:0:0:0:
476,197,146188,1,0,3:0:0:0:
476,197,146269,2,0,P|429:176|384:169,1,88.2749973060609,2|0,3:2|3:2,0:0:0:0:
232,98,146592,2,0,L|247:195,1,88.2749973060609,8|0,0:2|0:0,0:0:0:0:
256,196,146834,1,0,3:0:0:0:
266,207,146914,2,0,L|281:304,1,88.2749973060609,2|0,3:2|0:0,0:0:0:0:
377,154,147237,1,12,0:2:0:0:
138,340,147559,5,10,0:2:0:0:
113,318,147639,1,8,0:0:0:0:
100,288,147720,1,8,0:2:0:0:
101,255,147800,1,8,0:0:0:0:
118,227,147881,1,8,0:2:0:0:
138,201,147963,1,8,0:2:0:0:
145,168,148043,1,8,0:2:0:0:
137,137,148124,1,8,0:2:0:0:
116,111,148205,6,0,P|32:122|-8:202,1,176.549994612122,6|8,3:2|0:2,0:0:0:0:
195,277,148688,1,8,0:0:0:0:
195,277,148769,1,8,3:2:0:0:
195,277,148850,2,0,L|289:253,1,88.2749973060609,2|0,3:2|3:2,0:0:0:0:
458,204,149172,1,8,0:2:0:0:
366,349,149334,1,0,3:3:0:0:
344,156,149495,6,0,L|384:337,1,176.549994612122,2|8,3:2|0:2,0:0:0:0:
495,287,149979,1,8,0:0:0:0:
495,287,150059,1,8,0:2:0:0:
495,287,150140,2,0,P|519:241|516:187,1,88.2749973060609,2|0,3:2|3:2,0:0:0:0:
414,23,150463,1,10,0:2:0:0:
331,166,150624,1,8,0:2:0:0:
321,178,150705,1,8,0:2:0:0:
309,185,150785,6,0,P|216:177|170:103,1,176.549994612122,2|8,3:2|0:2,0:0:0:0:
87,7,151269,1,0,3:0:0:0:
87,7,151350,1,0,3:2:0:0:
87,7,151430,2,0,B|96:57|96:57|54:118|54:118|65:181,1,176.549994612122,2|8,3:2|0:2,0:0:0:0:
44,286,151914,1,0,3:0:0:0:
44,286,151995,1,0,0:0:0:0:
44,286,152075,6,0,P|80:268|145:258,1,88.2749973060609,2|0,3:2|3:2,0:0:0:0:
282,313,152398,2,0,P|326:277|312:152,1,176.549994612122,10|0,0:2|3:2,0:0:0:0:
238,71,152882,1,0,3:2:0:0:
145,198,153043,1,10,0:2:0:0:
150,230,153123,1,8,0:2:0:0:
156,263,153204,1,8,0:2:0:0:
162,295,153284,1,8,0:0:0:0:
168,328,153366,6,0,L|352:379,1,176.549994612122,6|8,3:2|0:2,0:0:0:0:
419,342,153769,1,8,0:0:0:0:
419,342,153850,2,0,P|431:318|431:283,1,44.1374986530304,8|8,0:2|0:0,0:0:0:0:
497,156,154011,6,0,P|436:158|362:214,1,132.412495959091,6|0,3:2|0:0,0:0:0:0:
305,241,154334,2,0,L|292:179,1,44.1374986530304,8|8,0:2|0:2,0:0:0:0:
202,123,154495,2,0,L|215:61,1,44.1374986530304,8|8,0:2|0:2,0:0:0:0:
322,44,154656,6,0,L|291:190,1,132.412495959091,6|0,3:2|0:0,0:0:0:0:
223,241,154979,2,0,P|195:251|164:254,1,44.1374986530304,8|8,0:2|0:2,0:0:0:0:
104,170,155140,2,0,P|76:160|45:157,1,44.1374986530304,8|8,0:2|0:2,0:0:0:0:
0,242,155301,1,12,3:3:0:0:
4,263,155381,1,12,3:3:0:0:
9,285,155462,1,12,3:3:0:0:
13,306,155542,1,12,3:3:0:0:
18,328,155624,2,0,L|70:342,3,44.1374986530304,12|12|12|12,3:3|3:3|3:3|3:3,0:0:0:0:
130,278,155946,6,0,P|180:235|309:262,1,176.549994612122,6|8,3:2|0:2,0:0:0:0:
339,364,156430,1,8,0:0:0:0:
339,364,156511,1,0,3:2:0:0:
339,364,156592,2,0,L|244:339,1,88.2749973060609,0|0,3:2|3:2,0:0:0:0:
356,186,156914,1,8,0:2:0:0:
438,306,157075,1,8,0:0:0:0:
448,313,157156,1,8,0:0:0:0:
461,316,157237,6,0,P|482:275|480:218,1,88.2749973060609,10|0,0:2|3:2,0:0:0:0:
402,94,157559,2,0,P|381:135|383:192,1,88.2749973060609,8|8,0:2|0:2,0:0:0:0:
379,176,157801,1,8,0:2:0:0:
379,176,157882,1,0,3:2:0:0:
485,131,158043,1,0,3:2:0:0:
323,44,158205,1,8,0:2:0:0:
288,51,158285,1,8,0:2:0:0:
253,58,158366,1,8,0:2:0:0:
219,65,158446,1,8,0:2:0:0:
184,72,158527,6,0,P|136:134|162:237,1,165,6|8,3:2|3:2,0:0:0:0:
223,286,159011,1,8,3:2:0:0:
327,205,159172,2,0,L|426:182,1,90.7500027694703,8|8,3:2|3:2,0:0:0:0:
319,311,159495,1,8,3:2:0:0:
236,193,159656,1,8,3:2:0:0:
156,352,159817,6,0,B|110:356|110:356|72:332,1,90.7500027694703,8|8,3:2|3:2,0:0:0:0:
198,100,160140,2,0,L|217:215,1,90.7500027694703,8|8,3:2|3:2,0:0:0:0:
87,122,160463,1,8,3:2:0:0:
186,19,160624,1,8,3:2:0:0:
122,207,160785,1,8,3:2:0:0:
0,88,160946,1,8,3:2:0:0:
245,84,161108,6,0,L|359:59,1,98.9999969787599,14|0,0:2|3:2,0:0:0:0:
321,171,161430,1,0,3:2:0:0:
176,15,161592,2,0,P|124:23|79:54,1,98.9999969787599,14|0,0:2|3:2,0:0:0:0:
62,165,161914,1,0,3:2:0:0:
226,87,162075,1,14,0:2:0:0:
426,257,162398,6,0,L|410:343,1,82.5,8|0,3:3|3:2,0:0:0:0:
305,380,162721,2,0,L|320:298,1,82.5,4|0,3:3|3:2,0:0:0:0:
312,169,163043,1,4,3:3:0:0:
417,244,163205,1,0,3:2:0:0:
411,147,163366,2,0,L|400:75,1,70.1250013375282,4|0,3:3|3:2,0:0:0:0:
329,181,163688,5,6,3:2:0:0:
256,192,163769,12,0,166269,3:2:0:0:
244,311,174011,6,0,P|189:289|124:286,1,115.49999647522,2|0,3:2|3:2,0:0:0:0:
55,313,174495,1,0,0:0:0:0:
55,313,174656,2,0,P|42:284|41:246,1,57.7499982376099,8|0,0:2|0:0,0:0:0:0:
116,164,174979,2,0,L|104:204,3,28.874999118805,8|8|8|8,0:2|0:2|0:2|0:2,0:0:0:0:
132,271,175301,1,0,3:2:0:0:
231,207,175624,1,0,3:2:0:0:
339,318,175946,1,8,0:2:0:0:
419,204,176269,2,0,L|410:155,3,28.874999118805,8|8|8|8,0:2|0:2|0:2|0:2,0:0:0:0:
485,136,176592,6,0,L|349:102,1,115.49999647522,0|0,3:2|3:2,0:0:0:0:
285,132,177075,2,0,P|269:163|269:198,1,57.7499982376099,0|8,0:0|0:2,0:0:0:0:
325,259,177398,1,0,0:0:0:0:
325,259,177559,2,0,L|370:246,3,28.874999118805,8|8|8|8,0:2|0:2|0:2|0:2,0:0:0:0:
427,291,177882,1,0,3:2:0:0:
336,360,178205,1,0,3:2:0:0:
186,256,178527,1,8,0:2:0:0:
97,383,178850,2,0,L|29:369,1,57.7499982376099,8|8,0:2|0:2,0:0:0:0:
14,289,179172,6,0,P|-7:239|10:158,2,115.49999647522,2|0|8,3:2|3:2|0:2,0:0:0:0:
121,189,180140,2,0,L|129:140,3,28.874999118805,8|8|8|8,0:2|0:2|0:2|0:2,0:0:0:0:
180,97,180463,2,0,P|234:102|280:145,1,115.49999647522,0|0,3:2|3:2,0:0:0:0:
259,232,180946,1,0,0:0:0:0:
259,232,181108,1,8,0:2:0:0:
395,321,181430,6,0,L|499:303,1,99,12|0,0:2|0:0,0:0:0:0:
501,293,181753,1,0,3:2:0:0:
248,365,182075,6,0,P|221:328|216:295,1,66,10|0,2:2|0:0,0:0:0:0:
126,294,182398,2,0,P|144:252|170:231,1,66,10|0,2:2|0:0,0:0:0:0:
308,234,182721,6,0,P|337:194|342:158,1,78.3749979071618,10|0,2:2|0:0,0:0:0:0:
435,152,183044,2,0,P|415:106|386:84,1,78.3749979071618,10|0,2:2|0:0,0:0:0:0:
210,23,183366,6,0,P|240:91|256:170,1,136.125004154205,14|0,2:2|0:0,0:0:0:0:
243,163,183688,2,0,L|146:143,1,74.2499977340699,8|8,3:3|3:3,0:0:0:0:
87,193,184011,1,4,3:3:0:0:
87,193,184172,1,4,3:3:0:0:
63,300,184334,6,0,P|131:290|163:248,1,123.750004720688,6|0,3:2|3:2,0:0:0:0:
221,178,184817,1,0,3:2:0:0:
221,178,184979,2,0,L|349:212,1,123.750004720688,10|0,0:2|3:2,0:0:0:0:
440,177,185463,1,8,3:3:0:0:
440,177,185624,2,0,P|450:139|451:100,1,61.875002360344,2|0,3:2|3:2,0:0:0:0:
382,1,185946,2,0,P|372:39|371:78,1,61.875002360344,0|4,3:2|3:3,0:0:0:0:
303,133,186269,2,0,P|239:151|178:200,1,123.750004720688,10|0,0:2|3:2,0:0:0:0:
117,245,186753,5,2,0:2:0:0:
117,245,186914,2,0,P|77:203|86:117,1,123.750004720688,6|0,3:2|3:2,0:0:0:0:
189,51,187398,2,0,L|164:183,1,123.750004720688,2|0,3:2|0:0,0:0:0:0:
211,273,187882,1,0,3:2:0:0:
211,273,188043,2,0,P|271:251|352:247,1,123.750004720688,8|4,3:3|3:3,0:0:0:0:
399,316,188527,2,0,L|387:388,1,61.875002360344,0|4,3:2|3:3,0:0:0:0:
478,263,188850,5,8,0:2:0:0:
333,151,189172,1,8,0:2:0:0:
406,211,189334,5,0,0:2:0:0:
406,211,189495,2,0,L|429:72,1,123.750004720688,6|0,3:2|3:2,0:0:0:0:
358,26,189979,1,0,3:0:0:0:
358,26,190140,2,0,P|311:25|258:87,1,123.750004720688,10|0,0:2|3:2,0:0:0:0:
176,130,190624,1,8,3:3:0:0:
176,130,190785,2,0,L|160:51,1,61.875002360344,2|8,3:2|0:3,0:0:0:0:
259,163,191108,2,0,L|271:223,1,61.875002360344,0|4,3:2|0:3,0:0:0:0:
175,220,191430,2,0,L|42:188,1,123.750004720688,10|0,0:2|3:2,0:0:0:0:
98,300,191914,5,0,3:2:0:0:
98,300,192075,2,0,P|149:290|182:225,1,123.750004720688,6|0,3:2|3:2,0:0:0:0:
94,176,192559,2,0,P|54:115|76:47,1,123.750004720688,2|0,3:2|0:0,0:0:0:0:
146,13,193043,1,0,3:2:0:0:
146,13,193205,2,0,L|292:33,1,123.750004720688,8|4,3:3|3:3,0:0:0:0:
340,104,193688,2,0,L|355:171,1,61.875002360344,0|4,3:2|3:3,0:0:0:0:
267,224,194011,2,0,L|253:163,1,61.875002360344,8|0,0:2|3:2,0:0:0:0:
253,163,194253,1,0,3:2:0:0:
253,163,194334,1,4,0:3:0:0:
361,267,194495,5,4,0:3:0:0:
361,267,194656,2,0,P|425:257|464:187,1,140.250002675056,6|0,3:2|3:2,0:0:0:0:
510,106,195140,1,0,0:0:0:0:
510,106,195301,2,0,B|454:98|454:98|428:104|428:104|356:92,1,140.250002675056,0|0,3:2|3:2,0:0:0:0:
278,73,195785,1,0,0:0:0:0:
278,73,195946,2,0,L|294:148,1,70.1250013375282,2|0,3:2|0:0,0:0:0:0:
236,229,196269,2,0,P|196:222|164:202,1,70.1250013375282,0|0,3:2|0:0,0:0:0:0:
115,118,196592,2,0,P|56:122|6:187,1,140.250002675056,0|0,3:2|3:2,0:0:0:0:
81,280,197075,5,0,0:0:0:0:
81,280,197237,2,0,L|236:254,1,140.250002675056,2|0,3:2|3:2,0:0:0:0:
306,316,197721,1,0,3:0:0:0:
306,316,197882,2,0,L|321:239,1,70.1250013375282,0|0,3:2|0:0,0:0:0:0:
392,162,198205,1,0,3:2:0:0:
392,162,198366,2,0,P|432:190|433:282,1,140.250002675056
454,369,198850,2,0,L|376:349,1,70.1250013375282,0|0,3:2|0:0,0:0:0:0:
287,251,199172,5,0,3:2:0:0:
221,371,199334,2,0,P|187:326|195:232,1,140.250002675056,0|0,0:0|3:0,0:0:0:0:
304,138,199817,6,0,B|247:125|247:125|209:135|209:135|152:122,2,156.749995814324,6|0|0,3:2|3:2|3:2,0:0:0:0:
415,88,200624,1,0,0:0:0:0:
415,88,200785,2,0,P|435:49|437:7,1,78.3749979071618,0|0,3:2|0:0,0:0:0:0:
313,58,201108,2,0,P|341:139|356:213,1,156.749995814324,0|0,3:2|3:2,0:0:0:0:
130,359,201753,5,0,3:2:0:0:
78,294,201914,2,0,P|110:253|227:266,1,156.749995814324
335,333,202398,2,0,L|511:297,1,173.24999471283,6|0,3:2|3:2,0:0:0:0:
451,191,202882,1,0,0:0:0:0:
451,191,203043,2,0,P|433:235|427:285,1,86.6249973564149,0|0,3:2|0:0,0:0:0:0:
369,130,203366,2,0,P|387:86|393:36,1,86.6249973564149,0|0,3:2|0:0,0:0:0:0:
290,182,203688,1,0,3:2:0:0:
131,39,204011,6,0,P|77:4|-9:12,1,129.937496034622,2|0,3:2|0:0,0:0:0:0:
0,17,204334,2,0,L|19:114,1,86.6249973564149,2|0,3:2|0:0,0:0:0:0:
80,212,204656,1,8,0:2:0:0:
274,108,204979,5,0,3:2:0:0:
364,238,205140,1,10,0:2:0:0:
423,163,205301,2,0,L|524:139,1,90.7500027694703,10|0,0:2|3:0,0:0:0:0:
512,143,205543,1,0,3:0:0:0:
511,142,205624,1,10,0:2:0:0:
282,122,205785,2,0,L|193:142,1,90.7500027694703,10|0,0:2|3:0,0:0:0:0:
360,379,206108,6,0,B|370:327|370:327|327:266|327:266|337:212,1,181.500005538941,10|10,0:2|0:2,0:0:0:0:
382,94,206592,1,8,0:0:0:0:
447,249,206753,1,8,0:0:0:0:
317,198,206914,1,8,3:2:0:0:
290,192,206994,1,8,0:2:0:0:
263,195,207075,1,8,0:2:0:0:
238,207,207155,1,8,0:2:0:0:
219,225,207237,1,8,3:2:0:0:
197,239,207318,1,8,0:2:0:0:
170,246,207398,1,8,0:2:0:0:
143,245,207479,1,8,0:2:0:0:
117,234,207559,6,0,L|101:146,2,74.2499977340699,2|0|0,0:2|0:0|0:0,0:0:0:0:
205,187,208043,2,0,L|219:114,2,74.2499977340699,2|0|0,0:0|0:0|0:0,0:0:0:0:
86,66,208527,5,2,0:0:0:0:
86,66,208688,2,0,P|50:88|5:93,1,74.2499977340699,2|0,0:0|0:0,0:0:0:0:
160,2,209011,1,2,0:0:0:0:
160,2,209172,2,0,P|196:9|227:29,1,74.2499977340699,2|0,0:0|0:0,0:0:0:0:
324,223,209495,5,10,0:0:0:0:
187,111,209656,1,10,0:0:0:0:
360,42,209817,1,10,0:0:0:0:
291,124,209979,1,14,0:0:0:0:
256,192,210059,12,0,211350,0:0:0:0:
143,262,211430,6,0,L|52:246,1,66,6|0,3:2|0:0,0:0:0:0:
197,199,211753,2,0,L|270:211,1,66,0|0,3:2|0:0,0:0:0:0:
157,273,212075,2,0,L|126:114,1,132,0|0,3:2|3:2,0:0:0:0:
59,72,212559,1,0,3:0:0:0:
210,19,212721,6,0,P|271:27|305:107,1,132,6|0,0:2|3:2,0:0:0:0:
370,160,213205,1,0,0:0:0:0:
370,160,213366,2,0,L|350:241,1,66,0|0,3:2|0:0,0:0:0:0:
422,296,213688,2,0,P|465:290|497:272,1,66,0|0,3:2|0:0,0:0:0:0:
325,324,214011,6,0,B|273:315|273:315|245:324|245:324|195:316,1,132,6|0,3:2|3:0,0:0:0:0:
113,105,214656,2,0,B|164:113|164:113|192:104|192:104|242:112,1,132,6|0,3:2|3:0,0:0:0:0:
322,150,215140,1,0,3:0:0:0:
233,226,215301,6,0,P|203:210|172:201,1,66,6|0,3:2|0:0,0:0:0:0:
317,167,215624,2,0,P|380:148|438:118,1,132,0|0,3:2|3:2,0:0:0:0:
190,4,216269,2,0,P|214:50|228:126,1,99,0|0,3:2|0:0,0:0:0:0:
207,108,216592,6,0,L|121:79,1,78.3749979071618,6|0,3:2|0:0,0:0:0:0:
22,156,216914,2,0,L|7:205,1,39.1874989535809,8|8,3:2|0:2,0:0:0:0:
73,255,217075,2,0,L|58:304,1,39.1874989535809,8|8,0:2|0:2,0:0:0:0:
126,362,217237,1,8,3:2:0:0:
149,365,217317,1,8,0:2:0:0:
172,362,217398,1,8,0:2:0:0:
193,352,217478,1,8,0:2:0:0:
210,336,217559,2,0,L|198:274,3,39.1874989535809,8|8|8|8,3:2|0:2|0:2|0:2,0:0:0:0:
236,214,217882,6,0,P|270:196|322:187,1,78.3749979071618,6|0,3:2|0:0,0:0:0:0:
447,214,218205,1,8,3:2:0:0:
442,241,218285,1,8,0:2:0:0:
439,268,218366,1,8,0:2:0:0:
435,295,218446,1,8,0:2:0:0:
429,322,218527,1,8,3:2:0:0:
412,343,218607,1,8,0:2:0:0:
388,358,218688,1,8,0:2:0:0:
359,360,218768,1,8,0:2:0:0:
334,353,218850,2,0,L|325:312,1,39.1874989535809,8|4,3:3|0:3,0:0:0:0:
250,262,219011,2,0,L|259:221,1,39.1874989535809,4|4,0:3|0:3,0:0:0:0:
323,132,219172,6,0,P|366:97|489:110,1,173.24999471283,6|8,3:2|0:2,0:0:0:0:
241,191,219656,1,0,0:0:0:0:
241,191,219737,1,8,0:0:0:0:
241,191,219817,2,0,L|224:93,1,86.6249973564149,2|0,3:2|3:2,0:0:0:0:
70,20,220140,1,8,0:2:0:0:
148,170,220301,1,0,0:0:0:0:
232,23,220463,5,2,3:2:0:0:
210,19,220543,1,0,3:2:0:0:
189,23,220624,1,0,3:2:0:0:
170,34,220704,1,0,3:2:0:0:
157,51,220785,1,8,0:2:0:0:
17,223,221108,6,0,P|53:192|100:187,1,92.812503540516,2|0,0:2|0:0,0:0:0:0:
164,235,221430,2,0,B|168:268|168:268|143:313|143:313|148:346,1,117.562496860743,0|0,0:2|0:0,0:0:0:0:
219,384,221753,6,0,P|266:379|318:345,1,94.8750018095971,14|0,0:2|3:2,0:0:0:0:
323,243,222075,1,8,0:2:0:0:
403,360,222237,1,0,3:2:0:0:
499,226,222398,2,0,B|429:213|429:213|384:228|384:228|300:212,1,189.750003619194,10|8,0:2|0:2,0:0:0:0:
179,140,222882,1,0,3:2:0:0:
179,140,222963,1,0,3:0:0:0:
179,140,223043,6,0,P|232:131|280:102,1,94.8750018095971,10|0,0:2|3:2,0:0:0:0:
130,62,223366,1,8,0:2:0:0:
64,218,223527,1,0,3:2:0:0:
25,107,223688,2,0,L|-1:-7,1,94.8750018095971,10|0,0:2|3:2,0:0:0:0:
144,158,224011,2,0,L|165:250,1,94.8750018095971,8|0,0:2|3:2,0:0:0:0:
158,265,224253,1,0,3:2:0:0:
144,276,224334,6,0,P|153:226|300:204,1,189.750003619194,10|8,0:2|0:2,0:0:0:0:
417,229,224817,1,0,3:2:0:0:
435,227,224898,1,0,3:2:0:0:
449,217,224979,2,0,P|471:170|472:118,1,94.8750018095971,10|0,0:2|3:0,0:0:0:0:
395,37,225301,1,8,0:2:0:0:
262,133,225463,1,0,3:2:0:0:
255,150,225543,1,0,3:2:0:0:
263,166,225624,6,0,L|371:147,1,94.8750018095971,10|0,0:2|3:2,0:0:0:0:
512,289,225946,2,0,L|296:251,1,189.750003619194,8|8,0:2|0:2,0:0:0:0:
233,325,226430,1,0,3:2:0:0:
99,193,226592,1,10,0:2:0:0:
19,320,226753,1,0,3:2:0:0:
19,320,226834,1,0,3:2:0:0:
19,320,226914,6,0,P|104:318|173:215,1,189.750003619194,10|8,0:2|0:2,0:0:0:0:
248,212,227317,1,8,0:2:0:0:
248,212,227398,2,0,L|238:143,1,47.4375009047985,8|8,0:2|0:2,0:0:0:0:
337,64,227559,6,0,P|406:68|446:132,1,142.312502714396,6|0,3:2|0:0,0:0:0:0:
492,195,227882,2,0,L|482:246,1,47.4375009047985,8|8,0:2|0:2,0:0:0:0:
428,365,228043,2,0,L|419:319,1,47.4375009047985,8|8,0:2|0:2,0:0:0:0:
331,251,228205,6,0,B|281:239|281:239|246:246|246:246|176:231,1,142.312502714396,6|0,3:2|0:0,0:0:0:0:
119,294,228527,2,0,P|102:267|97:239,1,47.4375009047985,8|8,0:2|0:2,0:0:0:0:
36,171,228688,2,0,P|50:142|72:124,1,47.4375009047985,8|8,0:2|0:2,0:0:0:0:
213,99,228850,6,0,L|184:251,1,142.312502714396,6|0,3:2|0:0,0:0:0:0:
226,326,229172,2,0,P|255:322|279:303,1,47.4375009047985,8|8,0:2|0:2,0:0:0:0:
370,320,229334,2,0,P|381:292|376:262,1,47.4375009047985,8|8,0:2|0:2,0:0:0:0:
392,170,229495,6,0,P|346:179|294:207,1,94.8750018095971,6|0,3:2|0:0,0:0:0:0:
177,198,229817,2,0,L|191:146,3,47.4375009047985,8|8|8|8,0:2|0:2|0:2|0:2,0:0:0:0:
260,92,230140,2,0,L|246:40,3,47.4375009047985,8|0|0|0,2:2|3:2|3:2|3:2,0:0:0:0:
163,4,230463,1,8,2:2:0:0:
134,0,230543,1,0,3:2:0:0:
107,6,230624,1,0,3:2:0:0:
82,19,230704,1,0,3:2:0:0:
62,40,230785,6,0,L|74:94,1,47.4375009047985,8|8,2:2|3:2,0:0:0:0:
11,149,230946,2,0,L|23:203,1,47.4375009047985,8|8,3:2|3:2,0:0:0:0:
71,275,231108,2,0,L|124:286,3,47.4375009047985,8|8|8|8,2:2|3:2|3:2|3:2,0:0:0:0:
196,217,231430,5,8,3:3:0:0:
209,201,231510,1,8,3:3:0:0:
226,193,231591,1,8,3:3:0:0:
246,191,231671,1,8,3:3:0:0:
265,195,231753,2,0,L|256:243,1,47.4375009047985,8|0,3:2|3:2,0:0:0:0:
341,248,231914,2,0,L|329:302,1,47.4375009047985,0|0,3:2|3:2,0:0:0:0:
399,360,232075,6,0,P|468:324|476:213,1,189.750003619194,14|8,3:2|0:0,0:0:0:0:
484,117,232559,1,0,3:0:0:0:
484,117,232640,1,0,3:0:0:0:
484,117,232721,2,0,L|373:142,1,94.8750018095971,2|0,3:2|3:2,0:0:0:0:
299,55,233043,1,8,0:0:0:0:
131,208,233366,6,0,P|83:158|93:90,1,142.312502714396,6|0,3:2|0:0,0:0:0:0:
75,69,233688,2,0,P|138:56|187:99,1,129.937496034622,6|0,3:2|0:0,0:0:0:0:
210,95,234011,2,0,P|196:150|144:174,1,117.562496860743,6|0,3:2|0:0,0:0:0:0:
131,208,234334,2,0,L|36:192,1,70.1250013375282,6|0,3:2|0:0,0:0:0:0:
1,337,234656,6,0,B|68:324|68:324|111:338|111:338|191:323,1,181.500005538941,6|8,3:2|3:2,0:0:0:0:
304,267,235140,1,8,0:2:0:0:
304,267,235301,2,0,L|323:176,1,90.7500027694703,8|8,3:2|0:2,0:0:0:0:
232,95,235624,2,0,L|213:183,1,90.7500027694703,8|8,3:2|0:2,0:0:0:0:
276,359,235946,5,8,3:2:0:0:
389,271,236108,1,8,0:2:0:0:
217,197,236269,2,0,B|171:195|171:195|107:234,1,90.7500027694703,8|8,3:2|0:2,0:0:0:0:
403,283,236592,2,0,B|449:285|449:285|513:246,1,90.7500027694703,8|8,3:2|0:2,0:0:0:0:
369,107,236914,1,8,3:2:0:0:
284,265,237075,1,8,0:2:0:0:
193,107,237237,6,0,L|174:-9,1,94.8750018095971,6|0,3:2|0:0,0:0:0:0:
309,168,237559,1,0,3:2:0:0:
174,295,237721,2,0,L|60:314,1,94.8750018095971,10|0,0:2|3:2,0:0:0:0:
43,215,238043,1,0,3:2:0:0:
220,369,238205,2,0,L|334:388,1,94.8750018095971,14|0,0:2|0:0,0:0:0:0:
401,320,238527,1,2,3:2:0:0:
290,155,238688,6,0,P|270:200|265:265,1,94.8750018095971,12|0,0:2|3:2,0:0:0:0:
327,379,239011,1,2,3:2:0:0:
394,232,239172,1,8,0:2:0:0:
417,229,239252,1,0,3:2:0:0:
440,236,239333,1,0,3:2:0:0:
459,249,239413,1,0,3:2:0:0:
472,269,239495,2,0,L|444:130,1,123.75,14|0,0:2|0:0,0:0:0:0:
502,72,239817,6,0,P|457:63|412:40,1,82.5,14|0,0:2|3:0,0:0:0:0:
351,156,240140,1,10,0:2:0:0:
151,64,240301,2,0,B|214:52|214:52|255:65|255:65|317:53,1,165,2|0,3:2|3:2,0:0:0:0:
192,234,240785,5,10,0:2:0:0:
69,127,240946,2,0,L|51:14,1,82.5,10|0,0:2|0:0,0:0:0:0:
236,92,241269,1,8,0:2:0:0:
99,233,241430,2,0,L|-10:257,1,82.5,10|0,0:2|3:2,0:0:0:0:
18,250,241672,1,0,3:2:0:0:
18,250,241753,1,10,0:2:0:0:
146,162,241914,1,0,3:2:0:0:
184,324,242075,1,10,0:2:0:0:
278,225,242237,1,0,3:2:0:0:
278,225,242317,1,0,3:2:0:0:
278,225,242398,6,0,P|296:180|297:128,1,82.5,14|0,0:2|3:2,0:0:0:0:
211,51,242721,1,10,0:2:0:0:
131,182,242882,2,0,P|105:262|101:348,1,165,2|0,3:2|3:2,0:0:0:0:
281,237,243366,5,10,0:2:0:0:
387,347,243527,2,0,L|470:365,1,82.5,10|0,0:2|0:0,0:0:0:0:
415,162,243850,1,8,0:2:0:0:
270,265,244011,2,0,L|289:364,1,82.5,10|0,0:2|3:2,0:0:0:0:
285,346,244253,1,0,3:2:0:0:
285,346,244334,1,10,0:2:0:0:
365,259,244495,1,0,3:2:0:0:
225,178,244656,1,10,0:2:0:0:
331,98,244817,1,0,3:2:0:0:
244,272,244979,6,0,P|180:262|144:242,1,82.5,10|0,0:2|3:2,0:0:0:0:
81,161,245301,1,10,0:2:0:0:
183,17,245463,2,0,L|210:192,1,165,2|0,3:2|3:2,0:0:0:0:
157,339,245946,5,10,0:2:0:0:
34,205,246108,2,0,L|128:181,1,82.5,10|0,0:2|0:0,0:0:0:0:
298,246,246430,1,10,0:2:0:0:
140,353,246592,2,0,B|121:316|121:316|134:252,1,82.5,10|0,0:2|3:2,0:0:0:0:
129,275,246834,1,0,3:2:0:0:
129,275,246914,1,10,0:2:0:0:
252,336,247075,1,0,3:2:0:0:
322,167,247237,1,10,0:2:0:0:
216,248,247398,1,10,0:2:0:0:
68,7,247721,5,10,0:2:0:0:
187,109,247882,2,0,L|267:91,1,82.5,10|0,0:2|3:0,0:0:0:0:
268,92,248124,1,0,3:0:0:0:
268,92,248205,1,10,0:2:0:0:
99,87,248366,2,0,L|80:190,1,86.6249973564149,10|0,0:2|3:0,0:0:0:0:
84,173,248608,1,0,3:0:0:0:
84,173,248688,1,10,0:2:0:0:
204,286,248850,2,0,P|225:234|221:175,1,90.7500027694703,10|0,0:2|3:0,0:0:0:0:
226,199,249092,1,0,3:0:0:0:
226,199,249172,1,10,0:2:0:0:
92,287,249334,2,0,L|-16:309,1,94.8750018095971,10|0,0:2|3:0,0:0:0:0:
167,148,249656,5,10,0:2:0:0:
297,286,249817,1,10,3:2:0:0:
352,105,249979,1,14,0:2:0:0:
