osu file format v14

[General]
AudioFilename: audio.mp3
AudioLeadIn: 0
PreviewTime: 85543
Countdown: 0
SampleSet: Soft
StackLeniency: 0.4
Mode: 0
LetterboxInBreaks: 0
WidescreenStoryboard: 1

[Editor]
Bookmarks: 52721,95785
DistanceSpacing: 1
BeatDivisor: 4
GridSize: 4
TimelineZoom: 2.6

[Metadata]
Title:ReI
TitleUnicode:ReI
Artist:THE ORAL CIGARETTES
ArtistUnicode:THE ORAL CIGARETTES
Creator:Sotarks
Version:Nevo's Expert
Source:
Tags:Yamanaka Takuya Suzuki Shigenobu Akirakani Akira Nakanishi Masaya ReIproject akitoshi -laura- corinn shunao shogunmoon snownino_ nevo armin a_r_m_i_n mir
BeatmapID:1650477
BeatmapSetID:785858

[Difficulty]
HPDrainRate:5
CircleSize:3.8
OverallDifficulty:9
ApproachRate:9.3
SliderMultiplier:1.92
SliderTickRate:1

[Events]
//Background and Video events
0,0,"BG.jpg",0,0
//Break Periods
//Storyboard Layer 0 (Background)
//Storyboard Layer 1 (Fail)
//Storyboard Layer 2 (Pass)
//Storyboard Layer 3 (Foreground)
//Storyboard Sound Samples

[TimingPoints]
2075,468.75,4,2,22,52,1,0
32076,322.58064516129,4,2,22,82,1,0
42398,-125,4,2,22,62,0,0
63043,-100,4,2,22,72,0,0
74979,-90.9090909090909,4,2,22,72,0,0
75946,-80,4,2,22,82,0,1
81108,-90.9090909090909,4,2,22,82,0,1
86269,-80,4,2,22,82,0,1
94011,-90.9090909090909,4,2,22,82,0,1
96592,-80,4,2,22,82,0,1
99495,-80,4,2,22,62,0,1
100140,-80,4,2,22,72,0,1
100785,-80,4,2,22,82,0,1
104011,-100,4,2,22,82,0,1
104334,-100,4,2,22,82,0,0

[Colours]
Combo1 : 198,106,108
Combo2 : 216,158,158
Combo3 : 180,217,228
Combo4 : 145,150,213
SliderBorder : 193,255,254

[HitObjects]
55,190,32075,5,14,0:0:0:0:
225,164,32237,1,0,1:0:0:0:
141,283,32398,1,10,0:0:0:0:
141,111,32559,1,2,1:0:0:0:
249,277,32721,1,8,0:0:0:0:
49,294,32882,1,2,1:0:0:0:
226,80,33043,1,14,0:0:0:0:
199,349,33205,1,10,0:0:0:0:
141,111,33366,5,0,1:0:0:0:
141,283,33527,1,14,0:0:0:0:
226,80,33688,1,10,0:0:0:0:
256,283,33850,1,2,1:0:0:0:
256,283,33930,1,0,1:0:0:0:
256,283,34011,1,14,0:0:0:0:
79,201,34172,1,2,1:0:0:0:
79,201,34253,1,0,0:0:0:0:
79,201,34334,1,14,0:0:0:0:
233,87,34495,1,2,1:0:0:0:
233,87,34576,1,0,1:0:0:0:
233,87,34656,6,0,P|262:127|254:204,1,96,14|0,0:0|1:0,0:0:0:0:
166,332,34979,2,0,P|186:286|256:255,1,96,10|2,0:0|1:0,0:0:0:0:
454,273,35301,1,8,0:0:0:0:
256,350,35463,1,2,1:0:0:0:
353,120,35624,1,14,0:0:0:0:
349,316,35785,1,10,0:0:0:0:
294,44,35946,5,0,1:0:0:0:
283,246,36108,1,14,0:0:0:0:
451,34,36269,1,10,0:0:0:0:
454,273,36430,1,2,1:0:0:0:
454,273,36511,1,0,1:0:0:0:
454,273,36592,1,14,0:0:0:0:
353,120,36753,1,2,1:0:0:0:
353,120,36834,1,0,1:0:0:0:
353,120,36915,1,10,0:0:0:0:
260,336,37075,1,2,1:0:0:0:
260,336,37156,1,0,1:0:0:0:
260,336,37237,6,0,L|152:325,1,96,14|0,0:0|1:0,0:0:0:0:
283,246,37559,2,0,L|391:235,1,96,10|2,0:0|1:0,0:0:0:0:
215,110,37882,1,8,0:0:0:0:
164,326,38043,1,2,1:0:0:0:
119,112,38205,1,14,0:0:0:0:
283,246,38366,1,10,0:0:0:0:
246,19,38527,5,0,1:0:0:0:
44,176,38688,1,14,0:0:0:0:
296,161,38850,1,10,0:0:0:0:
90,23,39011,1,2,1:0:0:0:
90,23,39092,1,0,1:0:0:0:
90,23,39172,1,14,0:0:0:0:
168,197,39334,1,2,1:0:0:0:
168,197,39414,1,0,0:0:0:0:
168,197,39495,1,14,0:0:0:0:
246,19,39656,1,2,1:0:0:0:
246,19,39737,1,0,1:0:0:0:
246,19,39817,6,0,L|354:8,1,96,14|0,0:0|1:0,0:0:0:0:
487,179,40140,2,0,L|379:168,1,96,10|2,0:0|1:0,0:0:0:0:
165,141,40463,1,8,0:0:0:0:
331,292,40624,1,2,1:0:0:0:
336,87,40785,1,14,0:0:0:0:
188,285,40946,1,10,0:0:0:0:
405,245,41108,5,0,1:0:0:0:
405,245,41188,1,0,1:0:0:0:
405,245,41269,1,14,0:0:0:0:
186,186,41430,2,0,L|192:72,1,96,14|2,0:0|0:0,0:0:0:0:
104,248,41753,5,10,0:0:0:0:
142,276,41833,1,8,0:0:0:0:
188,285,41914,1,8,0:0:0:0:
234,272,41994,1,8,0:0:0:0:
269,240,42075,1,8,3:0:0:0:
300,214,42156,1,8,3:0:0:0:
337,207,42237,1,8,3:0:0:0:
376,218,42317,1,8,3:0:0:0:
405,245,42398,6,0,P|423:186|408:112,1,115.2,6|0,1:0|0:0,0:0:0:0:
343,95,42721,2,0,P|383:95|434:52,1,76.8,8|0,0:0|0:0,0:0:0:0:
297,11,43043,1,2,1:0:0:0:
223,75,43205,1,0,1:0:0:0:
337,171,43366,2,0,L|344:70,1,76.8,8|0,0:0|0:0,0:0:0:0:
171,170,43688,6,0,L|272:163,1,76.8,6|0,1:0|0:0,0:0:0:0:
433,158,44011,1,8,0:0:0:0:
342,94,44172,1,2,0:0:0:0:
437,253,44334,1,2,1:0:0:0:
433,158,44495,1,0,1:0:0:0:
344,265,44656,2,0,L|243:258,1,76.8,8|0,0:0|0:0,0:0:0:0:
54,316,44979,6,0,P|88:274|159:283,1,115.2,6|0,1:0|0:0,0:0:0:0:
210,318,45301,2,0,P|186:262|197:218,1,76.8,8|0,0:0|0:0,0:0:0:0:
234,121,45624,1,0,1:0:0:0:
267,259,45785,1,2,1:0:0:0:
95,176,45946,2,0,L|196:169,1,76.8,10|2,0:0|0:0,0:0:0:0:
162,14,46269,6,0,L|157:91,1,76.8,4|0,1:0|0:0,0:0:0:0:
321,169,46592,2,0,L|315:92,1,76.8,8|0,0:0|3:0,0:0:0:0:
191,194,46914,1,6,1:0:0:0:
265,227,47075,1,0,1:0:0:0:
127,244,47237,2,0,L|50:238,1,76.8,10|0,0:0|3:0,0:0:0:0:
51,239,47479,1,0,3:0:0:0:
51,239,47559,6,0,L|74:363,1,115.2,6|0,1:0|0:0,0:0:0:0:
72,352,47882,2,0,L|148:346,1,76.8,8|2,0:0|0:0,0:0:0:0:
327,280,48205,2,0,P|269:309|193:260,1,153.6,2|8,1:0|0:0,0:0:0:0:
172,194,48688,1,0,0:0:0:0:
249,82,48850,6,0,B|278:128|278:128|265:227,1,153.6,6|8,1:0|0:0,0:0:0:0:
242,345,49334,1,0,0:0:0:0:
352,217,49495,2,0,L|366:104,1,76.8,2|0,1:0|1:0,0:0:0:0:
240,6,49817,2,0,L|252:109,1,76.8,10|0,0:0|0:0,0:0:0:0:
435,98,50140,6,0,P|393:57|350:55,1,76.8,6|0,1:0|0:0,0:0:0:0:
293,168,50463,2,0,P|349:152|372:115,1,76.8,8|2,0:0|0:0,0:0:0:0:
306,13,50785,2,0,P|291:69|311:108,1,76.8,0|0,1:0|1:0,0:0:0:0:
423,177,51108,1,10,0:0:0:0:
293,168,51269,1,2,0:0:0:0:
434,343,51430,6,0,L|428:232,1,76.8,4|0,1:0|0:0,0:0:0:0:
415,83,51753,1,0,1:0:0:0:
350,234,51914,1,8,0:0:0:0:
325,85,52075,1,2,1:0:0:0:
423,177,52237,1,0,3:0:0:0:
263,254,52398,1,2,1:0:0:0:
415,83,52559,1,8,0:0:0:0:
207,189,52721,6,0,L|96:183,1,76.8,6|0,1:0|0:0,0:0:0:0:
177,58,53043,2,0,L|253:53,1,76.8,8|0,0:0|0:0,0:0:0:0:
383,60,53366,1,2,1:0:0:0:
318,107,53527,1,0,1:0:0:0:
328,1,53688,1,8,0:0:0:0:
392,141,53850,1,2,0:0:0:0:
459,64,54011,6,0,L|382:59,1,76.8,6|0,1:0|0:0,0:0:0:0:
249,191,54334,2,0,L|326:187,1,76.8,8|2,0:0|0:0,0:0:0:0:
462,180,54656,1,2,1:0:0:0:
396,222,54817,1,0,1:0:0:0:
392,141,54979,1,8,0:0:0:0:
468,261,55140,1,0,0:0:0:0:
326,270,55301,6,0,L|250:275,1,76.8,6|0,1:0|0:0,0:0:0:0:
371,338,55624,2,0,L|447:342,1,76.8,8|0,0:0|0:0,0:0:0:0:
462,180,55946,1,0,1:0:0:0:
396,222,56108,1,2,1:0:0:0:
396,64,56269,2,0,L|392:140,1,76.8,10|2,0:0|0:0,0:0:0:0:
249,191,56592,6,0,L|245:115,1,76.8,4|0,1:0|0:0,0:0:0:0:
99,203,56914,2,0,P|146:237|189:233,1,76.8,8|0,0:0|0:0,0:0:0:0:
325,162,57237,1,6,1:0:0:0:
165,159,57398,1,0,1:0:0:0:
244,267,57559,2,0,L|248:191,1,76.8,10|0,0:0|3:0,0:0:0:0:
387,64,57882,6,0,L|391:140,1,76.8,6|0,1:0|0:0,0:0:0:0:
326,283,58205,2,0,L|330:207,1,76.8,8|2,0:0|0:0,0:0:0:0:
484,255,58527,2,0,L|408:251,1,76.8,2|0,1:0|1:0,0:0:0:0:
255,237,58850,1,8,0:0:0:0:
330,206,59011,1,2,0:0:0:0:
256,319,59172,6,0,L|180:315,1,76.8,6|0,1:0|0:0,0:0:0:0:
91,240,59495,2,0,L|167:236,1,76.8,8|2,0:0|0:0,0:0:0:0:
81,101,59817,1,2,1:0:0:0:
47,173,59979,1,2,1:0:0:0:
164,96,60140,1,10,0:0:0:0:
0,108,60301,1,0,0:0:0:0:
127,170,60463,6,0,L|203:166,1,76.8,6|0,1:0|0:0,0:0:0:0:
331,241,60785,2,0,L|255:237,1,76.8,10|2,0:0|0:0,0:0:0:0:
244,93,61108,1,0,1:0:0:0:
289,161,61269,1,0,1:0:0:0:
180,273,61430,2,0,P|166:231|190:170,1,76.8,14|2,0:0|0:0,0:0:0:0:
324,89,61753,5,8,0:0:0:0:
254,236,61914,1,8,0:0:0:0:
254,236,61995,1,8,0:0:0:0:
254,236,62075,1,8,0:0:0:0:
162,96,62237,1,8,0:0:0:0:
289,161,62398,5,8,1:3:0:0:
324,173,62478,1,8,0:3:0:0:
362,168,62559,1,8,0:3:0:0:
392,145,62639,1,8,0:3:0:0:
408,110,62721,2,0,L|461:116,3,38.4,0|8|8|8,1:0|0:3|0:3|0:3,0:0:0:0:
344,40,63043,6,0,L|223:45,1,96,4|0,1:0|1:0,0:0:0:0:
73,58,63366,1,8,0:0:0:0:
164,145,63527,1,10,0:3:0:0:
164,145,63608,1,8,0:3:0:0:
164,145,63688,2,0,L|159:24,1,96,2|2,1:0|1:0,0:0:0:0:
80,195,64011,1,8,0:0:0:0:
285,256,64172,6,0,L|288:160,1,96,2|0,0:0|1:0,0:0:0:0:
172,331,64495,2,0,L|168:235,1,96,2|8,1:0|0:0,0:0:0:0:
392,266,64817,1,10,0:3:0:0:
392,266,64898,1,8,0:3:0:0:
392,266,64978,2,0,L|395:170,1,96,0|2,1:0|1:0,0:0:0:0:
288,351,65301,2,0,L|284:255,1,96,10|0,0:0|0:0,0:0:0:0:
167,49,65624,6,0,L|163:144,1,96,6|0,1:0|1:0,0:0:0:0:
339,45,65946,1,10,0:0:0:0:
339,45,66108,2,0,P|289:24|226:36,1,96,10|0,0:3|1:0,0:0:0:0:
154,164,66430,1,0,1:0:0:0:
279,118,66592,1,10,0:0:0:0:
167,49,66753,1,2,0:0:0:0:
241,208,66914,6,0,L|352:196,1,96,0|0,1:0|1:0,0:0:0:0:
495,180,67237,1,10,0:0:0:0:
425,268,67398,1,10,0:3:0:0:
425,268,67479,1,8,0:3:0:0:
425,268,67559,2,0,L|413:156,1,96,0|0,1:0|1:0,0:0:0:0:
345,37,67882,1,10,0:0:0:0:
341,71,67962,1,8,0:0:0:0:
337,106,68043,1,10,0:0:0:0:
334,141,68123,1,8,0:0:0:0:
330,175,68205,5,4,1:0:0:0:
458,103,68366,1,0,1:0:0:0:
230,104,68527,2,0,L|118:115,1,96,8|10,0:0|0:3,0:0:0:0:
134,113,68769,1,8,0:3:0:0:
134,113,68850,1,2,1:0:0:0:
241,191,69011,1,2,1:0:0:0:
223,23,69172,1,8,0:0:0:0:
76,180,69334,6,0,P|55:130|64:68,1,96,2|0,0:0|1:0,0:0:0:0:
224,147,69656,2,0,P|191:190|133:212,1,96,2|8,1:0|0:0,0:0:0:0:
122,36,69979,1,10,0:3:0:0:
122,36,70059,1,8,0:3:0:0:
122,36,70140,1,0,1:0:0:0:
297,54,70301,1,2,1:0:0:0:
141,122,70463,1,10,0:0:0:0:
223,23,70624,1,0,1:0:0:0:
223,23,70704,1,8,0:0:0:0:
223,23,70785,5,6,1:0:0:0:
229,238,70946,1,0,1:0:0:0:
311,132,71108,1,10,0:0:0:0:
135,221,71269,1,10,0:3:0:0:
135,221,71350,1,8,0:3:0:0:
135,221,71430,1,0,1:0:0:0:
340,236,71592,1,0,1:0:0:0:
141,122,71753,1,10,0:0:0:0:
172,331,71914,1,2,1:0:0:0:
172,331,71995,1,0,1:0:0:0:
172,331,72075,5,0,1:0:0:0:
210,194,72237,1,0,1:0:0:0:
334,331,72398,2,0,L|341:199,1,96,8|0,0:0|0:0,0:0:0:0:
429,110,72721,1,8,0:0:0:0:
429,110,72801,1,8,0:0:0:0:
429,110,72882,2,0,L|445:172,1,48,0|0,1:0|1:0,0:0:0:0:
473,229,73043,2,0,L|480:97,1,96,8|2,0:0|0:0,0:0:0:0:
200,75,73366,5,10,0:0:0:0:
384,214,73527,1,0,1:0:0:0:
361,16,73688,1,2,1:0:0:0:
236,275,73850,5,10,0:0:0:0:
429,110,74011,1,0,1:0:0:0:
138,161,74172,1,2,1:0:0:0:
338,314,74334,5,10,0:0:0:0:
268,92,74495,1,8,0:0:0:0:
158,349,74656,5,2,1:0:0:0:
158,349,74737,1,0,1:0:0:0:
158,349,74817,1,8,0:0:0:0:
384,214,74979,2,0,L|516:207,1,105.600003222656,10|2,0:0|0:0,0:0:0:0:
268,92,75301,5,8,1:2:0:0:
262,115,75381,1,8,0:0:0:0:
263,139,75462,1,10,0:0:0:0:
271,162,75542,1,8,0:0:0:0:
286,181,75624,5,8,1:2:0:0:
307,232,75704,1,8,0:0:0:0:
292,287,75785,1,8,0:0:0:0:
248,321,75865,1,8,0:0:0:0:
192,322,75946,6,0,L|60:315,1,120,6|0,1:0|1:0,0:0:0:0:
128,116,76269,2,0,P|145:175|121:248,1,120,8|0,0:0|1:0,0:0:0:0:
131,230,76511,1,8,0:0:0:0:
131,230,76592,1,2,1:0:0:0:
37,89,76753,1,0,1:0:0:0:
215,77,76914,2,0,L|347:70,1,120,8|0,0:0|0:0,0:0:0:0:
467,254,77237,6,0,P|405:223|335:235,1,120,6|0,1:0|1:0,0:0:0:0:
200,304,77559,1,10,0:0:0:0:
391,318,77721,1,0,1:0:0:0:
391,318,77801,1,8,0:0:0:0:
391,318,77882,1,2,1:0:0:0:
296,152,78043,1,0,1:0:0:0:
287,346,78205,1,10,0:0:0:0:
427,146,78366,1,8,0:0:0:0:
427,146,78446,1,8,0:0:0:0:
427,146,78527,6,0,L|420:14,1,120,6|0,1:0|1:0,0:0:0:0:
181,95,78850,1,8,0:0:0:0:
296,152,79011,1,2,0:0:0:0:
167,295,79172,2,0,L|173:175,1,120,6|0,1:0|1:0,0:0:0:0:
189,15,79495,1,8,0:0:0:0:
57,129,79656,1,2,1:0:0:0:
57,129,79737,1,8,0:0:0:0:
57,129,79817,6,0,L|63:248,1,120,2|2,1:0|1:0,0:0:0:0:
273,384,80140,2,0,L|279:264,1,120,14|0,0:0|0:0,0:0:0:0:
181,95,80463,5,8,1:2:0:0:
165,134,80543,1,8,0:0:0:0:
162,177,80624,1,8,0:0:0:0:
174,219,80704,1,8,0:0:0:0:
198,257,80785,1,8,1:3:0:0:
164,236,80865,1,8,0:3:0:0:
126,225,80946,1,8,0:3:0:0:
85,227,81026,1,8,0:3:0:0:
47,237,81108,6,0,L|31:389,1,105.600003222656,6|0,1:0|1:0,0:0:0:0:
268,167,81430,1,10,0:0:0:0:
67,142,81592,1,2,1:0:0:0:
67,142,81672,1,8,0:0:0:0:
67,142,81753,2,0,L|54:22,1,105.600003222656,6|0,1:0|1:0,0:0:0:0:
251,86,82075,2,0,L|131:73,1,105.600003222656,10|0,0:0|1:0,0:0:0:0:
268,167,82398,6,0,L|387:154,1,105.600003222656,6|0,1:0|1:0,0:0:0:0:
234,254,82721,2,0,P|189:221|178:156,1,105.600003222656,10|0,0:0|1:0,0:0:0:0:
401,73,83043,2,0,P|446:106|457:171,1,105.600003222656,2|0,1:0|1:0,0:0:0:0:
361,260,83366,2,0,L|373:140,1,105.600003222656,10|8,0:0|0:0,0:0:0:0:
372,155,83608,1,8,0:0:0:0:
372,155,83688,5,6,1:0:0:0:
494,286,83850,1,0,1:0:0:0:
234,254,84011,2,0,L|114:241,1,105.600003222656,8|2,0:0|1:0,0:0:0:0:
33,363,84334,2,0,L|152:350,1,105.600003222656,2|0,1:0|1:0,0:0:0:0:
202,156,84656,1,8,0:0:0:0:
27,227,84817,1,2,0:0:0:0:
234,254,84979,5,10,1:2:0:0:
286,248,85059,1,8,0:3:0:0:
338,242,85140,1,8,0:3:0:0:
391,236,85220,1,8,0:3:0:0:
443,231,85301,2,0,L|426:355,1,105.600003222656,12|0,0:0|0:0,0:0:0:0:
338,242,85624,6,0,B|354:133|354:133|324:49,1,158.400004833985,2|0,0:0|0:0,0:0:0:0:
259,82,85946,2,0,P|365:67|383:5,1,158.400004833985,2|0,0:0|0:0,0:0:0:0:
303,15,86269,5,14,0:0:0:0:
443,231,86430,1,0,1:0:0:0:
487,19,86592,1,8,0:0:0:0:
236,168,86753,1,0,1:0:0:0:
487,132,86914,1,10,0:0:0:0:
284,251,87075,1,0,1:0:0:0:
382,30,87237,1,8,0:0:0:0:
392,304,87398,1,0,1:0:0:0:
392,304,87479,1,0,0:0:0:0:
392,304,87559,5,14,0:0:0:0:
399,117,87721,1,0,1:0:0:0:
201,258,87882,1,10,0:0:0:0:
442,246,88043,1,2,1:0:0:0:
243,128,88205,1,10,0:0:0:0:
244,353,88366,1,0,1:0:0:0:
381,209,88527,2,0,L|255:201,1,120,10|0,0:0|1:0,0:0:0:0:
40,369,88850,6,0,L|167:360,1,120,14|0,0:0|1:0,0:0:0:0:
403,345,89172,1,8,0:0:0:0:
201,258,89334,1,2,1:0:0:0:
451,260,89495,1,14,0:0:0:0:
226,129,89656,1,0,1:0:0:0:
244,353,89817,1,8,0:0:0:0:
356,131,89979,1,2,1:0:0:0:
356,131,90059,1,0,1:0:0:0:
356,131,90140,5,14,0:0:0:0:
328,327,90301,1,2,1:0:0:0:
131,181,90463,1,10,0:0:0:0:
329,230,90624,1,0,1:0:0:0:
201,258,90785,1,8,0:0:0:0:
356,131,90946,1,0,1:0:0:0:
244,353,91108,1,10,0:0:0:0:
131,181,91269,1,0,1:0:0:0:
131,181,91350,1,0,1:0:0:0:
131,181,91430,6,0,L|82:43,1,120,14|0,1:2|0:0,0:0:0:0:
238,154,91753,1,10,0:0:0:0:
228,180,91833,1,8,0:0:0:0:
219,206,91914,1,10,0:0:0:0:
210,232,91994,1,8,0:0:0:0:
201,258,92075,2,0,P|130:283|66:255,1,120,14|0,1:2|0:0,0:0:0:0:
177,86,92398,1,10,0:0:0:0:
199,70,92478,1,8,0:0:0:0:
226,62,92559,1,8,0:0:0:0:
253,61,92639,1,8,0:0:0:0:
280,68,92721,6,0,L|409:59,1,120,14|0,1:2|0:0,0:0:0:0:
442,309,93043,1,10,0:0:0:0:
412,300,93123,1,8,0:0:0:0:
384,288,93204,1,8,0:0:0:0:
361,271,93284,1,8,0:0:0:0:
340,245,93366,2,0,L|328:367,1,120,14|0,1:2|0:0,0:0:0:0:
184,265,93688,1,10,0:0:0:0:
182,222,93768,1,8,0:0:0:0:
180,179,93849,1,8,0:0:0:0:
178,136,93929,1,8,0:0:0:0:
177,93,94011,6,0,P|103:135|25:77,1,158.400004833985,6|0,1:2|0:0,0:0:0:0:
104,55,94334,1,8,1:2:0:0:
122,103,94414,1,8,0:0:0:0:
108,153,94495,1,10,0:0:0:0:
68,186,94575,1,8,0:0:0:0:
16,189,94656,1,10,1:2:0:0:
28,138,94736,1,8,0:0:0:0:
68,103,94817,1,8,0:0:0:0:
122,103,94897,1,8,0:0:0:0:
171,123,94979,1,8,1:2:0:0:
207,160,95059,1,8,0:0:0:0:
258,172,95140,1,10,0:0:0:0:
308,158,95220,1,8,0:0:0:0:
350,130,95301,5,10,1:2:0:0:
327,172,95381,1,8,0:0:0:0:
333,218,95462,1,10,0:0:0:0:
363,255,95542,1,8,0:0:0:0:
407,269,95623,1,10,1:2:0:0:
454,260,95704,1,8,0:0:0:0:
486,226,95784,1,10,0:0:0:0:
494,179,95865,1,8,0:0:0:0:
481,133,95946,6,0,L|460:84,3,52.8000016113282,10|8|8|8,3:3|3:3|3:3|3:3,0:0:0:0:
379,57,96269,2,0,L|392:6,3,52.8000016113282,14|12|12|12,3:0|3:0|3:0|3:0,0:0:0:0:
287,43,96592,6,0,L|307:167,1,120,4|0,1:0|1:0,0:0:0:0:
344,348,96914,1,8,0:0:0:0:
444,260,97075,1,0,1:0:0:0:
444,260,97156,1,8,0:0:0:0:
444,260,97237,2,0,L|319:239,1,120,0|0,1:0|1:0,0:0:0:0:
123,298,97559,2,0,L|247:277,1,120,8|0,0:0|0:0,0:0:0:0:
185,84,97882,6,0,L|164:208,1,120,4|0,1:0|0:0,0:0:0:0:
384,52,98205,2,0,L|403:170,1,120,4|0,1:0|0:0,0:0:0:0:
110,32,98527,6,0,L|89:156,1,120,4|0,1:0|0:0,0:0:0:0:
460,0,98850,2,0,L|479:118,1,120,4|0,1:0|0:0,0:0:0:0:
215,217,99172,6,0,P|283:142|348:134,1,120,4|0,1:0|0:0,0:0:0:0:
471,299,99495,1,8,0:0:0:0:
181,344,99656,1,8,0:0:0:0:
314,231,99817,1,8,0:0:0:0:
38,284,99979,1,8,0:0:0:0:
273,333,100140,1,8,0:0:0:0:
279,110,100301,1,8,0:0:0:0:
64,186,100463,5,8,0:0:0:0:
314,231,100624,1,8,0:0:0:0:
116,300,100785,1,8,0:0:0:0:
148,78,100946,1,8,0:0:0:0:
273,333,101108,1,8,0:0:0:0:
358,95,101269,1,8,0:0:0:0:
150,210,101430,1,8,0:0:0:0:
450,198,101592,1,8,0:0:0:0:
254,27,101753,5,8,0:0:0:0:
116,300,101914,1,0,1:0:0:0:
317,195,102075,1,0,1:0:0:0:
102,70,102237,5,8,0:0:0:0:
224,285,102398,1,0,1:0:0:0:
281,115,102559,1,0,1:0:0:0:
2,258,102721,5,8,0:0:0:0:
317,195,102882,1,0,1:0:0:0:
102,70,103043,1,0,1:0:0:0:
122,332,103205,5,8,0:0:0:0:
206,54,103366,1,0,1:0:0:0:
224,285,103528,1,0,1:0:0:0:
58,159,103688,5,8,0:0:0:0:
85,157,103768,1,8,3:0:0:0:
113,155,103849,1,8,3:0:0:0:
140,153,103929,1,8,3:0:0:0:
168,151,104011,2,0,L|322:140,1,144,12|0,0:0|0:0,0:0:0:0:
311,140,104334,6,0,L|300:246,1,96,14|0,0:0|1:0,0:0:0:0:
410,128,104656,1,10,0:0:0:0:
326,42,104817,1,2,1:0:0:0:
399,223,104979,2,0,L|409:127,1,96,8|2,0:0|1:0,0:0:0:0:
512,55,105301,2,0,L|501:150,1,96,14|10,0:0|0:0,0:0:0:0:
468,336,105624,5,0,1:0:0:0:
399,223,105785,1,14,0:0:0:0:
365,370,105946,1,10,0:0:0:0:
487,233,106108,1,2,1:0:0:0:
487,233,106188,1,0,1:0:0:0:
487,233,106269,1,14,0:0:0:0:
332,283,106430,1,2,1:0:0:0:
332,283,106511,1,0,1:0:0:0:
332,283,106592,1,14,0:0:0:0:
408,127,106753,1,2,1:0:0:0:
408,127,106834,1,0,1:0:0:0:
408,127,106914,6,0,L|396:238,1,96,14|0,0:0|1:0,0:0:0:0:
237,317,107237,2,0,L|225:205,1,96,10|2,0:0|1:0,0:0:0:0:
78,203,107559,2,0,P|114:247|184:251,1,96,8|2,0:0|1:0,0:0:0:0:
305,177,107882,1,14,0:0:0:0:
162,76,108043,6,0,L|150:187,1,96,10|0,0:0|1:0,0:0:0:0:
132,339,108366,1,14,0:0:0:0:
231,222,108527,1,10,0:0:0:0:
150,257,108688,1,2,1:0:0:0:
313,255,108850,1,14,0:0:0:0:
231,138,109011,1,2,1:0:0:0:
245,308,109172,1,10,0:0:0:0:
389,215,109334,1,2,1:0:0:0:
389,215,109414,1,0,1:0:0:0:
389,215,109495,6,0,L|500:203,1,96,14|0,0:0|1:0,0:0:0:0:
321,62,109817,2,0,L|209:50,1,96,10|2,0:0|1:0,0:0:0:0:
175,208,110140,2,0,P|218:176|224:101,1,96,8|2,0:0|1:0,0:0:0:0:
157,4,110463,1,14,0:0:0:0:
50,140,110624,6,0,L|145:130,1,96,10|0,0:0|1:0,0:0:0:0:
341,112,110946,1,14,0:0:0:0:
211,295,111108,2,0,L|115:285,1,96,10|2,0:0|1:0,0:0:0:0:
115,285,111350,1,0,1:0:0:0:
115,285,111430,1,14,0:0:0:0:
296,209,111592,1,2,1:0:0:0:
296,209,111672,1,0,1:0:0:0:
296,209,111753,1,14,0:0:0:0:
275,384,111914,1,8,0:0:0:0:
275,384,112237,5,12,0:0:0:0:
313,106,112398,1,12,0:0:0:0:
313,106,112721,5,12,0:0:0:0:
115,285,112882,1,12,0:0:0:0:
115,285,113205,5,12,0:0:0:0:
424,270,113366,1,12,0:0:0:0:
424,270,113688,5,12,0:0:0:0:
201,115,113850,1,12,0:0:0:0:
201,115,114172,5,12,0:0:0:0:
143,373,114334,1,12,0:0:0:0:
83,48,114495,1,12,0:0:0:0:
