osu file format v14

[General]
AudioFilename: audio.mp3
AudioLeadIn: 0
PreviewTime: 85543
Countdown: 0
SampleSet: Soft
StackLeniency: 0.5
Mode: 0
LetterboxInBreaks: 0
WidescreenStoryboard: 1

[Editor]
DistanceSpacing: 1
BeatDivisor: 4
GridSize: 32
TimelineZoom: 1.4

[Metadata]
Title:ReI
TitleUnicode:ReI
Artist:THE ORAL CIGARETTES
ArtistUnicode:THE ORAL CIGARETTES
Creator:Sotarks
Version:Akitoshi's Normal
Source:
Tags:Yamanaka Takuya Suzuki Shigenobu Akirakani Akira Nakanishi Masaya ReIproject akitoshi -laura- corinn shunao shogunmoon snownino_ nevo armin a_r_m_i_n mir
BeatmapID:1657611
BeatmapSetID:785858

[Difficulty]
HPDrainRate:4
CircleSize:3.2
OverallDifficulty:4
ApproachRate:5
SliderMultiplier:1
SliderTickRate:1

[Events]
//Background and Video events
0,0,"BG.jpg",0,0
//Break Periods
//Storyboard Layer 0 (Background)
//Storyboard Layer 1 (Fail)
//Storyboard Layer 2 (Pass)
//Storyboard Layer 3 (Foreground)
//Storyboard Sound Samples

[TimingPoints]
2075,468.75,4,2,22,52,1,0
32076,322.58064516129,4,2,22,82,1,0
42398,-100,4,2,22,62,0,0
52721,-100,4,2,22,62,0,0
61753,-100,4,2,22,62,0,0
63043,-100,4,2,22,72,0,0
75946,-95.2380952380952,4,2,22,82,0,1
99495,-95.2380952380952,4,2,22,62,0,1
100140,-95.2380952380952,4,2,22,72,0,1
100785,-95.2380952380952,4,2,22,82,0,1
104334,-95.2380952380952,4,2,22,82,0,0

[Colours]
Combo1 : 198,106,108
Combo2 : 216,158,158
Combo3 : 180,217,228
Combo4 : 145,150,213
SliderBorder : 193,255,254

[HitObjects]
31,207,32076,6,0,P|80:195|136:204,1,100,14|10,0:0|0:0,0:0:0:0:
177,227,32559,1,2,1:0:0:0:
177,227,32721,2,0,L|298:222,1,100,8|14,0:0|0:0,0:0:0:0:
403,141,33527,2,0,L|462:144,2,50,14|10|2,0:0|0:0|1:0,0:0:0:0:
364,108,34011,2,0,P|307:85|250:96,1,100,14|14,0:0|0:0,0:0:0:0:
178,130,34656,6,0,P|121:153|64:142,1,100,14|10,0:0|0:0,0:0:0:0:
38,143,35140,1,2,1:0:0:0:
38,143,35301,2,0,L|45:263,1,100,8|14,0:0|0:0,0:0:0:0:
167,328,36108,2,0,L|163:388,2,50,14|10|2,0:0|0:0|1:0,0:0:0:0:
188,282,36592,2,0,P|225:270|290:277,1,100,14|10,0:0|0:0,0:0:0:0:
366,333,37237,6,0,P|403:345|468:338,1,100,14|10,0:0|0:0,0:0:0:0:
510,317,37721,1,2,1:0:0:0:
510,317,37882,2,0,L|503:200,1,100,8|14,0:0|0:0,0:0:0:0:
408,101,38688,2,0,L|411:42,2,50,14|10|2,0:0|0:0|1:0,0:0:0:0:
384,145,39172,2,0,P|310:145|283:132,1,100,14|14,0:0|0:0,0:0:0:0:
205,77,39817,6,0,L|86:86,1,100,14|10,0:0|0:0,0:0:0:0:
60,97,40301,1,2,1:0:0:0:
60,97,40463,2,0,P|46:156|60:210,1,100,8|14,0:0|0:0,0:0:0:0:
145,311,41269,2,0,L|137:376,2,50,14|14|2,0:0|0:0|0:0,0:0:0:0:
177,272,41753,2,0,P|217:267|234:269,1,50,10|8,0:0|0:0,0:0:0:0:
274,279,42075,2,0,P|314:284|331:282,1,50,8|8,3:0|3:0,0:0:0:0:
373,280,42398,6,0,P|421:293|477:285,2,100,6|8|2,1:0|0:0|1:0,0:0:0:0:
315,197,43366,1,8,0:0:0:0:
262,112,43688,2,0,L|152:121,1,100,6|8,1:0|0:0,0:0:0:0:
81,179,44334,2,0,P|72:231|90:289,1,100,2|8,1:0|0:0,0:0:0:0:
157,343,44979,6,0,P|209:352|267:334,2,100,6|8|0,1:0|0:0|1:0,0:0:0:0:
83,276,45946,1,10,0:0:0:0:
136,191,46269,2,0,L|247:194,1,100,4|8,1:0|0:0,0:0:0:0:
336,194,46914,1,6,1:0:0:0:
413,130,47237,1,10,0:0:0:0:
390,32,47559,6,0,P|338:18|282:30,1,100,6|8,1:0|0:0,0:0:0:0:
204,72,48205,2,0,P|152:86|96:74,1,100,2|8,1:0|0:0,0:0:0:0:
10,53,48850,2,0,L|13:155,1,100,6|8,1:0|0:0,0:0:0:0:
15,253,49495,1,2,1:0:0:0:
98,308,49817,1,10,0:0:0:0:
196,291,50140,6,0,P|213:241|196:178,1,100,6|8,1:0|0:0,0:0:0:0:
182,150,50624,2,0,P|245:175|334:146,1,150,2|10,0:0|0:0,0:0:0:0:
414,116,51430,2,0,P|419:163|424:229,1,100,4|0,1:0|1:0,0:0:0:0:
430,270,51914,1,8,0:0:0:0:
430,270,52075,2,0,P|379:260|324:277,1,100,2|2,1:0|1:0,0:0:0:0:
294,302,52559,1,8,0:0:0:0:
294,302,52721,6,0,L|190:297,1,100,6|8,1:0|0:0,0:0:0:0:
94,292,53366,1,2,1:0:0:0:
48,203,53688,1,8,0:0:0:0:
82,108,54011,2,0,P|155:91|191:99,1,100,6|8,1:0|0:0,0:0:0:0:
229,117,54495,1,2,0:0:0:0:
229,117,54656,2,0,P|302:134|338:126,1,100,2|8,1:0|0:0,0:0:0:0:
407,74,55301,6,0,P|454:57|504:60,2,100,6|8|0,1:0|0:0|1:0,0:0:0:0:
325,130,56269,1,10,0:0:0:0:
362,222,56592,2,0,P|379:268|376:318,1,100,4|8,1:0|0:0,0:0:0:0:
293,375,57237,1,6,1:0:0:0:
193,375,57559,1,10,0:0:0:0:
109,319,57882,6,0,P|105:269|122:222,1,100,6|8,1:0|0:0,0:0:0:0:
205,167,58527,2,0,L|201:57,1,100,2|8,1:0|0:0,0:0:0:0:
198,22,59011,1,2,0:0:0:0:
198,22,59172,2,0,P|146:15|95:29,1,100,6|8,1:0|0:0,0:0:0:0:
14,77,59817,1,2,1:0:0:0:
14,177,60140,1,10,0:0:0:0:
81,250,60463,6,0,L|186:258,1,100,6|10,1:0|0:0,0:0:0:0:
225,280,60946,1,2,0:0:0:0:
225,280,61108,2,0,L|330:272,1,100,0|14,1:0|0:0,0:0:0:0:
388,194,61753,2,0,L|440:198,2,50,8|8|8,0:0|0:0|0:0,0:0:0:0:
314,125,62398,2,0,L|261:129,1,50,8|8,1:3|0:3,0:0:0:0:
221,154,62721,2,0,L|168:150,1,50,0|8,1:0|0:3,0:0:0:0:
130,121,63043,6,0,P|78:111|20:130,1,100,4|8,1:0|0:0,0:0:0:0:
1,217,63688,2,0,P|5:271|10:327,1,100,2|8,1:0|0:0,0:0:0:0:
36,358,64172,2,0,P|88:368|146:349,1,100,2|2,0:0|1:0,0:0:0:0:
198,280,64817,2,0,P|202:230|206:180,1,100,10|2,0:3|1:0,0:0:0:0:
209,130,65301,1,10,0:0:0:0:
296,81,65624,6,0,P|351:76|404:95,1,100,6|10,1:0|0:0,0:0:0:0:
444,174,66269,2,0,P|450:256|452:279,1,100,0|10,1:0|0:0,0:0:0:0:
454,323,66753,2,0,P|400:310|347:320,1,100,2|0,0:0|1:0,0:0:0:0:
269,365,67398,2,0,L|161:360,1,100,10|0,0:3|1:0,0:0:0:0:
128,331,67882,2,0,L|74:334,1,50,10|10,0:0|0:0,0:0:0:0:
27,336,68205,6,0,P|11:285|25:228,1,100,4|8,1:0|0:0,0:0:0:0:
60,148,68850,2,0,L|56:85,2,50,2|2|8,1:0|1:0|0:0,0:0:0:0:
92,186,69334,2,0,P|141:181|192:177,1,100,2|2,0:0|1:0,0:0:0:0:
290,162,69979,2,0,P|339:165|389:170,1,100,10|2,0:3|1:0,0:0:0:0:
438,180,70463,1,10,0:0:0:0:
511,112,70785,6,0,P|511:62|483:21,1,100,6|10,1:0|0:0,0:0:0:0:
383,18,71430,2,0,P|339:41|290:40,1,100,0|10,1:0|0:0,0:0:0:0:
245,35,71914,1,2,1:0:0:0:
245,35,72075,2,0,L|241:139,1,100,0|8,1:0|0:0,0:0:0:0:
206,227,72721,2,0,L|210:294,1,50,8|0,0:0|1:0,0:0:0:0:
215,326,73043,1,8,0:0:0:0:
130,379,73366,6,0,P|70:376|26:355,1,100,10|2,0:0|1:0,0:0:0:0:
0,323,73850,2,0,P|3:273|6:217,1,100,10|2,0:0|1:0,0:0:0:0:
15,177,74334,1,10,0:0:0:0:
15,177,74495,2,0,P|70:190|120:172,1,100,8|8,0:0|0:0,0:0:0:0:
151,149,74979,1,10,0:0:0:0:
237,100,75301,2,0,L|301:95,1,50,8|10,1:2|0:0,0:0:0:0:
332,74,75624,2,0,L|396:79,1,50,8|8,1:2|0:0,0:0:0:0:
433,83,75946,6,0,P|444:129|433:187,1,104.999996795654,6|8,1:0|0:0,0:0:0:0:
401,226,76430,1,0,1:0:0:0:
401,226,76592,2,0,P|355:215|297:226,1,104.999996795654,2|8,1:0|0:0,0:0:0:0:
212,284,77237,1,6,1:0:0:0:
111,313,77559,1,10,0:0:0:0:
21,257,77882,1,2,1:0:0:0:
14,152,78205,2,0,L|18:93,1,52.4999983978272,10|8,0:0|0:0,0:0:0:0:
25,47,78527,6,0,P|75:35|133:54,1,104.999996795654,6|8,1:0|0:0,0:0:0:0:
209,112,79172,2,0,L|203:231,1,104.999996795654,6|8,1:0|0:0,0:0:0:0:
201,273,79656,1,2,1:0:0:0:
201,273,79817,2,0,P|250:287|301:275,1,104.999996795654,2|14,1:0|0:0,0:0:0:0:
391,220,80463,2,0,L|393:157,1,52.4999983978272,8|8,1:2|0:0,0:0:0:0:
415,120,80785,2,0,L|413:57,1,52.4999983978272,8|8,1:3|0:3,0:0:0:0:
387,21,81108,6,0,P|326:15|283:31,1,104.999996795654,6|10,1:0|0:0,0:0:0:0:
244,60,81592,1,2,1:0:0:0:
244,60,81753,2,0,P|194:44|142:51,1,104.999996795654,6|10,1:0|0:0,0:0:0:0:
50,102,82398,1,6,1:0:0:0:
19,202,82721,1,10,0:0:0:0:
64,296,83043,1,2,1:0:0:0:
166,318,83366,2,0,L|228:315,1,52.4999983978272,10|8,0:0|0:0,0:0:0:0:
270,308,83688,6,0,P|266:252|263:200,1,104.999996795654,6|8,1:0|0:0,0:0:0:0:
234,167,84172,1,2,1:0:0:0:
234,167,84334,2,0,P|224:113|240:62,1,104.999996795654,2|8,1:0|0:0,0:0:0:0:
335,24,84979,2,0,L|402:27,1,52.4999983978272,10|8,1:2|0:3,0:0:0:0:
439,30,85301,1,12,0:0:0:0:
234,167,86269,6,0,P|175:164|116:162,1,104.999996795654,14|8,0:0|0:0,0:0:0:0:
81,165,86753,1,0,1:0:0:0:
81,165,86914,2,0,P|66:220|79:276,1,104.999996795654,10|8,0:0|0:0,0:0:0:0:
155,333,87559,2,0,P|210:318|266:331,1,104.999996795654,14|10,0:0|0:0,0:0:0:0:
308,353,88043,1,2,1:0:0:0:
308,353,88205,2,0,P|359:352|424:350,1,104.999996795654,10|10,0:0|0:0,0:0:0:0:
496,286,88850,6,0,P|504:231|485:172,1,104.999996795654,14|8,0:0|0:0,0:0:0:0:
463,147,89334,1,2,1:0:0:0:
463,147,89495,2,0,P|408:155|349:136,1,104.999996795654,14|8,0:0|0:0,0:0:0:0:
286,68,90140,2,0,L|229:65,1,52.4999983978272,14|2,0:0|1:0,0:0:0:0:
180,62,90463,2,0,P|163:116|176:177,1,104.999996795654,10|8,0:0|0:0,0:0:0:0:
211,259,91108,1,10,0:0:0:0:
147,342,91430,6,0,P|91:356|32:338,1,104.999996795654,14|10,1:2|0:0,0:0:0:0:
7,319,91914,1,10,0:0:0:0:
7,319,92075,2,0,P|9:260|12:207,1,104.999996795654,14|10,1:2|0:0,0:0:0:0:
78,132,92721,2,0,P|134:118|193:136,1,104.999996795654,14|10,1:2|0:0,0:0:0:0:
220,161,93205,1,8,0:0:0:0:
220,161,93366,2,0,P|270:159|331:157,1,104.999996795654,14|10,1:2|0:0,0:0:0:0:
430,156,94011,6,0,P|445:214|435:267,1,104.999996795654,6|8,1:2|1:2,0:0:0:0:
400,293,94495,1,10,0:0:0:0:
400,293,94656,2,0,P|342:278|289:288,1,104.999996795654,10|8,1:2|1:2,0:0:0:0:
194,301,95301,1,10,1:2:0:0:
111,236,95624,1,10,1:2:0:0:
120,131,95946,2,0,L|180:127,1,52.4999983978272,10|8,3:3|3:3,0:0:0:0:
221,107,96269,2,0,L|281:111,1,52.4999983978272,14|12,3:0|3:0,0:0:0:0:
322,130,96592,6,0,P|368:144|439:125,1,104.999996795654,4|8,1:0|0:0,0:0:0:0:
473,113,97075,1,0,1:0:0:0:
473,113,97237,2,0,P|476:167|480:224,1,104.999996795654,0|8,1:0|0:0,0:0:0:0:
480,322,97882,1,4,1:0:0:0:
380,355,98205,1,4,1:0:0:0:
281,320,98527,1,4,1:0:0:0:
242,222,98850,1,4,1:0:0:0:
266,120,99172,6,0,P|215:108|153:122,1,104.999996795654,4|8,1:0|0:0,0:0:0:0:
121,146,99656,1,8,0:0:0:0:
121,146,99817,2,0,L|58:142,2,52.4999983978272,8|8|8,0:0|0:0|0:0,0:0:0:0:
191,224,100463,2,0,L|312:220,1,104.999996795654,8|8,0:0|0:0,0:0:0:0:
348,203,100946,1,8,0:0:0:0:
348,203,101108,2,0,L|408:205,2,52.4999983978272,8|8|8,0:0|0:0|0:0,0:0:0:0:
279,122,101753,6,0,P|226:130|167:113,1,104.999996795654,8|0,0:0|1:0,0:0:0:0:
127,99,102237,2,0,P|109:149|116:210,1,104.999996795654,8|0,0:0|1:0,0:0:0:0:
142,243,102721,2,0,P|221:248|258:250,1,104.999996795654,8|0,0:0|1:0,0:0:0:0:
296,267,103205,2,0,P|375:262|412:260,1,104.999996795654,8|0,0:0|1:0,0:0:0:0:
448,238,103688,2,0,L|513:242,2,52.4999983978272,8|8|12,0:0|3:0|0:0,0:0:0:0:
393,147,104334,6,0,P|353:132|284:139,1,104.999996795654,14|10,0:0|0:0,0:0:0:0:
250,167,104817,1,2,1:0:0:0:
250,167,104979,2,0,P|265:226|236:277,1,104.999996795654,8|14,0:0|0:0,0:0:0:0:
103,326,105785,2,0,L|107:378,2,52.4999983978272,14|10|2,0:0|0:0|1:0,0:0:0:0:
74,281,106269,2,0,L|78:172,1,104.999996795654,14|14,0:0|0:0,0:0:0:0:
120,79,106914,6,0,P|170:66|231:79,1,104.999996795654,14|10,0:0|0:0,0:0:0:0:
275,98,107398,1,2,1:0:0:0:
275,98,107559,2,0,P|326:89|376:102,1,104.999996795654,8|14,0:0|0:0,0:0:0:0:
460,236,108366,2,0,L|512:232,2,52.4999983978272,14|10|2,0:0|0:0|1:0,0:0:0:0:
418,267,108850,2,0,P|365:262|313:261,1,104.999996795654,14|10,0:0|0:0,0:0:0:0:
208,257,109495,6,0,P|197:201|210:149,1,104.999996795654,14|10,0:0|0:0,0:0:0:0:
230,109,109979,1,2,1:0:0:0:
230,109,110140,2,0,P|277:128|347:112,1,104.999996795654,8|14,0:0|0:0,0:0:0:0:
456,27,110946,2,0,L|508:30,2,52.4999983978272,14|10|2,0:0|0:0|1:0,0:0:0:0:
404,16,111430,2,0,P|346:17|293:19,1,104.999996795654,14|14,0:0|0:0,0:0:0:0:
152,78,112237,6,0,P|131:140|147:195,1,104.999996795654,10|0,0:0|1:0,0:0:0:0:
157,226,112721,2,0,P|219:205|274:221,1,104.999996795654,10|0,0:0|1:0,0:0:0:0:
301,239,113205,2,0,P|363:260|418:244,1,104.999996795654,10|0,0:0|1:0,0:0:0:0:
451,232,113688,1,10,0:0:0:0:
451,232,113850,1,10,0:0:0:0:
493,136,114172,2,0,L|489:61,1,52.4999983978272,14|10,0:0|0:0,0:0:0:0:
485,31,114495,5,14,0:0:0:0:
