osu file format v14

[General]
AudioFilename: audio.mp3
AudioLeadIn: 0
PreviewTime: 85623
Countdown: 0
SampleSet: Soft
StackLeniency: 0.7
Mode: 0
LetterboxInBreaks: 0
WidescreenStoryboard: 0

[Editor]
DistanceSpacing: 1.2
BeatDivisor: 4
GridSize: 16
TimelineZoom: 1.8

[Metadata]
Title:ReI
TitleUnicode:ReI
Artist:THE ORAL CIGARETTES
ArtistUnicode:THE ORAL CIGARETTES
Creator:SMOKELIND
Version:Xenon's Hard
Source:
Tags:cigs japanese jap jp j-rock rock reiproject airincat -mikan Xenon- Kowari
BeatmapID:1738514
BeatmapSetID:815753

[Difficulty]
HPDrainRate:5
CircleSize:4
OverallDifficulty:6.5
ApproachRate:8
SliderMultiplier:1.4
SliderTickRate:1

[Events]
//Background and Video events
0,0,"lolirin.jpg",0,0
//Break Periods
//Storyboard Layer 0 (Background)
//Storyboard Layer 1 (Fail)
//Storyboard Layer 2 (Pass)
//Storyboard Layer 3 (Foreground)
//Storyboard Sound Samples

[TimingPoints]
2074,468.75,4,2,7,27,1,0
32074,322.58064516129,4,2,7,77,1,0
32074,-100,4,2,7,77,0,0
42396,-125,4,2,7,57,0,0
63041,-100,4,2,7,77,0,0
73364,-100,4,2,7,87,0,0
75944,-90.9090909090909,4,2,7,87,0,1
84977,-90.9090909090909,4,2,7,87,0,0
85299,-111.111111111111,4,2,7,87,0,0
85622,-142.857142857143,4,2,7,87,0,0
86267,-90.9090909090909,4,2,7,87,0,1
104009,-90.9090909090909,4,2,7,77,0,1
104332,-100,4,2,7,77,0,0

[Colours]
Combo1 : 255,121,188
Combo2 : 255,121,121
Combo3 : 121,121,255

[HitObjects]
429,244,32074,6,0,P|420:210|395:185,1,70,14|0,0:0|1:0,0:0:0:0:
444,114,32396,2,0,P|413:100|377:102,1,70,10|2,0:0|1:0,0:0:0:0:
355,20,32719,2,0,P|325:35|303:63,1,70,10|0,0:0|1:0,0:0:0:0:
305,147,33041,1,10,0:0:0:0:
305,147,33203,2,0,L|210:135,1,70,10|0,0:0|1:0,0:0:0:0:
201,62,33525,5,10,0:0:0:0:
201,62,33686,2,0,L|106:73,1,70,10|0,0:0|1:0,0:0:0:0:
118,71,33928,1,0,1:0:0:0:
103,73,34009,1,10,0:0:0:0:
66,148,34170,1,0,1:0:0:0:
103,223,34332,1,10,0:0:0:0:
66,298,34493,1,0,1:0:0:0:
150,294,34654,6,0,P|183:303|218:294,1,70,14|0,0:0|1:0,0:0:0:0:
256,371,34977,2,0,P|283:351|299:318,1,70,10|2,0:0|1:0,0:0:0:0:
380,341,35299,2,0,P|382:307|368:274,1,70,10|0,0:0|1:0,0:0:0:0:
297,235,35622,1,10,0:0:0:0:
297,235,35783,2,0,L|309:140,1,70,10|0,0:0|1:0,0:0:0:0:
228,129,36106,5,10,0:0:0:0:
228,129,36267,2,0,L|217:224,1,70,10|0,0:0|1:0,0:0:0:0:
219,212,36509,1,0,1:0:0:0:
217,227,36590,1,10,0:0:0:0:
275,288,36751,1,0,1:0:0:0:
193,308,36912,1,10,0:0:0:0:
251,370,37073,1,0,1:0:0:0:
334,353,37235,6,0,P|356:326|362:291,1,70,14|0,0:0|1:0,0:0:0:0:
434,247,37557,2,0,P|433:212|416:181,1,70,10|2,0:0|1:0,0:0:0:0:
443,101,37880,2,0,P|420:74|387:61,1,70,10|0,0:0|1:0,0:0:0:0:
322,8,38203,1,10,0:0:0:0:
322,8,38364,2,0,L|227:20,1,70,10|0,0:0|1:0,0:0:0:0:
229,97,38686,5,10,0:0:0:0:
229,97,38848,2,0,L|134:86,1,70,10|0,0:0|1:0,0:0:0:0:
146,88,39090,1,0,1:0:0:0:
131,86,39170,1,10,0:0:0:0:
47,77,39332,1,0,1:0:0:0:
82,155,39493,1,10,0:0:0:0:
31,224,39654,1,0,1:0:0:0:
117,234,39815,6,0,P|144:212|178:205,1,70,14|0,0:0|1:0,0:0:0:0:
223,134,40138,2,0,P|257:134|288:151,1,70,10|2,0:0|1:0,0:0:0:0:
369,125,40461,2,0,P|395:147|408:180,1,70,10|0,0:0|1:0,0:0:0:0:
362,251,40783,1,10,0:0:0:0:
362,251,40944,2,0,L|374:346,1,70,10|0,0:0|1:0,0:0:0:0:
288,337,41267,5,10,0:0:0:0:
288,337,41428,2,0,L|277:242,1,70,10|0,0:0|0:0,0:0:0:0:
224,204,41751,2,0,L|228:169,3,35,10|8|8|8,0:0|0:0|0:0|0:0,0:0:0:0:
235,162,42073,2,0,P|201:169|163:159,1,70,8|8,3:0|3:0,0:0:0:0:
158,83,42396,6,0,P|108:104|86:154,1,112,6|8,1:0|0:0,0:0:0:0:
122,230,42880,1,0,0:0:0:0:
122,230,43041,2,0,L|114:293,1,56,2|0,1:0|1:0,0:0:0:0:
193,298,43364,2,0,L|200:234,1,56,8|0,0:0|0:0,0:0:0:0:
262,195,43686,6,0,B|255:141|255:141|258:138|258:138|251:85,1,112,2|8,1:0|0:0,0:0:0:0:
218,13,44170,1,2,0:0:0:0:
218,13,44332,2,0,P|244:5|273:8,1,56,2|0,1:0|1:0,0:0:0:0:
327,64,44654,2,0,P|353:71|381:68,1,56,8|0,0:0|0:0,0:0:0:0:
433,127,44977,6,0,P|418:82|453:33,2,112,2|8|0,1:0|0:0|1:0,0:0:0:0:
483,186,45783,1,2,1:0:0:0:
456,258,45944,1,10,0:0:0:0:
380,270,46106,1,2,0:0:0:0:
331,210,46267,6,0,B|260:203|294:236|223:230,1,112,0|8,1:0|0:0,0:0:0:0:
160,276,46751,1,0,0:0:0:0:
160,276,46912,2,0,L|168:339,1,56,2|0,1:0|1:0,0:0:0:0:
89,344,47235,2,0,L|82:280,1,56,10|0,0:0|0:0,0:0:0:0:
24,236,47557,6,0,P|57:191|48:135,1,112,6|8,1:0|0:0,0:0:0:0:
17,66,48041,1,2,0:0:0:0:
17,66,48203,2,0,P|43:58|72:61,1,56,2|0,1:0|1:0,0:0:0:0:
126,117,48525,2,0,P|152:124|180:121,1,56,8|0,0:0|0:0,0:0:0:0:
225,55,48848,6,0,P|257:99|251:155,1,112,2|8,1:0|0:0,0:0:0:0:
190,202,49332,1,0,0:0:0:0:
190,202,49493,2,0,L|198:265,1,56,2|0,1:0|1:0,0:0:0:0:
270,285,49815,2,0,L|262:348,1,56,10|0,0:0|0:0,0:0:0:0:
190,371,50138,6,0,B|232:365|232:365|255:379|255:379|297:373,1,112,2|10,1:0|0:0,0:0:0:0:
350,314,50622,1,2,0:0:0:0:
350,314,50783,2,0,P|376:306|405:309,1,56,0|0,1:0|1:0,0:0:0:0:
467,354,51106,1,10,0:0:0:0:
474,276,51267,1,2,0:0:0:0:
409,230,51428,6,0,P|376:186|382:132,1,112,6|0,1:0|1:0,0:0:0:0:
345,62,51912,1,8,0:0:0:0:
345,62,52073,2,0,L|282:70,1,56,2|0,1:0|0:0,0:0:0:0:
228,119,52396,2,0,L|172:112,1,56,2|8,1:0|0:0,0:0:0:0:
109,159,52719,6,0,B|102:213|102:213|105:216|105:216|98:269,1,112,6|8,0:0|0:0,0:0:0:0:
65,341,53203,1,0,0:0:0:0:
65,341,53364,2,0,P|91:349|120:346,1,56,2|0,1:0|1:0,0:0:0:0:
174,290,53686,2,0,P|200:283|228:286,1,56,8|0,0:0|0:0,0:0:0:0:
261,359,54009,6,0,B|331:365|297:332|368:338,1,112,2|8,1:0|0:0,0:0:0:0:
432,293,54493,1,2,0:0:0:0:
432,293,54654,2,0,L|424:230,1,56,2|0,1:0|1:0,0:0:0:0:
490,193,54977,2,0,L|496:137,1,56,8|0,0:0|0:0,0:0:0:0:
429,96,55299,6,0,P|444:51|409:2,2,112,6|8|0,1:0|0:0|1:0,0:0:0:0:
379,155,56106,1,2,1:0:0:0:
303,142,56267,1,10,0:0:0:0:
253,201,56428,1,2,0:0:0:0:
279,273,56590,6,0,P|332:257|382:284,1,112,4|8,1:0|0:0,0:0:0:0:
453,324,57073,1,0,0:0:0:0:
453,324,57235,2,0,P|461:298|458:269,1,56,2|0,1:0|1:0,0:0:0:0:
411,206,57557,2,0,P|404:180|407:152,1,56,10|0,0:0|0:0,0:0:0:0:
472,107,57880,6,0,P|427:75|372:80,1,112,6|8,1:0|0:0,0:0:0:0:
329,147,58364,1,2,0:0:0:0:
329,147,58525,2,0,L|266:139,1,56,2|0,1:0|1:0,0:0:0:0:
227,203,58848,2,0,L|171:210,1,56,8|2,0:0|0:0,0:0:0:0:
107,164,59170,6,0,B|112:121|112:121|98:98|98:98|104:56,1,112,2|8,1:0|0:0,0:0:0:0:
161,3,59654,1,2,0:0:0:0:
218,56,59815,1,2,1:0:0:0:
275,3,59977,1,2,1:0:0:0:
332,56,60138,2,0,P|358:49|386:52,1,56,10|0,0:0|0:0,0:0:0:0:
364,127,60461,6,0,B|357:181|357:181|360:184|360:184|353:237,1,112,2|10,1:0|0:0,0:0:0:0:
290,284,60944,1,2,0:0:0:0:
290,284,61106,2,0,L|227:276,1,56,0|0,1:0|1:0,0:0:0:0:
167,318,61428,1,10,0:0:0:0:
97,279,61590,1,2,0:0:0:0:
95,198,61751,6,0,L|103:135,1,56,12|8,0:0|0:0,0:0:0:0:
103,128,61993,1,8,0:0:0:0:
105,113,62073,1,8,0:0:0:0:
164,60,62235,1,8,0:0:0:0:
217,117,62396,2,0,P|244:120|271:113,1,56,8|8,3:0|3:0,0:0:0:0:
342,149,62719,2,0,L|338:176,3,28,0|8|8|8,1:0|3:0|3:0|3:0,0:0:0:0:
331,183,63041,5,4,1:0:0:0:
278,249,63203,1,0,1:0:0:0:
360,261,63364,2,0,P|394:263|423:284,1,70,8|2,0:0|3:0,0:0:0:0:
434,294,63606,1,0,3:0:0:0:
443,305,63686,1,2,1:0:0:0:
504,246,63848,2,0,L|492:150,1,70,2|8,1:0|0:0,0:0:0:0:
421,136,64170,2,0,L|432:40,1,70,2|0,0:0|1:0,0:0:0:0:
364,13,64493,6,0,P|299:6|236:58,1,140,2|2,1:0|3:0,0:0:0:0:
235,62,64896,1,0,3:0:0:0:
230,77,64977,1,0,1:0:0:0:
281,143,65138,1,2,1:0:0:0:
227,207,65299,2,0,P|194:216|159:207,1,70,10|0,0:0|0:0,0:0:0:0:
110,138,65622,6,0,P|128:178|79:262,1,140,6|10,1:0|0:0,0:0:0:0:
10,293,66106,1,2,0:0:0:0:
79,339,66267,2,0,B|166:330|124:371|212:363,1,140,0|8,1:0|0:0,0:0:0:0:
281,314,66751,1,2,0:0:0:0:
347,365,66912,6,0,P|378:350|413:353,1,70,0|0,0:0|1:0,0:0:0:0:
494,375,67235,1,10,0:0:0:0:
472,293,67396,1,2,3:0:0:0:
474,278,67477,1,0,3:0:0:0:
474,263,67557,2,0,L|482:193,1,70,0|0,1:0|1:0,0:0:0:0:
417,140,67880,2,0,L|413:102,3,35,10|8|10|8,0:0|0:0|0:0|0:0,0:0:0:0:
406,98,68203,5,4,1:0:0:0:
335,50,68364,1,0,1:0:0:0:
276,110,68525,2,0,P|241:107|212:86,1,70,8|2,0:0|3:0,0:0:0:0:
202,77,68767,1,0,3:0:0:0:
193,66,68848,1,2,1:0:0:0:
150,139,69009,2,0,L|161:234,1,70,2|8,0:0|0:0,0:0:0:0:
230,250,69332,2,0,L|218:345,1,70,2|0,0:0|1:0,0:0:0:0:
275,384,69654,6,0,P|220:342|152:348,1,140,2|2,1:0|3:0,0:0:0:0:
139,356,70057,1,0,3:0:0:0:
127,365,70138,1,0,1:0:0:0:
58,316,70299,1,2,1:0:0:0:
105,246,70461,2,0,P|114:213|105:178,1,70,10|0,0:0|0:0,0:0:0:0:
83,98,70783,6,0,B|170:89|128:130|216:122,1,140,6|10,1:0|0:0,0:0:0:0:
284,173,71267,1,2,0:0:0:0:
282,188,71348,1,10,0:0:0:0:
282,203,71428,2,0,L|274:273,1,70,0|0,1:0|1:0,0:0:0:0:
356,289,71751,2,0,L|364:219,1,70,10|2,0:0|0:0,0:0:0:0:
427,164,72073,6,0,P|461:166|492:151,2,70,0|0|8,1:0|1:0|0:0,0:0:0:0:
346,139,72557,1,0,0:0:0:0:
283,195,72719,1,8,0:0:0:0:
268,193,72799,1,8,0:0:0:0:
254,192,72880,1,0,1:0:0:0:
185,142,73041,2,0,P|167:171|167:206,1,70,8|2,0:0|0:0,0:0:0:0:
105,264,73364,6,0,L|113:333,1,70,14|0,0:0|1:0,0:0:0:0:
181,381,73686,1,2,1:0:0:0:
243,324,73848,2,0,P|277:321|308:336,1,70,10|0,0:0|1:0,0:0:0:0:
378,383,74170,1,2,1:0:0:0:
388,299,74332,1,10,0:0:0:0:
465,265,74493,1,8,0:0:0:0:
397,215,74654,6,0,L|388:145,1,70,2|8,1:0|0:0,0:0:0:0:
407,64,74977,2,0,P|372:61|341:76,1,70,10|0,0:0|0:0,0:0:0:0:
306,152,75299,2,0,L|271:147,3,35,8|8|10|8,0:0|0:0|0:0|0:0,0:0:0:0:
264,154,75622,2,0,L|229:149,3,35,0|8|8|8,1:0|0:0|0:0|0:0,0:0:0:0:
222,156,75944,6,0,B|149:165|149:165|145:161|145:161|70:171,1,154.000004699707,6|8,1:0|0:0,0:0:0:0:
40,258,76428,1,0,3:0:0:0:
52,258,76509,1,8,0:0:0:0:
65,258,76590,2,0,P|103:269|130:297,1,77.0000023498536,2|0,1:0|1:0,0:0:0:0:
194,359,76912,2,0,L|289:347,1,77.0000023498536,8|0,0:0|0:0,0:0:0:0:
355,384,77235,6,0,P|354:309|297:258,1,154.000004699707,2|10,1:0|0:0,0:0:0:0:
230,196,77719,1,0,3:0:0:0:
231,182,77799,1,8,0:0:0:0:
233,167,77880,2,0,L|244:71,1,77.0000023498536,2|0,1:0|1:0,0:0:0:0:
325,48,78203,2,0,L|334:124,1,77.0000023498536,10|8,0:0|0:0,0:0:0:0:
335,138,78444,1,8,0:0:0:0:
337,153,78525,6,0,B|362:193|362:193|489:178,1,154.000004699707,6|8,1:0|0:0,0:0:0:0:
512,100,79009,1,2,0:0:0:0:
447,33,79170,2,0,P|409:26|373:39,1,77.0000023498536,2|0,1:0|1:0,0:0:0:0:
291,82,79493,1,8,0:0:0:0:
218,24,79654,1,2,3:0:0:0:
204,23,79735,1,8,0:0:0:0:
189,21,79815,6,0,B|89:12|143:63|43:53,1,154.000004699707,2|10,1:0|0:0,0:0:0:0:
0,134,80299,1,0,0:0:0:0:
62,202,80461,2,0,L|101:197,3,38.5000011749268,8|8|8|8,0:0|0:0|0:0|0:0,0:0:0:0:
107,190,80783,2,0,L|146:185,3,38.5000011749268,10|8|8|8,3:0|3:0|3:0|3:0,0:0:0:0:
152,178,81106,6,0,P|191:118|257:143,1,154.000004699707,6|10,1:0|0:0,0:0:0:0:
346,171,81590,1,2,3:0:0:0:
347,157,81670,1,8,0:0:0:0:
349,142,81751,2,0,L|360:46,1,77.0000023498536,2|0,1:0|1:0,0:0:0:0:
441,23,82073,2,0,L|450:99,1,77.0000023498536,10|0,0:0|3:0,0:0:0:0:
434,190,82396,6,0,B|474:215|474:215|459:342,1,154.000004699707,6|10,1:0|0:0,0:0:0:0:
380,367,82880,1,0,3:0:0:0:
366,366,82961,1,8,0:0:0:0:
351,364,83041,2,0,L|255:353,1,77.0000023498536,2|0,1:0|1:0,0:0:0:0:
233,272,83364,2,0,L|157:281,1,77.0000023498536,10|8,0:0|0:0,0:0:0:0:
143,282,83606,1,8,0:0:0:0:
128,284,83686,6,0,B|137:184|86:238|96:138,1,154.000004699707,6|8,1:0|0:0,0:0:0:0:
24,97,84170,1,2,3:0:0:0:
26,84,84251,1,8,0:0:0:0:
32,72,84332,2,0,P|102:46|168:81,1,154.000004699707,2|8,1:0|0:0,0:0:0:0:
210,163,84815,1,2,0:0:0:0:
259,84,84977,6,0,L|298:88,3,38.5000011749268,10|8|8|8,0:0|3:0|3:0|3:0,0:0:0:0:
304,95,85299,2,0,L|383:85,1,62.9999980773926,8|0,0:0|0:0,0:0:0:0:
411,19,85622,6,0,B|486:28|486:28|465:37,1,97.9999970092774,2|2,0:0|0:0,0:0:0:0:
409,233,86267,6,0,L|418:153,1,77.0000023498536,14|0,0:0|1:0,0:0:0:0:
312,120,86590,2,0,L|321:196,1,77.0000023498536,8|0,0:0|1:0,0:0:0:0:
223,246,86912,2,0,L|232:166,1,77.0000023498536,10|0,0:0|1:0,0:0:0:0:
126,133,87235,2,0,L|135:209,1,77.0000023498536,8|2,0:0|1:0,0:0:0:0:
60,263,87557,6,0,L|50:339,1,77.0000023498536,14|2,0:0|1:0,0:0:0:0:
131,384,87880,1,10,0:0:0:0:
211,339,88041,1,2,1:0:0:0:
291,384,88203,2,0,P|324:364|362:364,1,77.0000023498536,10|0,0:0|1:0,0:0:0:0:
443,322,88525,1,10,0:0:0:0:
379,254,88686,1,0,1:0:0:0:
378,240,88767,1,0,1:0:0:0:
376,225,88848,6,0,L|366:149,1,77.0000023498536,14|0,0:0|1:0,0:0:0:0:
292,93,89170,2,0,L|216:103,1,77.0000023498536,8|0,0:0|1:0,0:0:0:0:
160,177,89493,2,0,L|170:253,1,77.0000023498536,10|0,0:0|1:0,0:0:0:0:
244,309,89815,2,0,L|320:299,1,77.0000023498536,8|2,0:0|1:0,0:0:0:0:
376,225,90138,5,14,0:0:0:0:
320,151,90299,1,2,1:0:0:0:
376,77,90461,2,0,L|452:87,1,77.0000023498536,10|0,0:0|1:0,0:0:0:0:
510,158,90783,2,0,P|509:196|489:228,1,77.0000023498536,8|0,0:0|1:0,0:0:0:0:
409,274,91106,1,10,0:0:0:0:
342,209,91267,1,0,1:0:0:0:
328,210,91348,1,0,1:0:0:0:
313,212,91428,6,0,L|237:222,1,77.0000023498536,14|0,0:0|0:0,0:0:0:0:
167,283,91751,2,0,L|127:278,3,38.5000011749268,10|8|10|8,0:0|0:0|0:0|0:0,0:0:0:0:
121,285,92073,2,0,P|128:247|115:211,1,77.0000023498536,6|0,1:0|0:0,0:0:0:0:
55,141,92396,2,0,L|59:101,3,38.5000011749268,10|8|8|8,0:0|0:0|0:0|0:0,0:0:0:0:
53,95,92719,6,0,P|90:102|126:89,1,77.0000023498536,6|0,1:0|0:0,0:0:0:0:
192,25,93041,2,0,L|231:29,3,38.5000011749268,10|8|8|8,0:0|0:0|0:0|0:0,0:0:0:0:
237,36,93364,2,0,P|272:23|310:30,1,77.0000023498536,6|0,1:0|0:0,0:0:0:0:
368,102,93686,2,0,L|363:141,3,38.5000011749268,10|8|8|8,0:0|0:0|0:0|0:0,0:0:0:0:
370,148,94009,6,0,P|332:140|296:153,1,77.0000023498536,6|0,1:0|0:0,0:0:0:0:
226,215,94332,2,0,L|230:254,3,38.5000011749268,0|8|10|8,1:0|0:0|0:0|0:0,0:0:0:0:
224,260,94654,2,0,L|228:299,3,38.5000011749268,2|8|8|8,1:0|0:0|0:0|0:0,0:0:0:0:
222,305,94977,2,0,L|226:344,3,38.5000011749268,0|8|10|8,1:0|0:0|0:0|0:0,0:0:0:0:
232,350,95299,6,0,P|270:342|306:355,1,77.0000023498536,2|10,1:0|0:0,0:0:0:0:
384,305,95622,2,0,P|419:317|458:310,1,77.0000023498536,10|10,0:0|0:0,0:0:0:0:
426,224,95944,2,0,L|415:136,1,77.0000023498536,10|8,3:0|3:0,0:0:0:0:
328,119,96267,2,0,L|338:31,1,77.0000023498536,2|8,1:0|3:0,0:0:0:0:
255,0,96590,6,0,P|219:12|181:5,1,77.0000023498536,6|0,1:0|1:0,0:0:0:0:
106,58,96912,1,10,0:0:0:0:
171,124,97073,1,2,3:0:0:0:
170,138,97154,1,8,0:0:0:0:
168,153,97235,2,0,L|158:229,1,77.0000023498536,2|0,1:0|1:0,0:0:0:0:
248,245,97557,2,0,L|258:169,1,77.0000023498536,10|0,0:0|0:0,0:0:0:0:
338,121,97880,6,0,B|331:65|331:65|327:63|327:63|330:59|330:59|323:4|323:4|345:29,1,154.000004699707,6|6,1:0|1:0,0:0:0:0:
408,174,98525,2,0,B|401:229|401:229|397:231|397:231|400:235|400:235|393:290|393:290|415:265,1,154.000004699707,6|6,1:0|1:0,0:0:0:0:
266,345,99170,6,0,B|366:336|312:387|412:377,1,154.000004699707,6|8,1:0|0:0,0:0:0:0:
484,320,99654,1,10,0:0:0:0:
420,253,99815,2,0,P|384:265|346:257,1,77.0000023498536,10|8,0:0|0:0,0:0:0:0:
296,179,100138,2,0,P|258:170|222:183,1,77.0000023498536,8|8,0:0|0:0,0:0:0:0:
136,216,100461,6,0,L|60:206,1,77.0000023498536,8|8,0:0|0:0,0:0:0:0:
74,114,100783,2,0,L|150:124,1,77.0000023498536,8|8,0:0|0:0,0:0:0:0:
233,81,101106,1,8,0:0:0:0:
311,130,101267,1,8,0:0:0:0:
392,86,101428,1,8,0:0:0:0:
473,130,101590,1,10,0:0:0:0:
394,178,101751,6,0,L|403:257,1,77.0000023498536,14|0,0:0|1:0,0:0:0:0:
347,327,102073,1,2,1:0:0:0:
275,267,102235,2,0,P|239:279|202:273,2,77.0000023498536,10|0|2,0:0|1:0|1:0,0:0:0:0:
310,181,102719,2,0,L|300:101,1,77.0000023498536,10|0,0:0|1:0,0:0:0:0:
390,87,103041,5,2,1:0:0:0:
330,18,103203,2,0,P|292:10|254:24,1,77.0000023498536,8|2,0:0|1:0,0:0:0:0:
213,105,103525,1,2,1:0:0:0:
157,33,103686,2,0,L|116:38,3,38.5000011749268,8|8|10|8,0:0|3:0|3:0|3:0,0:0:0:0:
125,45,104009,2,0,P|88:33|51:40,1,77.0000023498536,10|0,0:0|0:0,0:0:0:0:
82,122,104332,6,0,P|91:156|116:181,1,70,14|0,0:0|1:0,0:0:0:0:
67,252,104654,2,0,P|98:266|134:264,1,70,10|2,0:0|1:0,0:0:0:0:
156,346,104977,2,0,P|186:331|208:303,1,70,10|0,0:0|1:0,0:0:0:0:
206,219,105299,1,10,0:0:0:0:
206,219,105461,2,0,L|301:231,1,70,10|0,0:0|1:0,0:0:0:0:
310,313,105783,5,10,0:0:0:0:
310,313,105944,2,0,L|405:302,1,70,10|0,0:0|1:0,0:0:0:0:
393,304,106186,1,0,1:0:0:0:
408,302,106267,1,10,0:0:0:0:
445,227,106428,1,0,1:0:0:0:
408,152,106590,1,10,0:0:0:0:
445,77,106751,1,0,1:0:0:0:
361,81,106912,6,0,P|328:72|293:81,1,70,14|0,0:0|1:0,0:0:0:0:
255,4,107235,2,0,P|228:24|212:57,1,70,10|2,0:0|1:0,0:0:0:0:
131,34,107557,2,0,P|129:68|143:101,1,70,10|0,0:0|1:0,0:0:0:0:
214,140,107880,1,10,0:0:0:0:
214,140,108041,2,0,L|202:235,1,70,10|0,0:0|1:0,0:0:0:0:
283,246,108364,5,10,0:0:0:0:
283,246,108525,2,0,L|294:151,1,70,10|0,0:0|1:0,0:0:0:0:
292,163,108767,1,0,1:0:0:0:
294,148,108848,1,10,0:0:0:0:
236,87,109009,1,0,1:0:0:0:
318,67,109170,1,10,0:0:0:0:
260,5,109332,1,0,1:0:0:0:
177,22,109493,6,0,P|155:49|149:84,1,70,14|0,0:0|1:0,0:0:0:0:
77,128,109815,2,0,P|78:163|95:194,1,70,10|2,0:0|1:0,0:0:0:0:
68,274,110138,2,0,P|91:301|124:314,1,70,10|0,0:0|1:0,0:0:0:0:
189,367,110461,1,10,0:0:0:0:
189,367,110622,2,0,L|284:355,1,70,10|0,0:0|1:0,0:0:0:0:
282,278,110944,5,10,0:0:0:0:
282,278,111106,2,0,L|377:289,1,70,10|0,0:0|1:0,0:0:0:0:
365,287,111348,1,0,1:0:0:0:
380,289,111428,1,10,0:0:0:0:
464,298,111590,1,2,1:0:0:0:
429,220,111751,1,10,0:0:0:0:
480,151,111912,1,10,0:0:0:0:
320,81,112235,5,10,0:0:0:0:
268,8,112396,2,0,L|199:17,1,70,10|0,0:0|1:0,0:0:0:0:
144,87,112719,1,10,0:0:0:0:
196,160,112880,2,0,L|265:152,1,70,10|0,0:0|1:0,0:0:0:0:
349,182,113203,5,10,0:0:0:0:
297,255,113364,2,0,L|229:247,1,70,10|0,0:0|1:0,0:0:0:0:
144,277,113686,1,10,0:0:0:0:
196,350,113848,2,0,L|265:342,1,70,10|0,0:0|1:0,0:0:0:0:
352,326,114170,5,10,0:0:0:0:
383,240,114332,1,10,0:0:0:0:
440,310,114493,1,14,0:0:0:0:
