osu file format v14

[General]
AudioFilename: audio.mp3
AudioLeadIn: 0
PreviewTime: 85623
Countdown: 0
SampleSet: Soft
StackLeniency: 0.4
Mode: 0
LetterboxInBreaks: 0
WidescreenStoryboard: 0

[Editor]
DistanceSpacing: 0.5
BeatDivisor: 4
GridSize: 32
TimelineZoom: 2.3

[Metadata]
Title:ReI
TitleUnicode:ReI
Artist:THE ORAL CIGARETTES
ArtistUnicode:THE ORAL CIGARETTES
Creator:SMOKELIND
Version:Mikan's Extreme
Source:
Tags:cigs japanese jap jp j-rock rock reiproject airincat -mikan Xenon- Kowari
BeatmapID:1735518
BeatmapSetID:815753

[Difficulty]
HPDrainRate:6
CircleSize:3.6
OverallDifficulty:9
ApproachRate:9.3
SliderMultiplier:1.86
SliderTickRate:1

[Events]
//Background and Video events
0,0,"lolirin.jpg",0,0
//Break Periods
//Storyboard Layer 0 (Background)
//Storyboard Layer 1 (Fail)
//Storyboard Layer 2 (Pass)
//Storyboard Layer 3 (Foreground)
//Storyboard Sound Samples

[TimingPoints]
2074,468.75,4,2,7,27,1,0
32074,322.58064516129,4,2,7,77,1,0
32074,-100,4,2,7,77,0,0
41670,-100,4,2,7,5,0,0
41751,-100,4,2,7,77,0,0
42396,-133.333333333333,4,2,7,57,0,0
51428,-200,4,2,7,57,0,0
51670,-133.333333333333,4,2,7,57,0,0
61751,-100,4,2,7,57,0,0
61832,-100,4,2,7,5,0,0
61912,-100,4,2,7,57,0,0
63041,-100,4,2,7,77,0,0
65541,-100,4,2,7,77,0,0
65622,-100,4,2,7,77,0,0
72638,-100,4,2,7,77,0,0
72719,-100,4,2,7,77,0,0
73041,-80,4,2,7,77,0,0
73283,-80,4,2,7,77,0,0
73364,-100,4,2,7,87,0,0
73444,-100,4,2,7,5,0,0
73525,-100,4,2,7,87,0,0
73928,-100,4,2,7,5,0,0
74009,-100,4,2,7,87,0,0
74896,-100,4,2,7,5,0,0
74977,-100,4,2,7,87,0,0
75057,-100,4,2,7,5,0,0
75138,-100,4,2,7,87,0,0
75944,-80,4,2,7,87,0,1
85299,-80,4,2,7,87,0,0
86267,-100,4,2,7,87,0,1
86348,-100,4,2,7,5,0,1
86428,-100,4,2,7,87,0,1
86670,-100,4,2,7,5,0,1
86751,-100,4,2,7,87,0,1
86993,-100,4,2,7,5,0,1
87073,-100,4,2,7,87,0,1
87315,-100,4,2,7,5,0,1
87396,-100,4,2,7,87,0,1
87638,-100,4,2,7,5,0,1
87719,-100,4,2,7,87,0,1
87961,-100,4,2,7,5,0,1
88041,-100,4,2,7,87,0,1
88283,-100,4,2,7,5,0,1
88364,-100,4,2,7,87,0,1
88606,-100,4,2,7,5,0,1
88686,-100,4,2,7,87,0,1
88928,-100,4,2,7,5,0,1
89009,-100,4,2,7,87,0,1
89251,-100,4,2,7,5,0,1
89332,-100,4,2,7,87,0,1
89573,-100,4,2,7,5,0,1
89654,-100,4,2,7,87,0,1
89896,-100,4,2,7,5,0,1
89977,-100,4,2,7,87,0,1
90219,-100,4,2,7,5,0,1
90299,-100,4,2,7,87,0,1
90541,-100,4,2,7,5,0,1
90622,-100,4,2,7,87,0,1
90864,-100,4,2,7,5,0,1
90944,-100,4,2,7,87,0,1
91186,-100,4,2,7,5,0,1
91267,-100,4,2,7,87,0,1
92073,-200,4,2,7,87,0,1
92315,-200,4,2,7,5,0,1
92396,-100,4,2,7,87,0,1
92719,-200,4,2,7,87,0,1
92961,-200,4,2,7,87,0,1
93041,-100,4,2,7,87,0,1
93364,-200,4,2,7,87,0,1
93606,-200,4,2,7,5,0,1
93686,-100,4,2,7,87,0,1
94412,-100,4,2,7,87,0,1
95299,-100,4,2,7,87,0,1
95944,-83.3333333333333,4,2,7,87,0,1
96267,-133.333333333333,4,2,7,87,0,1
96590,-100,4,2,7,87,0,1
97880,-66.6666666666667,4,2,7,87,0,1
98122,-66.6666666666667,4,2,7,5,0,1
98203,-80,4,2,7,87,0,1
98444,-80,4,2,7,5,0,1
98525,-100,4,2,7,87,0,1
98767,-100,4,2,7,5,0,1
98848,-133.333333333333,4,2,7,87,0,1
99090,-133.333333333333,4,2,7,5,0,1
99170,-133.333333333333,4,2,7,87,0,1
99493,-100,4,2,7,87,0,1
101832,-100,4,2,7,5,0,1
101912,-100,4,2,7,87,0,1
102315,-100,4,2,7,5,0,1
102396,-100,4,2,7,87,0,1
102799,-100,4,2,7,5,0,1
102880,-100,4,2,7,87,0,1
103283,-100,4,2,7,5,0,1
103364,-100,4,2,7,87,0,1
104009,-166.666666666667,4,2,7,77,0,1
104251,-166.666666666667,4,2,7,5,0,1
104332,-100,4,2,7,77,0,0
114251,-100,4,2,7,5,0,0
114332,-100,4,2,7,77,0,0
114412,-100,4,2,7,5,0,0
114493,-500,4,2,7,77,0,0
114896,-250,4,2,7,5,0,0

[Colours]
Combo1 : 255,121,188
Combo2 : 255,121,121
Combo3 : 121,121,255

[HitObjects]
106,51,32074,6,0,P|91:99|84:147,1,93,14|0,0:0|1:0,0:0:0:0:
234,217,32396,2,0,P|224:169|208:122,1,93,10|2,0:0|1:0,0:0:0:0:
35,237,32719,1,10,0:0:0:0:
149,232,32880,1,0,1:0:0:0:
18,110,33041,5,10,0:0:0:0:
75,333,33203,1,10,0:0:0:0:
154,223,33364,1,0,1:0:0:0:
25,244,33525,5,10,0:0:0:0:
290,322,33686,1,10,0:0:0:0:
177,366,33848,5,0,1:0:0:0:
175,340,33928,1,0,1:0:0:0:
185,315,34009,1,10,0:0:0:0:
383,258,34170,5,0,1:0:0:0:
397,280,34251,1,0,1:0:0:0:
400,306,34331,1,10,0:0:0:0:
258,196,34493,6,0,P|263:167|274:143,1,46.5,0|0,1:0|1:0,0:0:0:0:
435,116,34654,2,0,L|323:110,1,93,14|0,0:0|1:0,0:0:0:0:
144,63,34977,2,0,L|245:50,1,93,10|2,0:0|1:0,0:0:0:0:
338,189,35299,1,10,0:0:0:0:
184,155,35461,1,0,1:0:0:0:
321,22,35622,5,10,0:0:0:0:
260,274,35783,1,10,0:0:0:0:
174,147,35944,1,0,1:0:0:0:
343,199,36106,5,10,0:0:0:0:
52,261,36267,1,10,0:0:0:0:
67,172,36428,5,0,1:0:0:0:
101,191,36509,1,0,1:0:0:0:
126,227,36590,1,10,0:0:0:0:
232,362,36751,5,0,1:0:0:0:
246,328,36832,1,0,1:0:0:0:
282,308,36912,1,10,0:0:0:0:
490,285,37073,6,0,P|459:279|439:271,1,46.5,0|0,1:0|1:0,0:0:0:0:
358,180,37235,2,0,P|424:160|469:157,1,93,14|0,0:0|1:0,0:0:0:0:
291,93,37557,2,0,P|245:74|188:66,1,93,10|2,0:0|1:0,0:0:0:0:
246,193,37880,1,10,0:0:0:0:
384,75,38041,1,0,1:0:0:0:
133,133,38203,5,10,0:0:0:0:
310,313,38364,1,10,0:0:0:0:
259,185,38525,1,0,1:0:0:0:
180,284,38686,5,10,0:0:0:0:
375,60,38848,1,10,0:0:0:0:
437,189,39009,5,0,1:0:0:0:
399,185,39090,1,0,1:0:0:0:
369,162,39170,1,10,0:0:0:0:
299,29,39332,5,0,1:0:0:0:
261,20,39412,1,0,1:0:0:0:
222,31,39493,1,10,0:0:0:0:
147,144,39654,6,0,P|111:141|96:133,1,46.5,0|0,1:0|1:0,0:0:0:0:
18,39,39815,2,0,L|31:145,1,93,14|0,0:0|1:0,0:0:0:0:
88,314,40138,2,0,L|104:213,1,93,10|2,0:0|1:0,0:0:0:0:
210,166,40461,1,10,0:0:0:0:
257,298,40622,1,0,1:0:0:0:
124,237,40783,5,10,0:0:0:0:
403,258,40944,1,10,0:0:0:0:
228,356,41106,2,0,P|233:318|242:299,1,46.5,0|0,1:0|1:0,0:0:0:0:
382,126,41267,5,10,0:0:0:0:
323,376,41428,1,10,0:0:0:0:
284,200,41590,2,0,P|311:212|330:233,1,46.5,2|0,0:0|0:0,0:0:0:0:
489,331,41751,5,10,0:0:0:0:
483,293,41832,1,8,0:0:0:0:
485,256,41912,1,8,0:0:0:0:
477,219,41993,1,8,0:0:0:0:
480,181,42073,1,8,3:0:0:0:
471,144,42154,1,8,3:0:0:0:
476,105,42235,1,8,3:0:0:0:
465,69,42315,1,8,3:0:0:0:
406,17,42396,6,0,P|338:29|260:65,1,139.500005321503,6|8,1:0|0:0,0:0:0:0:
197,163,43041,1,2,1:0:0:0:
197,163,43203,1,0,1:0:0:0:
138,95,43364,2,0,P|93:82|43:75,1,69.7500026607514,8|0,0:0|0:0,0:0:0:0:
10,272,43686,6,0,P|87:259|149:219,1,139.500005321503,2|8,1:0|0:0,0:0:0:0:
292,278,44332,1,2,1:0:0:0:
292,278,44493,1,0,1:0:0:0:
235,350,44654,2,0,P|210:317|200:273,1,69.7500026607514,8|0,0:0|0:0,0:0:0:0:
395,194,44977,6,0,P|393:263|373:346,1,139.500005321503,2|8,1:0|0:0,0:0:0:0:
270,186,45622,1,0,1:0:0:0:
270,186,45783,1,2,1:0:0:0:
312,116,45944,2,0,P|344:109|382:108,1,69.7500026607514,10|2,0:0|0:0,0:0:0:0:
219,70,46267,6,0,P|150:42|73:37,1,139.500005321503,0|8,1:0|0:0,0:0:0:0:
5,183,46912,2,0,P|80:165|156:168,1,139.500005321503,2|10,1:0|0:0,0:0:0:0:
213,322,47557,6,0,P|162:301|67:286,1,139.500005321503,6|8,1:0|0:0,0:0:0:0:
299,364,48203,1,2,1:0:0:0:
299,364,48364,1,0,1:0:0:0:
337,286,48525,2,0,P|368:250|395:234,1,69.7500026607514,8|0,0:0|0:0,0:0:0:0:
475,124,48848,6,0,P|425:90|385:22,1,139.500005321503,2|8,1:0|0:0,0:0:0:0:
274,165,49493,1,2,1:0:0:0:
274,165,49654,1,0,1:0:0:0:
191,127,49815,2,0,P|194:89|216:38,1,69.7500026607514,10|0,0:0|0:0,0:0:0:0:
161,216,50138,6,0,P|84:219|15:249,1,139.500005321503,2|10,1:0|0:0,0:0:0:0:
215,313,50783,1,0,1:0:0:0:
215,313,50944,1,0,1:0:0:0:
272,252,51106,2,0,P|305:255|348:267,1,69.7500026607514,10|2,0:0|0:0,0:0:0:0:
458,257,51428,6,0,L|486:252,3,23.25,6|0|0|0,1:0|0:0|0:0|0:0,0:0:0:0:
419,227,51751,2,0,P|420:187|427:145,1,69.7500026607514,0|8,1:0|0:0,0:0:0:0:
483,57,52073,5,2,1:0:0:0:
477,76,52235,1,0,0:0:0:0:
362,98,52396,1,2,1:0:0:0:
340,18,52557,1,8,0:0:0:0:
257,146,52719,6,0,P|207:140|139:98,1,104.625003991127,6|0,0:0|0:0,0:0:0:0:
84,56,53041,2,0,P|74:99|77:138,1,69.7500026607514,8|0,0:0|0:0,0:0:0:0:
111,229,53364,1,2,1:0:0:0:
126,210,53525,1,0,1:0:0:0:
188,282,53686,2,0,P|191:319|187:353,1,69.7500026607514,8|0,0:0|0:0,0:0:0:0:
292,377,54009,6,0,L|420:364,1,104.625003991127,2|0,1:0|0:0,0:0:0:0:
464,324,54332,2,0,P|478:286|481:248,1,69.7500026607514,8|2,0:0|0:0,0:0:0:0:
426,176,54654,1,2,1:0:0:0:
415,199,54815,1,0,1:0:0:0:
327,224,54977,2,0,P|307:180|305:137,1,69.7500026607514,8|0,0:0|0:0,0:0:0:0:
435,57,55299,6,0,L|310:69,1,104.625003991127,6|0,1:0|0:0,0:0:0:0:
248,36,55622,2,0,L|171:31,1,69.7500026607514,8|0,0:0|0:0,0:0:0:0:
74,60,55944,1,0,1:0:0:0:
88,84,56106,1,2,1:0:0:0:
35,155,56267,2,0,P|26:197|23:239,1,69.7500026607514,10|2,0:0|0:0,0:0:0:0:
136,321,56590,5,4,1:0:0:0:
140,280,56751,1,0,0:0:0:0:
128,237,56912,1,8,0:0:0:0:
229,179,57235,5,2,1:0:0:0:
255,269,57396,1,0,1:0:0:0:
246,359,57557,1,10,0:0:0:0:
356,357,57719,5,0,0:0:0:0:
368,355,57799,1,0,0:0:0:0:
380,353,57880,2,0,P|382:308|407:219,1,104.625003991127,6|0,1:0|0:0,0:0:0:0:
468,210,58203,2,0,P|463:170|453:137,1,69.7500026607514,8|2,0:0|0:0,0:0:0:0:
375,89,58525,1,2,1:0:0:0:
381,58,58686,1,0,1:0:0:0:
301,15,58848,2,0,L|210:20,1,69.7500026607514,8|2,0:0|0:0,0:0:0:0:
83,38,59170,6,0,P|43:105|29:153,1,104.625003991127,2|0,1:0|0:0,0:0:0:0:
60,204,59493,2,0,L|143:200,1,69.7500026607514,8|2,0:0|0:0,0:0:0:0:
212,244,59815,1,2,1:0:0:0:
184,271,59977,1,2,1:0:0:0:
209,364,60138,2,0,P|275:375|341:377,1,104.625003991127,10|0,0:0|0:0,0:0:0:0:
361,319,60461,6,0,P|411:310|448:308,1,69.7500026607514,2|0,1:0|0:0,0:0:0:0:
490,219,60783,2,0,P|430:199|364:196,1,104.625003991127,10|0,0:0|0:0,0:0:0:0:
300,214,61106,1,0,1:0:0:0:
300,214,61267,1,0,1:0:0:0:
160,107,61428,2,0,P|218:91|280:87,1,104.625003991127,10|0,0:0|0:0,0:0:0:0:
344,77,61751,6,0,P|358:101|367:130,1,46.5,12|0,0:0|0:0,0:0:0:0:
80,132,61912,1,8,0:0:0:0:
80,94,61993,1,8,0:0:0:0:
94,59,62073,1,8,0:0:0:0:
172,0,62235,1,8,0:0:0:0:
150,194,62396,5,8,3:0:0:0:
152,212,62477,1,8,3:0:0:0:
155,230,62557,1,8,3:0:0:0:
157,248,62638,1,8,3:0:0:0:
185,270,62719,5,0,1:0:0:0:
182,287,62799,1,8,3:0:0:0:
180,305,62880,1,8,3:0:0:0:
178,323,62961,1,8,3:0:0:0:
130,354,63041,5,4,1:0:0:0:
241,204,63203,1,0,1:0:0:0:
392,366,63364,1,8,0:0:0:0:
305,307,63525,5,2,3:0:0:0:
308,286,63606,1,0,3:0:0:0:
310,266,63686,2,0,L|416:256,1,93,2|2,1:0|1:0,0:0:0:0:
499,171,64009,1,8,0:0:0:0:
373,62,64170,6,0,L|186:51,1,186,2|2,0:0|1:0,0:0:0:0:
65,203,64654,1,8,0:0:0:0:
163,167,64815,1,2,3:0:0:0:
140,120,64896,1,0,3:0:0:0:
94,105,64977,1,0,1:0:0:0:
166,291,65138,1,2,1:0:0:0:
288,211,65299,2,0,P|287:141|275:72,1,139.5,10|0,0:0|0:0,0:0:0:0:
371,15,65622,6,0,P|427:26|475:58,1,93,6|0,1:0|1:0,0:0:0:0:
434,223,65944,1,10,0:0:0:0:
405,127,66106,1,2,0:0:0:0:
287,318,66267,1,0,1:0:0:0:
307,204,66428,1,2,1:0:0:0:
420,356,66590,1,8,0:0:0:0:
214,265,66751,6,0,P|133:277|24:325,1,186,2|0,0:0|1:0,0:0:0:0:
157,368,67235,1,10,0:0:0:0:
44,210,67396,1,2,3:0:0:0:
44,180,67477,1,0,3:0:0:0:
51,154,67557,2,0,P|99:157|161:182,1,93,0|0,1:0|1:0,0:0:0:0:
296,158,67880,5,10,0:0:0:0:
295,120,67961,1,8,0:0:0:0:
294,83,68041,1,10,0:0:0:0:
294,45,68122,1,8,0:0:0:0:
292,6,68203,5,4,1:0:0:0:
183,77,68364,1,0,1:0:0:0:
401,133,68525,2,0,L|417:237,1,93,8|2,0:0|3:0,0:0:0:0:
412,233,68767,1,0,3:0:0:0:
409,242,68848,1,2,1:0:0:0:
286,167,69009,5,2,0:0:0:0:
466,68,69170,1,8,0:0:0:0:
493,279,69332,2,0,P|424:282|289:327,1,186,2|2,0:0|1:0,0:0:0:0:
199,372,69815,1,8,0:0:0:0:
79,278,69977,1,2,3:0:0:0:
77,245,70057,1,0,3:0:0:0:
87,213,70138,2,0,P|159:222|200:242,1,93,0|2,1:0|1:0,0:0:0:0:
110,358,70461,2,0,P|48:368|-8:365,1,93,10|0,0:0|0:0,0:0:0:0:
15,212,70703,5,8,0:0:0:0:
46,194,70783,2,0,P|111:185|209:197,1,139.5,6|0,1:0|0:0,0:0:0:0:
414,127,71106,2,0,P|320:128|248:150,1,139.5,10|10,0:0|0:0,0:0:0:0:
207,200,71428,1,0,1:0:0:0:
315,263,71590,1,0,1:0:0:0:
244,60,71751,6,0,P|189:50|104:54,1,139.5,10|8,0:0|0:0,0:0:0:0:
49,129,72073,1,0,1:0:0:0:
0,20,72235,1,0,1:0:0:0:
81,282,72396,6,0,B|122:263|160:278|144:298|175:312|220:293,1,139.5,8|0,0:0|0:0,0:0:0:0:
342,246,72719,1,8,0:0:0:0:
303,223,72800,1,8,0:0:0:0:
259,229,72880,1,0,1:0:0:0:
373,335,73041,6,0,L|384:147,1,174.375,8|0,0:0|0:0,0:0:0:0:
320,41,73364,6,0,P|288:52|272:64,1,46.5,14|0,0:0|0:0,0:0:0:0:
137,224,73525,1,0,1:0:0:0:
83,27,73686,1,2,1:0:0:0:
225,141,73848,6,0,P|246:166|259:191,1,46.5,10|0,0:0|0:0,0:0:0:0:
230,322,74009,1,0,1:0:0:0:
455,250,74170,1,2,1:0:0:0:
144,236,74332,5,10,0:0:0:0:
482,338,74493,1,8,0:0:0:0:
60,294,74654,5,2,1:0:0:0:
44,297,74735,1,0,1:0:0:0:
34,308,74815,2,0,P|28:331|25:355,1,46.5,8|0,0:0|0:0,0:0:0:0:
151,220,74977,2,0,P|146:191|135:165,1,46.5,10|0,0:0|0:0,0:0:0:0:
46,97,75138,1,0,0:0:0:0:
131,332,75299,5,8,0:0:0:0:
172,328,75380,1,8,0:0:0:0:
213,325,75461,1,10,0:0:0:0:
254,321,75541,1,8,0:0:0:0:
295,317,75622,1,0,1:0:0:0:
336,312,75703,1,8,0:0:0:0:
377,307,75783,1,8,0:0:0:0:
418,304,75864,1,8,0:0:0:0:
477,252,75944,6,0,P|484:166|482:131,1,116.25,6|0,1:0|1:0,0:0:0:0:
292,19,76267,2,0,P|297:117|316:202,1,174.375,8|8,0:0|0:0,0:0:0:0:
378,235,76590,1,2,1:0:0:0:
253,106,76751,1,0,1:0:0:0:
131,332,76912,2,0,P|136:246|152:149,1,174.375,8|0,0:0|0:0,0:0:0:0:
135,65,77235,6,0,P|83:50|18:42,1,116.25,2|0,1:0|1:0,0:0:0:0:
36,265,77557,2,0,L|236:244,1,174.375,10|8,0:0|0:0,0:0:0:0:
283,204,77880,1,2,1:0:0:0:
73,174,78041,1,0,1:0:0:0:
243,333,78203,2,0,P|316:354|378:347,1,116.25,10|8,0:0|0:0,0:0:0:0:
451,274,78444,5,8,0:0:0:0:
467,252,78525,2,0,L|470:73,1,174.375,6|0,1:0|0:0,0:0:0:0:
391,30,78848,2,0,P|337:51|290:99,1,116.25,8|2,0:0|0:0,0:0:0:0:
291,222,79170,1,2,1:0:0:0:
240,10,79332,1,0,1:0:0:0:
97,113,79493,6,0,P|154:129|204:170,1,116.25,8|2,0:0|3:0,0:0:0:0:
361,240,79735,1,8,0:0:0:0:
367,247,79815,2,0,P|300:266|255:311,1,116.25,2|2,1:0|1:0,0:0:0:0:
163,384,80138,2,0,P|132:311|132:212,1,174.375,10|0,0:0|0:0,0:0:0:0:
286,147,80461,5,8,0:0:0:0:
320,151,80541,1,8,0:0:0:0:
354,156,80622,1,8,0:0:0:0:
388,161,80703,1,8,0:0:0:0:
424,118,80783,5,10,3:0:0:0:
412,60,80864,1,8,3:0:0:0:
362,29,80944,1,8,3:0:0:0:
305,42,81025,1,8,3:0:0:0:
242,81,81106,6,0,P|171:90|105:76,1,116.25,6|0,1:0|1:0,0:0:0:0:
22,10,81428,1,10,0:0:0:0:
67,177,81590,1,2,3:0:0:0:
63,211,81670,1,8,0:0:0:0:
59,245,81751,5,2,1:0:0:0:
176,134,81912,1,0,1:0:0:0:
214,302,82073,2,0,P|253:324|328:341,1,116.25,10|0,0:0|3:0,0:0:0:0:
428,305,82315,5,8,0:0:0:0:
428,305,82396,1,6,1:0:0:0:
464,148,82557,1,0,1:0:0:0:
306,356,82719,5,10,0:0:0:0:
272,180,82880,1,0,3:0:0:0:
277,163,82961,1,8,0:0:0:0:
281,146,83041,1,2,1:0:0:0:
357,254,83203,1,0,1:0:0:0:
206,266,83364,2,0,P|123:289|81:322,1,116.25,10|8,0:0|0:0,0:0:0:0:
13,251,83606,5,8,0:0:0:0:
26,235,83686,2,0,L|21:39,1,174.375,6|0,1:0|0:0,0:0:0:0:
99,7,84009,2,0,P|175:34|211:65,1,116.25,8|2,0:0|3:0,0:0:0:0:
271,196,84251,1,8,0:0:0:0:
271,196,84332,1,2,1:0:0:0:
250,0,84493,1,0,1:0:0:0:
197,291,84654,1,8,0:0:0:0:
309,104,84815,1,2,0:0:0:0:
476,309,84977,5,10,0:0:0:0:
477,327,85057,1,8,3:0:0:0:
478,345,85138,1,8,3:0:0:0:
479,363,85219,1,8,3:0:0:0:
480,381,85299,1,8,0:0:0:0:
85,93,86267,6,0,L|105:150,1,46.5,14|0,0:0|0:0,0:0:0:0:
155,274,86428,1,0,1:0:0:0:
226,82,86590,6,0,L|186:135,1,46.5,8|0,0:0|0:0,0:0:0:0:
79,253,86751,1,0,1:0:0:0:
26,44,86912,6,0,L|49:104,1,46.5,10|0,0:0|0:0,0:0:0:0:
148,305,87073,1,0,1:0:0:0:
262,78,87235,6,0,L|234:118,1,46.5,8|0,0:0|0:0,0:0:0:0:
83,340,87396,1,2,1:0:0:0:
83,340,87477,1,0,1:0:0:0:
83,340,87557,6,0,L|147:353,1,46.5,14|0,0:0|0:0,0:0:0:0:
302,381,87719,1,2,1:0:0:0:
55,252,87880,6,0,L|124:223,1,46.5,10|0,0:0|0:0,0:0:0:0:
300,156,88041,1,2,1:0:0:0:
42,87,88203,6,0,L|96:107,1,46.5,10|0,0:0|0:0,0:0:0:0:
372,194,88364,1,0,1:0:0:0:
153,162,88525,6,0,L|211:145,1,46.5,10|0,0:0|0:0,0:0:0:0:
437,80,88686,1,0,1:0:0:0:
437,80,88767,1,0,1:0:0:0:
437,80,88848,6,0,L|425:124,1,46.5,14|0,0:0|0:0,0:0:0:0:
362,327,89009,1,0,1:0:0:0:
464,294,89170,6,0,L|428:240,1,46.5,8|0,0:0|0:0,0:0:0:0:
308,78,89332,1,0,1:0:0:0:
426,9,89493,6,0,L|411:55,1,46.5,10|0,0:0|0:0,0:0:0:0:
326,257,89654,1,0,1:0:0:0:
472,352,89815,6,0,L|447:311,1,46.5,8|0,0:0|0:0,0:0:0:0:
319,74,89977,1,2,1:0:0:0:
319,74,90057,1,0,1:0:0:0:
319,74,90138,6,0,L|249:98,1,46.5,14|0,0:0|0:0,0:0:0:0:
61,165,90299,1,2,1:0:0:0:
271,201,90461,6,0,L|204:166,1,46.5,10|0,0:0|0:0,0:0:0:0:
16,90,90622,1,0,1:0:0:0:
169,284,90783,6,0,L|147:223,1,46.5,8|0,0:0|0:0,0:0:0:0:
65,15,90944,1,0,1:0:0:0:
44,293,91106,6,0,L|55:233,1,46.5,10|0,0:0|0:0,0:0:0:0:
266,43,91267,2,0,L|276:96,1,46.5,0|0,1:0|1:0,0:0:0:0:
350,311,91428,5,14,0:0:0:0:
369,321,91751,5,10,0:0:0:0:
365,274,91832,1,8,0:0:0:0:
361,228,91912,1,10,0:0:0:0:
355,181,91993,1,8,0:0:0:0:
405,117,92073,6,0,P|396:157|390:206,1,69.75,6|0,1:0|0:0,0:0:0:0:
276,258,92396,5,10,0:0:0:0:
241,289,92477,1,8,0:0:0:0:
195,296,92557,1,8,0:0:0:0:
151,279,92638,1,8,0:0:0:0:
74,319,92719,6,0,P|110:311|152:311,1,69.75,6|0,1:0|0:0,0:0:0:0:
209,202,93041,5,10,0:0:0:0:
203,155,93122,1,8,0:0:0:0:
184,111,93203,1,8,0:0:0:0:
150,79,93283,1,8,0:0:0:0:
193,13,93364,6,0,P|186:62|185:96,1,69.75,6|0,1:0|0:0,0:0:0:0:
209,202,93686,1,10,0:0:0:0:
162,179,93767,1,8,0:0:0:0:
111,178,93848,1,8,0:0:0:0:
65,197,93928,1,8,0:0:0:0:
32,270,94009,5,6,1:0:0:0:
23,259,94332,5,0,1:0:0:0:
39,243,94412,1,8,0:0:0:0:
61,236,94493,1,10,0:0:0:0:
84,235,94573,1,8,0:0:0:0:
105,243,94654,1,2,1:0:0:0:
120,260,94735,1,8,0:0:0:0:
131,279,94815,1,8,0:0:0:0:
149,293,94896,1,8,0:0:0:0:
171,299,94977,1,0,1:0:0:0:
193,295,95057,1,8,0:0:0:0:
212,282,95138,1,10,0:0:0:0:
226,261,95219,1,8,0:0:0:0:
226,237,95299,6,0,L|213:172,1,46.5,2|8,1:0|0:0,0:0:0:0:
311,196,95461,2,0,L|298:131,1,46.5,10|8,0:0|0:0,0:0:0:0:
426,362,95622,6,0,L|439:297,1,46.5,10|8,0:0|0:0,0:0:0:0:
341,321,95784,2,0,L|354:256,1,46.5,10|8,0:0|0:0,0:0:0:0:
471,150,95944,5,10,3:0:0:0:
477,116,96025,1,8,3:0:0:0:
460,86,96106,1,8,3:0:0:0:
429,74,96186,1,8,3:0:0:0:
409,66,96267,1,2,1:0:0:0:
393,51,96348,1,8,3:0:0:0:
386,35,96428,1,8,3:0:0:0:
386,17,96509,1,8,3:0:0:0:
394,0,96590,6,0,P|330:31|279:75,1,139.5,6|0,1:0|0:0,0:0:0:0:
228,169,96912,1,10,0:0:0:0:
170,81,97073,1,2,3:0:0:0:
145,58,97154,1,8,0:0:0:0:
114,45,97235,1,2,1:0:0:0:
320,152,97396,1,0,1:0:0:0:
137,193,97557,2,0,P|72:239|31:294,1,139.5,10|0,0:0|0:0,0:0:0:0:
146,358,97880,6,0,L|367:334,1,209.250007982254,6|0,1:0|0:0,0:0:0:0:
354,335,98203,2,0,L|182:307,1,174.375,6|0,1:0|0:0,0:0:0:0:
181,306,98525,2,0,L|332:288,1,139.5,6|0,1:0|0:0,0:0:0:0:
319,289,98848,2,0,L|201:266,1,104.625003991127,6|0,1:0|0:0,0:0:0:0:
216,268,99170,1,6,1:0:0:0:
216,268,99493,5,8,0:0:0:0:
377,225,99654,1,10,0:0:0:0:
203,247,99815,1,10,0:0:0:0:
391,245,99977,1,8,0:0:0:0:
189,267,100138,1,8,0:0:0:0:
403,225,100299,1,8,0:0:0:0:
175,245,100461,1,8,0:0:0:0:
420,250,100622,1,8,0:0:0:0:
161,269,100783,1,8,0:0:0:0:
439,227,100944,1,8,0:0:0:0:
143,245,101106,1,8,0:0:0:0:
456,252,101267,1,8,0:0:0:0:
126,273,101428,1,8,0:0:0:0:
475,227,101590,1,10,0:0:0:0:
340,62,101751,6,0,L|334:115,1,46.5,14|0,0:0|0:0,0:0:0:0:
305,331,101912,1,0,1:0:0:0:
305,331,102073,1,2,1:0:0:0:
142,157,102235,6,0,L|223:147,1,46.5,10|0,0:0|0:0,0:0:0:0:
451,124,102396,1,0,1:0:0:0:
451,124,102557,1,2,1:0:0:0:
232,21,102719,6,0,L|244:83,1,46.5,10|0,0:0|0:0,0:0:0:0:
282,251,102880,1,0,1:0:0:0:
282,251,103041,1,2,1:0:0:0:
481,44,103203,6,0,L|408:37,1,46.5,8|0,0:0|0:0,0:0:0:0:
145,9,103364,1,2,1:0:0:0:
145,9,103525,1,2,1:0:0:0:
62,214,103686,5,8,0:0:0:0:
62,214,103767,1,8,3:0:0:0:
62,214,103848,1,10,3:0:0:0:
62,214,103928,1,8,3:0:0:0:
62,214,104009,2,0,P|50:252|41:309,1,83.6999974456788,10|0,0:0|0:0,0:0:0:0:
155,363,104332,6,0,L|267:354,1,93,14|0,0:0|1:0,0:0:0:0:
440,304,104654,2,0,L|328:296,1,93,10|2,0:0|1:0,0:0:0:0:
263,180,104977,1,10,0:0:0:0:
225,275,105138,1,0,1:0:0:0:
443,185,105299,5,10,0:0:0:0:
176,147,105461,1,10,0:0:0:0:
238,268,105622,1,0,1:0:0:0:
344,75,105783,5,10,0:0:0:0:
297,327,105944,1,10,0:0:0:0:
192,179,106106,5,0,1:0:0:0:
209,211,106186,1,0,1:0:0:0:
226,243,106267,1,10,0:0:0:0:
430,211,106428,5,0,1:0:0:0:
413,243,106508,1,0,1:0:0:0:
396,275,106589,1,10,0:0:0:0:
331,141,106751,6,0,L|325:82,1,46.5,0|0,1:0|1:0,0:0:0:0:
409,26,106912,2,0,P|441:71|454:131,1,93,14|0,0:0|1:0,0:0:0:0:
218,88,107235,2,0,P|236:45|278:-4,1,93,10|2,0:0|1:0,0:0:0:0:
337,153,107557,1,10,0:0:0:0:
316,250,107719,1,0,1:0:0:0:
169,207,107880,5,10,0:0:0:0:
438,191,108041,1,10,0:0:0:0:
311,262,108203,1,0,1:0:0:0:
333,87,108364,5,10,0:0:0:0:
296,348,108525,1,10,0:0:0:0:
147,298,108686,5,0,1:0:0:0:
115,306,108767,1,0,1:0:0:0:
88,324,108848,1,10,0:0:0:0:
59,122,109009,5,0,1:0:0:0:
91,130,109090,1,0,1:0:0:0:
118,148,109171,1,10,0:0:0:0:
285,27,109332,6,0,P|242:36|227:42,1,46.5,0|0,1:0|1:0,0:0:0:0:
225,135,109493,2,0,L|236:252,1,93,14|0,0:0|1:0,0:0:0:0:
390,159,109815,2,0,L|394:57,1,93,10|2,0:0|1:0,0:0:0:0:
343,246,110138,1,10,0:0:0:0:
479,228,110299,1,0,1:0:0:0:
305,107,110461,5,10,0:0:0:0:
301,354,110622,1,10,0:0:0:0:
403,171,110783,1,0,1:0:0:0:
208,231,110944,5,10,0:0:0:0:
486,326,111106,1,10,0:0:0:0:
342,112,111267,5,0,1:0:0:0:
317,138,111348,1,0,1:0:0:0:
313,177,111428,1,10,0:0:0:0:
493,174,111590,5,2,1:0:0:0:
489,135,111670,1,0,1:0:0:0:
464,109,111751,1,10,0:0:0:0:
408,264,111912,5,10,0:0:0:0:
112,73,112235,5,10,0:0:0:0:
84,294,112396,1,10,0:0:0:0:
27,349,112557,5,0,0:0:0:0:
27,349,112638,1,0,1:0:0:0:
27,349,112719,1,10,0:0:0:0:
252,64,112880,1,10,0:0:0:0:
189,24,113041,5,0,0:0:0:0:
189,24,113122,1,0,1:0:0:0:
189,24,113203,1,10,0:0:0:0:
350,326,113364,1,10,0:0:0:0:
413,277,113525,5,0,0:0:0:0:
413,277,113606,1,0,1:0:0:0:
413,277,113686,1,10,0:0:0:0:
69,146,113848,1,10,0:0:0:0:
69,146,114170,6,0,L|135:150,1,46.5,10|0,0:0|0:0,0:0:0:0:
476,183,114332,2,0,L|412:189,1,46.5,10|0,0:0|0:0,0:0:0:0:
18,214,114493,6,0,P|12:240|10:259,1,46.5,14|0,0:0|0:0,0:0:0:0:
