osu file format v14

[General]
AudioFilename: audio.mp3
AudioLeadIn: 0
PreviewTime: 85623
Countdown: 0
SampleSet: Soft
StackLeniency: 0.4
Mode: 0
LetterboxInBreaks: 0
WidescreenStoryboard: 0

[Editor]
DistanceSpacing: 0.9
BeatDivisor: 4
GridSize: 32
TimelineZoom: 2.2

[Metadata]
Title:ReI
TitleUnicode:ReI
Artist:THE ORAL CIGARETTES
ArtistUnicode:THE ORAL CIGARETTES
Creator:SMOKELIND
Version:Eternity
Source:
Tags:cigs japanese jap jp j-rock rock reiproject airincat -mikan Xenon- Kowari
BeatmapID:1713939
BeatmapSetID:815753

[Difficulty]
HPDrainRate:5.4
CircleSize:4.2
OverallDifficulty:9.2
ApproachRate:9.4
SliderMultiplier:1.97
SliderTickRate:1

[Events]
//Background and Video events
0,0,"lolirin.jpg",0,0
//Break Periods
//Storyboard Layer 0 (Background)
//Storyboard Layer 1 (Fail)
//Storyboard Layer 2 (Pass)
//Storyboard Layer 3 (Foreground)
//Storyboard Sound Samples

[TimingPoints]
2074,468.75,4,2,7,27,1,0
32074,322.58064516129,4,2,7,77,1,0
32074,-103.092783505155,4,2,7,77,0,0
42396,-129.870129870131,4,2,7,57,0,0
63041,-114.942528735633,4,2,7,77,0,0
73364,-103.092783505155,4,2,7,87,0,0
86267,-93.4579439252339,4,2,7,87,0,0
97880,-85.4700854700855,4,2,7,87,0,0
104009,-129.87012987013,4,2,7,77,0,0
104332,-103.092783505155,4,2,7,77,0,0

[Colours]
Combo1 : 255,121,188
Combo2 : 255,121,121
Combo3 : 121,121,255

[HitObjects]
38,46,32074,6,0,P|51:96|60:162,1,95.5450022597466,14|0,0:0|1:0,0:0:0:0:
192,356,32396,1,10,0:0:0:0:
37,215,32557,1,2,1:0:0:0:
239,50,32719,2,0,P|286:34|355:51,1,95.5450022597466,10|0,0:0|1:0,0:0:0:0:
436,280,33041,1,10,0:0:0:0:
239,88,33203,6,0,P|230:132|221:192,1,95.5450022597466,10|0,0:0|1:0,0:0:0:0:
436,29,33525,1,10,0:0:0:0:
295,254,33686,2,0,P|255:279|185:274,1,95.5450022597466,10|0,0:0|1:0,0:0:0:0:
138,241,33928,1,0,1:0:0:0:
138,241,34009,1,10,0:0:0:0:
331,40,34170,1,0,1:0:0:0:
331,40,34251,1,0,1:0:0:0:
331,40,34332,2,0,P|318:84|309:142,1,95.5450022597466,10|0,0:0|1:0,0:0:0:0:
363,195,34573,5,0,1:0:0:0:
363,195,34654,2,0,P|376:239|385:297,1,95.5450022597466,14|0,0:0|1:0,0:0:0:0:
162,113,34977,1,10,0:0:0:0:
390,175,35138,1,2,1:0:0:0:
129,130,35299,2,0,P|116:174|107:232,1,95.5450022597466,10|0,0:0|1:0,0:0:0:0:
297,21,35622,1,10,0:0:0:0:
437,246,35783,6,0,P|446:290|451:349,1,95.5450022597466,10|0,0:0|1:0,0:0:0:0:
340,94,36106,1,10,0:0:0:0:
211,333,36267,2,0,P|166:359|100:344,1,95.5450022597466,10|0,0:0|1:0,0:0:0:0:
63,307,36509,1,0,1:0:0:0:
63,307,36590,1,10,0:0:0:0:
216,108,36751,1,0,1:0:0:0:
216,108,36832,1,0,1:0:0:0:
216,108,36912,2,0,P|256:83|303:84,1,95.5450022597466,10|0,0:0|1:0,0:0:0:0:
363,134,37154,5,0,1:0:0:0:
363,134,37235,2,0,P|341:178|330:242,1,95.5450022597466,14|0,0:0|1:0,0:0:0:0:
127,382,37557,1,10,0:0:0:0:
109,141,37719,1,2,1:0:0:0:
292,337,37880,2,0,P|350:340|400:317,1,95.5450022597466,10|0,0:0|1:0,0:0:0:0:
459,74,38203,1,10,0:0:0:0:
234,255,38364,6,0,P|224:204|214:156,1,95.5450022597466,10|0,0:0|1:0,0:0:0:0:
421,0,38686,1,10,0:0:0:0:
158,52,38848,2,0,P|147:98|139:145,1,95.5450022597466,10|0,0:0|1:0,0:0:0:0:
132,225,39090,1,0,1:0:0:0:
132,225,39170,1,10,0:0:0:0:
368,74,39332,1,0,1:0:0:0:
368,74,39412,1,0,1:0:0:0:
368,74,39493,2,0,P|378:120|386:167,1,95.5450022597466,10|0,0:0|1:0,0:0:0:0:
343,231,39735,5,0,1:0:0:0:
343,231,39815,2,0,P|332:277|324:324,1,95.5450022597466,14|0,0:0|1:0,0:0:0:0:
256,85,40138,1,10,0:0:0:0:
423,232,40299,1,2,1:0:0:0:
181,107,40461,2,0,P|191:153|199:200,1,95.5450022597466,10|0,0:0|1:0,0:0:0:0:
402,39,40783,1,10,0:0:0:0:
173,19,40944,6,0,P|125:22|87:49,1,95.5450022597466,10|0,0:0|1:0,0:0:0:0:
68,134,41186,1,0,1:0:0:0:
68,134,41267,1,10,0:0:0:0:
150,373,41428,2,0,P|164:317|193:264,1,95.5450022597466,10|0,0:0|0:0,0:0:0:0:
342,186,41751,1,10,0:0:0:0:
334,139,41831,1,8,0:0:0:0:
305,102,41912,1,8,0:0:0:0:
262,84,41992,1,8,0:0:0:0:
215,89,42073,2,0,P|188:96|158:109,1,47.7725011298733,8|8,3:0|3:0,0:0:0:0:
46,233,42235,2,0,P|68:241|91:247,1,47.7725011298733,8|8,3:0|3:0,0:0:0:0:
296,351,42396,6,0,B|207:331|241:384|136:373,1,151.689996991013,6|8,1:0|0:0,0:0:0:0:
78,259,42880,1,0,0:0:0:0:
227,172,43041,1,2,1:0:0:0:
227,172,43203,1,0,1:0:0:0:
46,233,43364,2,0,P|33:191|28:147,1,75.8449984955063,8|0,0:0|0:0,0:0:0:0:
174,29,43686,6,0,P|139:96|131:203,1,151.689996991013,2|8,1:0|0:0,0:0:0:0:
281,78,44170,1,2,0:0:0:0:
329,253,44332,1,2,1:0:0:0:
329,253,44493,1,0,1:0:0:0:
244,67,44654,2,0,P|253:110|258:154,1,75.8449984955063,8|0,0:0|0:0,0:0:0:0:
213,334,44977,6,0,P|260:283|358:310,1,151.689996991013,2|8,1:0|0:0,0:0:0:0:
476,214,45461,2,0,P|439:203|392:205,1,75.8449984955063,0|0,0:0|1:0,0:0:0:0:
341,334,45783,1,2,1:0:0:0:
220,164,45944,1,10,0:0:0:0:
297,272,46106,1,2,0:0:0:0:
413,78,46267,6,0,P|361:46|253:79,1,151.689996991013,0|8,1:0|0:0,0:0:0:0:
267,239,46751,1,0,0:0:0:0:
163,76,46912,2,0,P|122:62|68:56,1,75.8449984955063,2|0,1:0|1:0,0:0:0:0:
172,226,47235,2,0,P|209:219|245:206,1,75.8449984955063,10|0,0:0|0:0,0:0:0:0:
396,51,47557,6,0,P|372:121|356:215,1,151.689996991013,6|8,1:0|0:0,0:0:0:0:
280,342,48041,1,2,0:0:0:0:
150,195,48203,1,2,1:0:0:0:
150,195,48364,1,0,1:0:0:0:
302,318,48525,2,0,P|349:316|401:304,1,75.8449984955063,8|0,0:0|0:0,0:0:0:0:
166,164,48848,6,0,P|185:225|195:323,1,151.689996991013,2|8,1:0|0:0,0:0:0:0:
276,200,49332,1,0,0:0:0:0:
94,130,49493,1,2,1:0:0:0:
94,130,49654,1,0,1:0:0:0:
291,172,49815,2,0,P|331:161|374:152,1,75.8449984955063,10|0,0:0|0:0,0:0:0:0:
208,333,50138,6,0,P|200:285|186:242,1,75.8449984955063,2|0,1:0|0:0,0:0:0:0:
309,126,50461,1,10,0:0:0:0:
412,289,50622,2,0,P|420:241|434:198,1,75.8449984955063,2|0,0:0|1:0,0:0:0:0:
327,82,50944,1,0,1:0:0:0:
295,273,51106,1,10,0:0:0:0:
388,151,51267,1,2,0:0:0:0:
265,303,51428,6,0,B|181:308|225:246|97:252,1,151.689996991013,6|0,1:0|1:0,0:0:0:0:
291,172,51912,1,8,0:0:0:0:
137,55,52073,2,0,P|148:94|157:135,1,75.8449984955063,2|0,1:0|0:0,0:0:0:0:
295,273,52396,2,0,P|302:235|313:199,1,75.8449984955063,2|8,1:0|0:0,0:0:0:0:
417,35,52719,6,0,P|440:112|456:192,1,151.689996991013,6|8,0:0|0:0,0:0:0:0:
319,97,53203,1,0,0:0:0:0:
256,251,53364,1,2,1:0:0:0:
256,251,53525,1,0,1:0:0:0:
286,77,53686,2,0,P|299:119|308:162,1,75.8449984955063,8|0,0:0|0:0,0:0:0:0:
167,318,54009,6,0,P|175:239|189:165,1,151.689996991013,2|8,1:0|0:0,0:0:0:0:
316,58,54493,1,2,0:0:0:0:
172,160,54654,1,2,1:0:0:0:
172,160,54815,1,0,1:0:0:0:
343,85,54977,2,0,P|357:128|361:176,1,75.8449984955063,8|0,0:0|0:0,0:0:0:0:
413,345,55299,6,0,P|429:265|448:193,1,151.689996991013,6|8,1:0|0:0,0:0:0:0:
333,313,55783,2,0,P|295:330|250:336,1,75.8449984955063,0|0,0:0|1:0,0:0:0:0:
151,216,56106,1,2,1:0:0:0:
254,362,56267,1,10,0:0:0:0:
275,221,56428,1,2,0:0:0:0:
123,364,56590,6,0,P|115:277|97:183,1,151.689996991013,4|8,1:0|0:0,0:0:0:0:
176,73,57073,1,0,0:0:0:0:
307,204,57235,2,0,P|352:217|398:214,1,75.8449984955063,2|0,1:0|1:0,0:0:0:0:
428,62,57557,2,0,P|390:63|354:74,1,75.8449984955063,10|0,0:0|0:0,0:0:0:0:
222,233,57880,6,0,P|215:162|280:96,1,151.689996991013,6|8,1:0|0:0,0:0:0:0:
399,142,58364,1,2,0:0:0:0:
220,91,58525,1,2,1:0:0:0:
220,91,58686,1,0,1:0:0:0:
346,222,58848,2,0,P|359:262|365:304,1,75.8449984955063,8|2,0:0|0:0,0:0:0:0:
210,367,59170,6,0,P|253:327|346:331,1,151.689996991013,2|8,1:0|0:0,0:0:0:0:
216,246,59654,1,2,0:0:0:0:
371,299,59815,1,2,1:0:0:0:
371,299,59977,1,2,1:0:0:0:
251,153,60138,2,0,P|221:141|176:141,1,75.8449984955063,10|0,0:0|0:0,0:0:0:0:
347,31,60461,6,0,P|333:66|325:109,1,75.8449984955063,2|0,1:0|0:0,0:0:0:0:
353,248,60783,1,10,0:0:0:0:
213,127,60944,2,0,P|227:162|235:205,1,75.8449984955063,2|0,0:0|1:0,0:0:0:0:
207,344,61266,1,0,1:0:0:0:
349,205,61428,1,10,0:0:0:0:
230,245,61590,1,2,0:0:0:0:
459,264,61751,5,12,0:0:0:0:
276,163,61912,1,8,0:0:0:0:
276,163,61993,1,8,0:0:0:0:
276,163,62073,1,8,0:0:0:0:
425,351,62235,1,8,0:0:0:0:
349,205,62396,2,0,P|353:171|360:136,1,37.9224992477532,8|8,3:0|3:0,0:0:0:0:
244,296,62557,2,0,P|246:314|248:333,1,37.9224992477532,8|8,3:0|3:0,0:0:0:0:
318,185,62719,2,0,P|322:151|329:116,1,37.9224992477532,0|8,1:0|3:0,0:0:0:0:
213,276,62880,2,0,P|215:294|217:313,1,37.9224992477532,8|8,3:0|3:0,0:0:0:0:
276,163,63041,5,4,1:0:0:0:
338,335,63203,1,0,1:0:0:0:
451,182,63364,2,0,P|462:132|466:74,1,85.6950007191811,8|2,0:0|3:0,0:0:0:0:
389,54,63606,1,0,3:0:0:0:
389,54,63686,2,0,P|329:58|294:82,1,85.6950007191811,2|2,1:0|1:0,0:0:0:0:
229,242,64009,1,8,0:0:0:0:
125,51,64170,6,0,P|86:33|43:34,1,85.6950007191811,2|0,0:0|1:0,0:0:0:0:
128,219,64493,2,0,P|170:219|209:202,1,85.6950007191811,2|8,1:0|0:0,0:0:0:0:
308,49,64815,1,2,3:0:0:0:
308,49,64896,1,0,3:0:0:0:
308,49,64977,2,0,P|301:72|295:115,1,42.8475003595905,0|0,1:0|3:0,0:0:0:0:
244,266,65138,1,2,1:0:0:0:
382,112,65299,2,0,P|391:157|400:219,1,85.6950007191811,10|0,0:0|0:0,0:0:0:0:
300,377,65622,6,0,P|259:361|208:355,1,85.6950007191811,6|0,1:0|1:0,0:0:0:0:
121,214,65944,1,10,0:0:0:0:
278,290,66106,2,0,P|320:283|360:268,1,85.6950007191811,2|0,0:0|1:0,0:0:0:0:
224,125,66428,1,2,1:0:0:0:
163,310,66590,1,8,0:0:0:0:
327,185,66751,6,0,B|425:164|396:239|500:213,1,171.390001438362,2|0,0:0|1:0,0:0:0:0:
269,29,67235,1,10,0:0:0:0:
461,137,67396,1,2,3:0:0:0:
461,137,67477,1,0,3:0:0:0:
461,137,67557,2,0,P|470:109|477:81,1,42.8475003595905,0|0,1:0|3:0,0:0:0:0:
346,54,67719,1,0,1:0:0:0:
360,281,67880,1,10,0:0:0:0:
320,296,67960,1,8,0:0:0:0:
278,290,68041,1,10,0:0:0:0:
245,264,68121,1,8,0:0:0:0:
230,224,68203,6,0,P|193:194|135:184,1,85.6950007191811,4|0,1:0|1:0,0:0:0:0:
236,378,68525,1,8,0:0:0:0:
316,198,68686,1,2,3:0:0:0:
316,198,68767,1,0,3:0:0:0:
316,198,68848,1,2,1:0:0:0:
225,350,69009,1,2,0:0:0:0:
157,155,69170,1,8,0:0:0:0:
329,279,69332,6,0,P|380:270|421:251,1,85.6950007191811,2|0,0:0|1:0,0:0:0:0:
485,79,69654,2,0,P|445:63|402:56,1,85.6950007191811,2|8,1:0|0:0,0:0:0:0:
191,124,69977,1,2,3:0:0:0:
191,124,70058,1,0,3:0:0:0:
191,124,70138,2,0,P|203:148|214:182,1,42.8475003595905,0|0,1:0|3:0,0:0:0:0:
256,37,70299,1,2,1:0:0:0:
134,200,70461,2,0,P|116:249|104:317,1,85.6950007191811,10|0,0:0|0:0,0:0:0:0:
143,350,70703,5,8,0:0:0:0:
143,350,70783,2,0,P|181:330|222:322,1,85.6950007191811,6|0,1:0|1:0,0:0:0:0:
390,258,71106,2,0,P|348:249|311:230,1,85.6950007191811,10|0,0:0|0:0,0:0:0:0:
251,179,71348,1,10,0:0:0:0:
251,179,71428,2,0,P|209:187|171:207,1,85.6950007191811,0|0,1:0|1:0,0:0:0:0:
330,87,71751,1,10,0:0:0:0:
237,275,71912,5,2,0:0:0:0:
237,275,71993,1,8,0:0:0:0:
237,275,72073,2,0,P|245:325|250:371,1,85.6950007191811,0|0,1:0|1:0,0:0:0:0:
410,180,72396,2,0,P|415:137|421:95,1,85.6950007191811,8|0,0:0|0:0,0:0:0:0:
221,25,72719,1,8,0:0:0:0:
221,25,72799,1,8,0:0:0:0:
221,25,72880,2,0,P|225:49|231:82,1,42.8475003595905,0|0,1:0|1:0,0:0:0:0:
132,273,73041,1,8,0:0:0:0:
198,133,73203,1,2,0:0:0:0:
350,356,73364,6,0,P|358:298|369:248,1,95.5450022597466,14|0,0:0|1:0,0:0:0:0:
263,72,73686,1,2,1:0:0:0:
174,310,73848,2,0,P|166:252|155:202,1,95.5450022597466,10|0,0:0|1:0,0:0:0:0:
290,42,74170,1,2,1:0:0:0:
386,277,74332,1,10,0:0:0:0:
165,130,74493,6,0,P|114:143|78:178,1,95.5450022597466,8|2,0:0|1:0,0:0:0:0:
57,253,74735,1,0,1:0:0:0:
57,253,74815,1,8,0:0:0:0:
280,109,74977,2,0,P|263:184|246:292,1,143.31750338962,10|0,0:0|0:0,0:0:0:0:
277,323,75299,2,0,P|287:347|294:376,1,47.7725011298733,8|8,0:0|0:0,0:0:0:0:
430,224,75461,2,0,P|420:245|414:269,1,47.7725011298733,10|8,0:0|0:0,0:0:0:0:
242,111,75622,1,0,1:0:0:0:
266,70,75702,1,8,0:0:0:0:
308,49,75783,1,8,0:0:0:0:
355,52,75863,1,8,0:0:0:0:
394,82,75944,6,0,P|380:121|365:187,1,95.5450022597466,6|0,1:0|1:0,0:0:0:0:
437,384,76267,1,8,0:0:0:0:
260,199,76428,1,0,3:0:0:0:
260,199,76509,1,8,0:0:0:0:
260,199,76590,2,0,P|211:200|169:224,1,95.5450022597466,2|0,1:0|1:0,0:0:0:0:
402,304,76912,1,8,0:0:0:0:
348,111,77073,1,0,0:0:0:0:
254,371,77235,6,0,P|245:324|232:277,1,95.5450022597466,2|0,1:0|1:0,0:0:0:0:
129,74,77557,2,0,P|120:120|107:167,1,95.5450022597466,10|0,0:0|3:0,0:0:0:0:
66,234,77799,1,8,0:0:0:0:
66,234,77880,2,0,P|122:204|171:204,1,95.5450022597466,2|0,1:0|1:0,0:0:0:0:
373,348,78203,1,10,0:0:0:0:
250,147,78364,5,8,0:0:0:0:
250,147,78444,1,8,0:0:0:0:
250,147,78525,2,0,P|240:193|229:258,1,95.5450022597466,6|0,1:0|1:0,0:0:0:0:
431,78,78848,1,8,0:0:0:0:
386,307,79009,1,2,0:0:0:0:
278,66,79170,2,0,P|215:66|181:84,1,95.5450022597466,2|0,1:0|1:0,0:0:0:0:
101,328,79493,1,8,0:0:0:0:
250,147,79654,5,2,3:0:0:0:
250,147,79735,1,8,0:0:0:0:
250,147,79815,1,2,1:0:0:0:
309,383,79977,1,2,1:0:0:0:
136,222,80138,2,0,P|123:168|120:106,1,95.5450022597466,10|0,0:0|0:0,0:0:0:0:
365,168,80461,1,8,0:0:0:0:
340,208,80541,1,8,0:0:0:0:
298,228,80622,1,8,0:0:0:0:
252,224,80702,1,8,0:0:0:0:
215,195,80783,2,0,P|207:165|205:137,1,47.7725011298733,10|8,3:0|3:0,0:0:0:0:
361,10,80944,2,0,P|358:33|351:56,1,47.7725011298733,8|8,3:0|3:0,0:0:0:0:
184,186,81106,6,0,P|171:135|168:87,1,95.5450022597466,6|0,1:0|1:0,0:0:0:0:
307,304,81428,1,10,0:0:0:0:
421,98,81590,1,2,3:0:0:0:
421,98,81670,1,8,0:0:0:0:
421,98,81751,2,0,P|472:73|518:70,1,95.5450022597466,2|0,1:0|1:0,0:0:0:0:
469,313,82073,2,0,P|418:338|372:341,1,95.5450022597466,10|0,0:0|3:0,0:0:0:0:
307,304,82315,5,8,0:0:0:0:
307,304,82396,2,0,P|300:252|286:195,1,95.5450022597466,6|0,1:0|1:0,0:0:0:0:
132,58,82719,2,0,P|121:104|115:151,1,95.5450022597466,10|0,0:0|3:0,0:0:0:0:
130,235,82961,1,8,0:0:0:0:
130,235,83041,1,2,1:0:0:0:
31,12,83203,1,0,1:0:0:0:
290,126,83364,6,0,P|345:122|396:106,1,95.5450022597466,10|8,0:0|0:0,0:0:0:0:
447,56,83606,1,8,0:0:0:0:
447,56,83686,2,0,P|431:102|416:174,1,95.5450022597466,6|0,1:0|1:0,0:0:0:0:
461,379,84009,1,8,0:0:0:0:
314,156,84170,1,2,3:0:0:0:
314,156,84251,1,8,0:0:0:0:
314,156,84331,2,0,P|330:202|345:274,1,95.5450022597466,2|0,1:0|1:0,0:0:0:0:
410,43,84654,1,8,0:0:0:0:
369,263,84815,1,2,0:0:0:0:
253,20,84977,6,0,P|224:11|193:12,1,47.7725011298733,10|8,0:0|3:0,0:0:0:0:
102,186,85138,2,0,P|125:184|148:176,1,47.7725011298733,8|8,3:0|3:0,0:0:0:0:
333,29,85299,1,8,0:0:0:0:
333,29,86267,5,14,0:0:0:0:
419,356,86428,1,0,1:0:0:0:
62,111,86590,5,8,0:0:0:0:
399,258,86751,1,0,1:0:0:0:
1,347,86912,5,10,0:0:0:0:
360,267,87073,1,0,1:0:0:0:
21,89,87235,5,8,0:0:0:0:
289,347,87396,1,2,1:0:0:0:
289,347,87477,1,0,1:0:0:0:
289,347,87557,6,0,P|344:373|417:359,1,105.3949967836,14|2,0:0|1:0,0:0:0:0:
496,18,87880,5,10,0:0:0:0:
461,316,88041,1,2,1:0:0:0:
281,23,88203,5,10,0:0:0:0:
474,233,88364,1,0,1:0:0:0:
150,297,88525,5,10,0:0:0:0:
347,84,88686,1,0,1:0:0:0:
347,84,88767,1,0,1:0:0:0:
347,84,88848,6,0,P|335:144|330:199,1,105.3949967836,14|0,0:0|1:0,0:0:0:0:
87,25,89170,5,8,0:0:0:0:
118,324,89332,1,0,1:0:0:0:
254,9,89493,5,10,0:0:0:0:
111,282,89654,1,0,1:0:0:0:
471,192,89815,5,8,0:0:0:0:
175,49,89977,1,2,1:0:0:0:
175,49,90057,1,0,1:0:0:0:
175,49,90138,6,0,P|160:102|148:174,1,105.3949967836,14|2,0:0|1:0,0:0:0:0:
375,376,90461,5,10,0:0:0:0:
130,237,90622,1,0,1:0:0:0:
450,105,90783,5,8,0:0:0:0:
271,317,90944,1,0,1:0:0:0:
156,28,91106,2,0,P|101:14|39:20,1,105.3949967836,10|0,0:0|1:0,0:0:0:0:
24,94,91348,5,0,1:0:0:0:
24,94,91428,2,0,P|44:149|55:206,1,105.3949967836,14|0,0:0|0:0,0:0:0:0:
234,341,91751,2,0,P|240:304|249:272,1,52.6974983918,10|8,0:0|0:0,0:0:0:0:
378,145,91912,2,0,P|382:170|388:196,1,52.6974983918,10|8,0:0|0:0,0:0:0:0:
205,354,92073,6,0,P|218:279|235:213,1,105.3949967836,6|0,1:0|0:0,0:0:0:0:
365,50,92396,1,10,0:0:0:0:
416,55,92476,1,8,0:0:0:0:
457,87,92557,1,8,0:0:0:0:
476,136,92637,1,8,0:0:0:0:
467,187,92719,6,0,P|450:237|437:299,1,105.3949967836,6|0,1:0|0:0,0:0:0:0:
233,119,93041,1,10,0:0:0:0:
182,124,93121,1,8,0:0:0:0:
141,156,93202,1,8,0:0:0:0:
122,205,93282,1,8,0:0:0:0:
131,256,93364,6,0,P|148:306|161:368,1,105.3949967836,6|0,1:0|0:0,0:0:0:0:
333,75,93686,1,10,0:0:0:0:
384,80,93766,1,8,0:0:0:0:
425,112,93847,1,8,0:0:0:0:
444,161,93927,1,8,0:0:0:0:
435,212,94009,6,0,P|418:262|405:324,1,105.3949967836,6|0,1:0|0:0,0:0:0:0:
233,119,94332,1,0,1:0:0:0:
233,119,94412,1,8,0:0:0:0:
233,119,94493,2,0,P|200:106|160:99,1,52.6974983918,10|8,0:0|0:0,0:0:0:0:
350,278,94654,1,2,1:0:0:0:
394,253,94734,1,8,0:0:0:0:
419,207,94815,1,8,0:0:0:0:
416,154,94895,1,8,0:0:0:0:
387,111,94977,2,0,P|361:99|324:92,1,52.6974983918,0|8,1:0|0:0,0:0:0:0:
219,273,95138,2,0,P|244:266|268:255,1,52.6974983918,10|8,0:0|0:0,0:0:0:0:
218,72,95299,6,0,P|194:60|168:53,1,52.6974983918,2|8,1:0|0:0,0:0:0:0:
78,224,95461,2,0,P|103:216|127:205,1,52.6974983918,10|8,0:0|0:0,0:0:0:0:
211,47,95622,2,0,P|187:35|161:28,1,52.6974983918,10|8,0:0|0:0,0:0:0:0:
71,199,95784,2,0,P|96:191|120:180,1,52.6974983918,10|8,0:0|0:0,0:0:0:0:
309,80,95944,5,10,3:0:0:0:
302,113,96024,1,8,3:0:0:0:
295,146,96106,1,8,3:0:0:0:
288,179,96185,1,8,3:0:0:0:
281,212,96266,5,2,1:0:0:0:
288,244,96348,1,8,3:0:0:0:
294,277,96429,1,8,3:0:0:0:
301,310,96509,1,8,3:0:0:0:
308,344,96590,6,0,P|251:353|194:307,1,105.3949967836,6|0,1:0|1:0,0:0:0:0:
109,72,96912,1,10,0:0:0:0:
65,321,97073,1,2,3:0:0:0:
65,321,97154,1,8,0:0:0:0:
65,321,97235,2,0,P|80:257|97:195,1,105.3949967836,2|0,1:0|1:0,0:0:0:0:
276,10,97557,2,0,P|291:73|308:136,1,105.3949967836,10|0,0:0|0:0,0:0:0:0:
486,336,97880,6,0,P|409:288|298:259,1,172.867500659437,6|0,1:0|0:0,0:0:0:0:
240,273,98203,2,0,P|322:246|394:200,1,172.867500659437,6|0,1:0|0:0,0:0:0:0:
447,119,98525,2,0,P|400:191|374:273,1,172.867500659437,6|0,1:0|0:0,0:0:0:0:
371,367,98848,2,0,P|344:284|298:212,1,172.867500659437,6|0,1:0|0:0,0:0:0:0:
207,138,99170,1,6,1:0:0:0:
207,138,99493,5,8,0:0:0:0:
373,273,99654,1,10,0:0:0:0:
124,321,99815,1,10,0:0:0:0:
313,151,99977,1,8,0:0:0:0:
41,102,100138,1,8,0:0:0:0:
206,305,100299,1,8,0:0:0:0:
314,24,100461,1,8,0:0:0:0:
147,234,100622,1,8,0:0:0:0:
465,167,100783,1,8,0:0:0:0:
131,66,100944,1,8,0:0:0:0:
322,382,101106,1,8,0:0:0:0:
386,63,101267,1,8,0:0:0:0:
195,384,101428,1,8,0:0:0:0:
125,36,101590,1,10,0:0:0:0:
369,319,101751,6,0,P|434:327|493:295,1,115.245000439625,14|0,0:0|1:0,0:0:0:0:
302,50,102073,1,2,1:0:0:0:
68,290,102235,2,0,P|64:225|51:163,1,115.245000439625,10|0,0:0|1:0,0:0:0:0:
326,78,102557,1,2,1:0:0:0:
137,352,102719,2,0,P|85:378|-5:362,1,115.245000439625,10|0,0:0|1:0,0:0:0:0:
202,116,103041,5,2,1:0:0:0:
390,372,103203,2,0,P|447:372|497:347,1,115.245000439625,8|2,0:0|1:0,0:0:0:0:
346,110,103525,1,2,1:0:0:0:
220,315,103686,2,0,P|212:277|207:233,1,57.6225002198124,8|8,0:0|3:0,0:0:0:0:
114,125,103848,2,0,P|109:153|103:181,1,57.6225002198124,10|8,3:0|3:0,0:0:0:0:
273,8,104009,2,0,P|335:-11|403:22,1,113.767497743259,10|0,0:0|0:0,0:0:0:0:
444,48,104332,6,0,P|431:98|422:164,1,95.5450022597466,14|0,0:0|1:0,0:0:0:0:
290,358,104654,1,10,0:0:0:0:
445,217,104815,1,2,1:0:0:0:
243,52,104977,2,0,P|196:36|127:53,1,95.5450022597466,10|0,0:0|1:0,0:0:0:0:
46,282,105299,1,10,0:0:0:0:
243,90,105461,6,0,P|252:134|261:194,1,95.5450022597466,10|0,0:0|1:0,0:0:0:0:
46,31,105783,1,10,0:0:0:0:
187,256,105944,2,0,P|227:281|297:276,1,95.5450022597466,10|0,0:0|1:0,0:0:0:0:
344,243,106186,1,0,1:0:0:0:
344,243,106267,1,10,0:0:0:0:
151,42,106428,1,0,1:0:0:0:
151,42,106509,1,0,1:0:0:0:
151,42,106590,2,0,P|164:86|173:144,1,95.5450022597466,10|0,0:0|1:0,0:0:0:0:
119,197,106831,5,0,1:0:0:0:
119,197,106912,2,0,P|106:241|97:299,1,95.5450022597466,14|0,0:0|1:0,0:0:0:0:
320,115,107235,1,10,0:0:0:0:
92,177,107396,1,2,1:0:0:0:
353,132,107557,2,0,P|366:176|375:234,1,95.5450022597466,10|0,0:0|1:0,0:0:0:0:
185,23,107880,1,10,0:0:0:0:
45,248,108041,6,0,P|36:292|31:351,1,95.5450022597466,10|0,0:0|1:0,0:0:0:0:
142,96,108364,1,10,0:0:0:0:
271,335,108525,2,0,P|316:361|382:346,1,95.5450022597466,10|0,0:0|1:0,0:0:0:0:
419,309,108767,1,0,1:0:0:0:
419,309,108848,1,10,0:0:0:0:
266,110,109009,1,0,1:0:0:0:
266,110,109090,1,0,1:0:0:0:
266,110,109170,2,0,P|226:85|179:86,1,95.5450022597466,10|0,0:0|1:0,0:0:0:0:
119,136,109412,5,0,1:0:0:0:
119,136,109493,2,0,P|141:180|152:244,1,95.5450022597466,14|0,0:0|1:0,0:0:0:0:
355,384,109815,1,10,0:0:0:0:
373,143,109977,1,2,1:0:0:0:
190,339,110138,2,0,P|132:342|82:319,1,95.5450022597466,10|0,0:0|1:0,0:0:0:0:
23,76,110461,1,10,0:0:0:0:
248,257,110622,6,0,P|258:206|268:158,1,95.5450022597466,10|0,0:0|1:0,0:0:0:0:
61,2,110944,1,10,0:0:0:0:
324,54,111106,2,0,P|335:100|343:147,1,95.5450022597466,10|0,0:0|1:0,0:0:0:0:
350,227,111348,1,0,1:0:0:0:
350,227,111428,1,10,0:0:0:0:
110,74,111590,1,2,1:0:0:0:
110,74,111670,1,0,1:0:0:0:
110,74,111751,1,10,0:0:0:0:
407,33,111912,6,0,P|396:79|388:126,1,95.5450022597466,10|0,0:0|1:0,0:0:0:0:
375,351,112235,1,10,0:0:0:0:
233,119,112397,2,0,P|193:94|128:87,1,95.5450022597466,10|0,0:0|1:0,0:0:0:0:
76,123,112639,1,0,1:0:0:0:
76,123,112720,1,10,0:0:0:0:
268,325,112881,2,0,P|314:316|355:291,1,95.5450022597466,10|0,0:0|1:0,0:0:0:0:
393,224,113123,1,0,1:0:0:0:
393,224,113204,1,10,0:0:0:0:
214,25,113365,6,0,P|227:82|237:162,1,95.5450022597466,10|0,0:0|1:0,0:0:0:0:
210,194,113607,1,0,1:0:0:0:
210,194,113687,1,10,0:0:0:0:
437,4,113849,2,0,P|424:61|414:141,1,95.5450022597466,10|0,0:0|1:0,0:0:0:0:
220,369,114171,1,10,0:0:0:0:
322,74,114333,1,10,0:0:0:0:
423,384,114493,1,14,0:0:0:0:
