osu file format v14

[General]
AudioFilename: audio.mp3
AudioLeadIn: 0
PreviewTime: 137761
Countdown: 0
SampleSet: Soft
StackLeniency: 0.4
Mode: 0
LetterboxInBreaks: 0
WidescreenStoryboard: 1

[Editor]
Bookmarks: 86269,148205,184334,221753
DistanceSpacing: 0.7
BeatDivisor: 4
GridSize: 32
TimelineZoom: 1.7

[Metadata]
Title:ReI
TitleUnicode:ReI
Artist:THE ORAL CIGARETTES
ArtistUnicode:THE ORAL CIGARETTES
Creator:Nevo
Version:toybot & Sajinn's Expert
Source:
Tags:toc rel turquoisee Shirahane Suou torriru toybot sajinn dog food uniform japanese rock
BeatmapID:3104529
BeatmapSetID:1465638

[Difficulty]
HPDrainRate:5.5
CircleSize:4
OverallDifficulty:8.2
ApproachRate:9
SliderMultiplier:1.82
SliderTickRate:1

[Events]
//Background and Video events
0,0,"EFTybRXUYAAax8P_opt.jpg",0,0
//Break Periods
//Storyboard Layer 0 (Background)
//Storyboard Layer 1 (Fail)
//Storyboard Layer 2 (Pass)
//Storyboard Layer 3 (Foreground)
//Storyboard Layer 4 (Overlay)
//Storyboard Sound Samples

[TimingPoints]
32076,322.58064516129,4,2,1,80,1,0
42398,-121.951219512195,4,2,1,70,0,0
42882,-121.951219512195,4,2,1,80,0,0
43043,-121.951219512195,4,2,1,70,0,0
43527,-121.951219512195,4,2,1,80,0,0
43688,-121.951219512195,4,2,1,70,0,0
44172,-121.951219512195,4,2,1,80,0,0
44334,-121.951219512195,4,2,1,70,0,0
45220,-121.951219512195,4,2,1,80,0,0
45301,-121.951219512195,4,2,1,70,0,0
46753,-121.951219512195,4,2,1,80,0,0
46914,-121.951219512195,4,2,1,70,0,0
48688,-121.951219512195,4,2,1,80,0,0
48850,-121.951219512195,4,2,1,70,0,0
49334,-121.951219512195,4,2,1,80,0,0
49495,-121.951219512195,4,2,1,70,0,0
49978,-121.951219512195,4,2,1,80,0,0
50140,-121.951219512195,4,2,1,70,0,0
51269,-121.951219512195,4,2,1,80,0,0
51430,-121.951219512195,4,2,1,70,0,0
52237,-121.951219512195,4,2,1,80,0,0
52398,-121.951219512195,4,2,1,70,0,0
53205,-121.951219512195,4,2,1,80,0,0
53366,-121.951219512195,4,2,1,70,0,0
53849,-121.951219512195,4,2,1,80,0,0
54011,-121.951219512195,4,2,1,70,0,0
54495,-121.951219512195,4,2,1,80,0,0
54656,-121.951219512195,4,2,1,70,0,0
55542,-121.951219512195,4,2,1,80,0,0
55624,-121.951219512195,4,2,1,70,0,0
57075,-121.951219512195,4,2,1,80,0,0
57237,-121.951219512195,4,2,1,70,0,0
58366,-121.951219512195,4,2,1,80,0,0
58527,-121.951219512195,4,2,1,70,0,0
60381,-121.951219512195,4,2,1,80,0,0
60463,-121.951219512195,4,2,1,70,0,0
61430,-312.499999999999,4,2,1,70,0,0
61671,-312.499999999999,4,2,1,80,0,0
61753,-121.951219512195,4,2,1,70,0,0
63043,-138.888888888889,4,2,1,75,0,0
65059,-138.888888888889,4,2,1,80,0,0
65140,-138.888888888889,4,2,1,75,0,0
65462,-138.888888888889,4,2,1,80,0,0
65624,-138.888888888889,4,2,1,75,0,0
67639,-138.888888888889,4,2,1,80,0,0
67721,-138.888888888889,4,2,1,75,0,0
70220,-138.888888888889,4,2,1,80,0,0
70301,-138.888888888889,4,2,1,75,0,0
70785,-108.695652173913,4,2,1,75,0,0
71026,-108.695652173913,4,2,1,80,0,0
71108,-108.695652173913,4,2,1,75,0,0
75946,-89.2857142857143,4,2,1,90,0,0
77075,-89.2857142857143,4,2,1,80,0,0
77237,-89.2857142857143,4,2,1,90,0,0
79011,-89.2857142857143,4,2,1,80,0,0
79172,-89.2857142857143,4,2,1,90,0,0
79656,-89.2857142857143,4,2,1,80,0,0
79737,-89.2857142857143,4,2,1,90,0,0
80301,-89.2857142857143,4,2,1,80,0,0
80463,-89.2857142857143,4,2,1,90,0,0
81108,-75.7575757575758,4,2,1,90,0,0
81349,-75.7575757575758,4,2,1,80,0,0
81430,-238.095238095238,4,2,1,90,0,0
81753,-75.7575757575758,4,2,1,90,0,0
81994,-75.7575757575758,4,2,1,80,0,0
82075,-238.095238095238,4,2,1,90,0,0
82398,-75.7575757575758,4,2,1,90,0,0
82639,-75.7575757575758,4,2,1,80,0,0
82720,-238.095238095238,4,2,1,90,0,0
83688,-89.2857142857143,4,2,1,90,0,0
85462,-89.2857142857143,4,2,1,80,0,0
85624,-89.2857142857143,4,2,1,90,0,0
87398,-89.2857142857143,4,2,1,80,0,0
87559,-89.2857142857143,4,2,1,90,0,0
88043,-89.2857142857143,4,2,1,80,0,0
88124,-89.2857142857143,4,2,1,90,0,0
88608,-89.2857142857143,4,2,1,80,0,0
88688,-89.2857142857143,4,2,1,90,0,0
89334,-89.2857142857143,4,2,1,80,0,0
89414,-89.2857142857143,4,2,1,90,0,0
89979,-89.2857142857143,4,2,1,80,0,0
90140,-89.2857142857143,4,2,1,90,0,0
91026,-89.2857142857143,4,2,1,80,0,0
91108,-89.2857142857143,4,2,1,90,0,0
91430,-138.888888888889,4,2,1,90,0,0
91671,-138.888888888889,4,2,1,80,0,0
91753,-138.888888888889,4,2,1,90,0,0
92316,-138.888888888889,4,2,1,80,0,0
92398,-138.888888888889,4,2,1,90,0,0
92801,-138.888888888889,4,2,1,80,0,0
93043,-138.888888888889,4,2,1,90,0,0
94011,-81.9672131147541,4,2,1,90,0,0
94495,-81.9672131147541,4,2,1,80,0,0
94576,-81.9672131147541,4,2,1,90,0,0
94979,-70.4225352112676,4,2,1,90,0,0
95220,-70.4225352112676,4,2,1,80,0,0
95301,-70.4225352112676,4,2,1,90,0,0
95624,-121.951219512195,4,2,1,90,0,0
96592,-89.2857142857143,4,2,1,80,0,0
106914,-121.951219512195,4,2,1,70,0,0
107398,-121.951219512195,4,2,1,80,0,0
107559,-121.951219512195,4,2,1,70,0,0
107720,-121.951219512195,4,2,1,80,0,0
107882,-121.951219512195,4,2,1,70,0,0
108043,-121.951219512195,4,2,1,80,0,0
108205,-121.951219512195,4,2,1,70,0,0
109979,-121.951219512195,4,2,1,80,0,0
110140,-121.951219512195,4,2,1,70,0,0
110946,-121.951219512195,4,2,1,80,0,0
111108,-121.951219512195,4,2,1,70,0,0
111269,-121.951219512195,4,2,1,80,0,0
111430,-121.951219512195,4,2,1,70,0,0
112559,-121.951219512195,4,2,1,80,0,0
112721,-121.951219512195,4,2,1,70,0,0
112882,-121.951219512195,4,2,1,80,0,0
113043,-121.951219512195,4,2,1,70,0,0
113204,-121.951219512195,4,2,1,80,0,0
113366,-121.951219512195,4,2,1,70,0,0
113527,-121.951219512195,4,2,1,80,0,0
113688,-121.951219512195,4,2,1,70,0,0
113849,-121.951219512195,4,2,1,80,0,0
114011,-121.951219512195,4,2,1,70,0,0
115463,-121.951219512195,4,2,1,80,0,0
115624,-121.951219512195,4,2,1,70,0,0
116592,-238.095238095238,4,2,1,70,0,0
117237,-108.695652173913,4,2,1,75,0,0
117721,-108.695652173913,4,2,1,80,0,0
117882,-108.695652173913,4,2,1,75,0,0
117962,-108.695652173913,4,2,1,80,0,0
118205,-108.695652173913,4,2,1,75,0,0
118446,-108.695652173913,4,2,1,80,0,0
118527,-108.695652173913,4,2,1,75,0,0
118688,-108.695652173913,4,2,1,80,0,0
118850,-108.695652173913,4,2,1,75,0,0
119253,-108.695652173913,4,2,1,80,0,0
119495,-108.695652173913,4,2,1,75,0,0
119736,-108.695652173913,4,2,1,80,0,0
119817,-108.695652173913,4,2,1,75,0,0
120301,-108.695652173913,4,2,1,80,0,0
120462,-108.695652173913,4,2,1,75,0,0
120543,-108.695652173913,4,2,1,80,0,0
120785,-108.695652173913,4,2,1,75,0,0
121269,-108.695652173913,4,2,1,80,0,0
121430,-108.695652173913,4,2,1,75,0,0
121591,-108.695652173913,4,2,1,80,0,0
121753,-108.695652173913,4,2,1,75,0,0
121833,-108.695652173913,4,2,1,80,0,0
122075,-108.695652173913,4,2,1,75,0,0
122236,-108.695652173913,4,2,1,80,0,0
122398,-108.695652173913,4,2,1,75,0,0
123123,-108.695652173913,4,2,1,80,0,0
123366,-108.695652173913,4,2,1,75,0,0
123929,-108.695652173913,4,2,1,80,0,0
124011,-108.695652173913,4,2,1,75,0,0
124252,-108.695652173913,4,2,1,80,0,0
124333,-108.695652173913,4,2,1,75,0,0
124897,-108.695652173913,4,2,1,80,0,0
124979,-108.695652173913,4,2,1,75,0,0
125785,-108.695652173913,4,2,1,80,0,0
125946,-108.695652173913,4,2,1,75,0,0
126269,-89.2857142857143,4,2,1,75,0,0
126510,-89.2857142857143,4,2,1,80,0,0
126592,-89.2857142857143,4,2,1,75,0,0
126914,-121.951219512195,4,2,1,75,0,0
127559,-108.695652173913,4,2,1,80,0,0
129334,-89.2857142857143,4,2,1,80,0,0
130140,-108.695652173913,4,2,1,80,0,0
131914,-89.2857142857143,4,2,1,80,0,0
132398,-108.695652173913,4,2,1,80,0,0
134495,-89.2857142857143,4,2,1,80,0,0
136269,-192.307692307692,4,2,1,80,0,0
136430,-70.4225352112676,4,2,1,80,0,0
136753,-89.2857142857143,4,2,1,80,0,0
136914,-81.9672131147541,4,2,1,80,0,0
137075,-75.7575757575758,4,2,1,80,0,0
137882,-89.2857142857143,4,2,1,90,0,0
139011,-89.2857142857143,4,2,1,80,0,0
139172,-89.2857142857143,4,2,1,90,0,0
140704,-89.2857142857143,4,2,1,80,0,0
140785,-89.2857142857143,4,2,1,90,0,0
140946,-89.2857142857143,4,2,1,80,0,0
141108,-89.2857142857143,4,2,1,90,0,0
141349,-89.2857142857143,4,2,1,80,0,0
141430,-89.2857142857143,4,2,1,90,0,0
141592,-89.2857142857143,4,2,1,80,0,0
141672,-89.2857142857143,4,2,1,90,0,0
142316,-89.2857142857143,4,2,1,80,0,0
142398,-89.2857142857143,4,2,1,90,0,0
143043,-75.7575757575758,4,2,1,90,0,0
143284,-75.7575757575758,4,2,1,80,0,0
143366,-238.095238095238,4,2,1,90,0,0
143688,-75.7575757575758,4,2,1,90,0,0
143929,-75.7575757575758,4,2,1,80,0,0
144011,-238.095238095238,4,2,1,90,0,0
144334,-75.7575757575758,4,2,1,90,0,0
144575,-75.7575757575758,4,2,1,80,0,0
144656,-238.095238095238,4,2,1,90,0,0
145382,-238.095238095238,4,2,1,80,0,0
145463,-238.095238095238,4,2,1,90,0,0
145624,-81.9672131147541,4,2,1,90,0,0
145865,-81.9672131147541,4,2,1,80,0,0
145946,-81.9672131147541,4,2,1,90,0,0
146269,-89.2857142857143,4,2,1,90,0,0
147155,-89.2857142857143,4,2,1,80,0,0
147237,-75.7575757575758,4,2,1,90,0,0
147478,-75.7575757575758,4,2,1,80,0,0
147559,-75.7575757575758,4,2,1,90,0,0
148205,-89.2857142857143,4,2,1,90,0,0
149334,-89.2857142857143,4,2,1,80,0,0
149495,-89.2857142857143,4,2,1,90,0,0
150543,-89.2857142857143,4,2,1,80,0,0
150624,-89.2857142857143,4,2,1,90,0,0
151269,-89.2857142857143,4,2,1,80,0,0
151350,-89.2857142857143,4,2,1,90,0,0
151914,-89.2857142857143,4,2,1,80,0,0
152075,-89.2857142857143,4,2,1,90,0,0
152962,-89.2857142857143,4,2,1,80,0,0
153043,-89.2857142857143,4,2,1,90,0,0
153366,-138.888888888889,4,2,1,90,0,0
153607,-138.888888888889,4,2,1,80,0,0
153688,-138.888888888889,4,2,1,90,0,0
154252,-138.888888888889,4,2,1,80,0,0
154334,-138.888888888889,4,2,1,90,0,0
154736,-138.888888888889,4,2,1,80,0,0
154979,-138.888888888889,4,2,1,90,0,0
155946,-89.2857142857143,4,2,1,90,0,0
156430,-89.2857142857143,4,2,1,80,0,0
156511,-89.2857142857143,4,2,1,90,0,0
157075,-89.2857142857143,4,2,1,80,0,0
157156,-89.2857142857143,4,2,1,90,0,0
157721,-89.2857142857143,4,2,1,80,0,0
157882,-89.2857142857143,4,2,1,90,0,0
161108,-75.7575757575758,4,2,1,90,0,0
162075,-192.307692307692,4,2,1,90,0,0
162316,-192.307692307692,4,2,1,80,0,0
162398,-192.307692307692,4,2,1,90,0,0
163688,-161.290322580645,4,2,1,70,0,0
164172,-161.290322580645,4,2,1,80,0,0
164334,-161.290322580645,4,2,1,70,0,0
164575,-161.290322580645,4,2,1,80,0,0
164656,-161.290322580645,4,2,1,70,0,0
165865,-161.290322580645,4,2,1,80,0,0
165946,-161.290322580645,4,2,1,70,0,0
167075,-161.290322580645,4,2,1,80,0,0
167237,-161.290322580645,4,2,1,70,0,0
167800,-161.290322580645,4,2,1,80,0,0
167882,-161.290322580645,4,2,1,70,0,0
168446,-161.290322580645,4,2,1,80,0,0
168527,-161.290322580645,4,2,1,70,0,0
169736,-161.290322580645,4,2,1,80,0,0
169817,-161.290322580645,4,2,1,70,0,0
171026,-161.290322580645,4,2,1,80,0,0
171108,-161.290322580645,4,2,1,70,0,0
172316,-161.290322580645,4,2,1,80,0,0
172398,-161.290322580645,4,2,1,70,0,0
173527,-161.290322580645,4,2,1,80,0,0
173688,-161.290322580645,4,2,1,70,0,0
174897,-161.290322580645,4,2,1,80,0,0
174979,-161.290322580645,4,2,1,70,0,0
176108,-161.290322580645,4,2,1,80,0,0
176269,-161.290322580645,4,2,1,70,0,0
177478,-161.290322580645,4,2,1,80,0,0
177559,-161.290322580645,4,2,1,70,0,0
178768,-161.290322580645,4,2,1,80,0,0
178850,-161.290322580645,4,2,1,70,0,0
180058,-161.290322580645,4,2,1,80,0,0
180140,-161.290322580645,4,2,1,70,0,0
181430,-238.095238095238,4,2,1,70,0,0
182075,-192.307692307692,4,2,1,75,0,0
182316,-192.307692307692,4,2,1,80,0,0
182398,-138.888888888889,4,2,1,75,0,0
182639,-138.888888888889,4,2,1,80,0,0
182721,-108.695652173913,4,2,1,75,0,0
182962,-108.695652173913,4,2,1,80,0,0
183043,-89.2857142857143,4,2,1,75,0,0
183284,-89.2857142857143,4,2,1,80,0,0
183366,-454.545454545455,4,2,1,75,0,0
183607,-454.545454545455,4,2,1,80,0,0
183688,-454.545454545455,4,2,1,75,0,0
184334,-108.695652173913,4,2,1,75,0,0
188043,-161.290322580645,4,2,1,75,0,0
189495,-108.695652173913,4,2,1,75,0,0
190705,-108.695652173913,4,2,1,80,0,0
190785,-108.695652173913,4,2,1,75,0,0
191671,-108.695652173913,4,2,1,80,0,0
191753,-108.695652173913,4,2,1,75,0,0
193205,-161.290322580645,4,2,1,75,0,0
194172,-161.290322580645,4,2,1,80,0,0
194334,-161.290322580645,4,2,1,75,0,0
194656,-108.695652173913,4,2,1,75,0,0
200058,-108.695652173913,4,2,1,80,0,0
200140,-108.695652173913,4,2,1,75,0,0
200301,-108.695652173913,4,2,1,80,0,0
200463,-108.695652173913,4,2,1,75,0,0
200624,-108.695652173913,4,2,1,80,0,0
200785,-108.695652173913,4,2,1,75,0,0
200946,-108.695652173913,4,2,1,80,0,0
201108,-108.695652173913,4,2,1,75,0,0
201269,-108.695652173913,4,2,1,80,0,0
201430,-108.695652173913,4,2,1,75,0,0
202639,-108.695652173913,4,2,1,80,0,0
202721,-108.695652173913,4,2,1,75,0,0
203204,-108.695652173913,4,2,1,80,0,0
203366,-108.695652173913,4,2,1,75,0,0
203527,-108.695652173913,4,2,1,80,0,0
203688,-108.695652173913,4,2,1,75,0,0
203850,-108.695652173913,4,2,1,80,0,0
204011,-108.695652173913,4,2,1,75,0,0
204172,-108.695652173913,4,2,1,80,0,0
204334,-108.695652173913,4,2,1,75,0,0
204495,-108.695652173913,4,2,1,80,0,0
204656,-108.695652173913,4,2,1,75,0,0
204817,-108.695652173913,4,2,1,80,0,0
204979,-108.695652173913,4,2,1,75,0,0
205140,-89.2857142857143,4,2,1,75,0,0
206349,-89.2857142857143,4,2,1,80,0,0
206430,-89.2857142857143,4,2,1,75,0,0
206510,-89.2857142857143,4,2,1,80,0,0
206592,-89.2857142857143,4,2,1,75,0,0
206672,-89.2857142857143,4,2,1,80,0,0
206753,-89.2857142857143,4,2,1,75,0,0
206833,-89.2857142857143,4,2,1,80,0,0
206914,-89.2857142857143,4,2,1,75,0,0
209495,-89.2857142857143,4,2,1,70,0,0
210140,-89.2857142857143,4,2,1,80,0,0
211430,-89.2857142857143,4,2,1,75,0,0
212721,-138.888888888889,4,2,1,75,0,0
213527,-138.888888888889,4,2,1,80,0,0
213688,-138.888888888889,4,2,1,75,0,0
213849,-138.888888888889,4,2,1,80,0,0
214011,-138.888888888889,4,2,1,75,0,0
215463,-138.888888888889,4,2,1,80,0,0
215624,-138.888888888889,4,2,1,75,0,0
216430,-138.888888888889,4,2,1,80,0,0
216592,-89.2857142857143,4,2,1,75,0,0
216833,-89.2857142857143,4,2,1,80,0,0
216914,-89.2857142857143,4,2,1,75,0,0
218123,-89.2857142857143,4,2,1,80,0,0
218205,-89.2857142857143,4,2,1,75,0,0
221753,-75.7575757575758,4,2,1,90,0,0
221994,-75.7575757575758,4,2,1,80,0,0
222075,-75.7575757575758,4,2,1,90,0,0
223284,-75.7575757575758,4,2,1,80,0,0
223366,-75.7575757575758,4,2,1,90,0,0
224575,-75.7575757575758,4,2,1,80,0,0
224656,-75.7575757575758,4,2,1,90,0,0
225865,-75.7575757575758,4,2,1,80,0,0
225946,-75.7575757575758,4,2,1,90,0,0
226592,-98.0392156862745,4,2,1,90,0,0
226914,-312.5,4,2,1,90,0,0
227155,-312.5,4,2,1,80,0,0
227237,-89.2857142857143,4,2,1,90,0,0
227559,-312.5,4,2,1,90,0,0
227800,-312.5,4,2,1,80,0,0
227882,-89.2857142857143,4,2,1,90,0,0
228205,-312.5,4,2,1,90,0,0
228446,-312.5,4,2,1,80,0,0
228527,-89.2857142857143,4,2,1,90,0,0
228850,-312.5,4,2,1,90,0,0
229091,-312.5,4,2,1,80,0,0
229172,-312.5,4,2,1,90,0,0
229736,-312.5,4,2,1,80,0,0
229817,-98.0392156862745,4,2,1,90,0,0
231753,-161.290322580645,4,2,1,90,0,0
232075,-75.7575757575758,4,2,1,90,0,0
232316,-75.7575757575758,4,2,1,80,0,0
232398,-89.2857142857143,4,2,1,90,0,0
233043,-312.5,4,2,1,90,0,0
233284,-312.5,4,2,1,80,0,0
233366,-98.0392156862745,4,2,1,90,0,0
233607,-98.0392156862745,4,2,1,80,0,0
233688,-81.9672131147541,4,2,1,90,0,0
233929,-81.9672131147541,4,2,1,80,0,0
234011,-70.4225352112676,4,2,1,90,0,0
234252,-70.4225352112676,4,2,1,80,0,0
234334,-61.7283950617284,4,2,1,90,0,0
234575,-61.7283950617284,4,2,1,80,0,0
234656,-61.7283950617284,4,2,1,90,0,0
237237,-65.7894736842105,4,2,1,90,0,0
237478,-65.7894736842105,4,2,1,80,0,0
237559,-65.7894736842105,4,2,1,90,0,0
237962,-65.7894736842105,4,2,1,80,0,0
238043,-65.7894736842105,4,2,1,90,0,0
238205,-75.7575757575758,4,2,1,90,0,0
238446,-75.7575757575758,4,2,1,80,0,0
238527,-75.7575757575758,4,2,1,90,0,0
239495,-312.5,4,2,1,90,0,0
239736,-312.5,4,2,1,80,0,0
239817,-89.2857142857143,4,2,1,80,0,0

[Colours]
Combo1 : 184,255,113
Combo2 : 149,255,255
Combo3 : 255,132,255
Combo4 : 179,179,255

[HitObjects]
72,97,32075,6,0,P|121:86|187:65,1,91,6|0,3:2|3:2,0:0:0:0:
222,198,32398,2,0,P|266:207|310:220,1,91,8|0,0:2|3:2,0:0:0:0:
449,68,32721,5,8,0:2:0:0:
396,128,32882,1,0,3:2:0:0:
473,315,33043,5,12,0:2:0:0:
512,184,33205,2,0,P|467:193|423:206,1,91,12|2,0:2|3:2,0:0:0:0:
325,318,33527,5,12,0:2:0:0:
212,188,33688,1,12,0:2:0:0:
241,301,33850,5,2,3:2:0:0:
244,306,33930,1,2,3:2:0:0:
247,311,34011,1,8,0:2:0:0:
289,230,34172,1,2,3:2:0:0:
166,342,34334,5,8,0:2:0:0:
130,228,34495,2,0,P|122:253|116:271,1,45.5,2|2,3:2|3:2,0:0:0:0:
0,384,34656,6,0,P|49:373|115:352,1,91,6|0,3:2|3:2,0:0:0:0:
36,189,34979,2,0,P|79:201|124:211,1,91,8|0,0:2|3:2,0:0:0:0:
275,384,35301,5,8,0:2:0:0:
325,318,35463,1,0,3:2:0:0:
212,188,35624,5,12,0:2:0:0:
294,48,35785,2,0,B|266:87|266:87|284:138,1,91,12|2,0:2|3:2,0:0:0:0:
433,233,36108,5,12,0:2:0:0:
512,166,36269,2,0,P|469:154|424:144,1,91,12|2,0:2|3:2,0:0:0:0:
408,149,36511,1,2,3:2:0:0:
398,154,36592,5,8,0:2:0:0:
336,225,36753,1,2,3:2:0:0:
483,312,36914,5,8,0:2:0:0:
433,233,37075,1,2,3:2:0:0:
349,373,37237,6,0,B|251:393|282:283|165:312,1,182,12|8,0:2|0:2,0:0:0:0:
2,321,37721,1,0,3:2:0:0:
96,384,37882,2,0,P|84:341|74:296,1,91,8|0,0:2|3:2,0:0:0:0:
151,87,38205,5,12,0:2:0:0:
0,196,38366,2,0,P|43:184|88:174,1,91,12|2,0:2|3:2,0:0:0:0:
247,233,38688,5,12,0:2:0:0:
161,98,38850,1,12,0:2:0:0:
149,220,39011,5,2,3:2:0:0:
148,227,39092,1,2,3:2:0:0:
147,234,39172,1,8,0:2:0:0:
240,152,39334,1,2,3:2:0:0:
366,253,39495,5,8,0:2:0:0:
455,196,39656,1,2,3:2:0:0:
506,357,39817,6,0,B|467:346|453:300|453:300|427:360|363:370,1,182,12|8,0:2|0:2,0:0:0:0:
248,251,40301,1,0,3:2:0:0:
359,137,40463,2,0,P|346:180|336:225,1,91,8|0,0:2|3:2,0:0:0:0:
254,57,40785,5,12,0:2:0:0:
140,162,40946,1,12,0:2:0:0:
140,162,41108,2,0,P|157:153|202:140,1,45.5,2|2,3:2|3:2,0:0:0:0:
367,126,41269,5,14,0:2:0:0:
238,259,41430,1,14,0:2:0:0:
278,349,41592,1,0,3:2:0:0:
408,264,41753,6,0,P|361:249|329:245,1,45.5,10|8,0:2|0:2,0:0:0:0:
262,358,41914,2,0,P|215:373|183:377,1,45.5,8|8,0:2|0:2,0:0:0:0:
124,279,42075,5,2,3:0:0:0:
97,264,42156,5,2,3:0:0:0:
76,279,42237,5,2,3:0:0:0:
61,274,42317,5,2,3:0:0:0:
54,279,42398,6,0,P|21:243|62:152,1,149.240002277222,6|8,3:2|0:2,0:0:0:0:
58,156,42882,1,0,0:0:0:0:
181,85,43043,2,0,P|132:78|93:70,1,74.6200011386109,2|0,3:2|3:2,0:0:0:0:
297,169,43366,2,0,P|260:175|223:180,1,74.6200011386109,8|0,0:2|0:0,0:0:0:0:
319,56,43688,6,0,B|390:52|375:110|473:116,1,149.240002277222,2|8,3:2|0:2,0:0:0:0:
451,244,44172,1,0,0:0:0:0:
381,278,44334,2,0,B|367:240|367:240|392:196,1,74.6200011386109,2|0,3:2|3:2,0:0:0:0:
480,364,44656,1,8,0:2:0:0:
493,382,44979,6,0,P|410:368|374:360,1,111.930001707916,2|0,3:2|0:0,0:0:0:0:
311,319,45301,2,0,P|260:361|181:334,1,149.240002277222,8|0,0:2|3:2,0:0:0:0:
115,203,45785,1,2,3:2:0:0:
184,245,45946,1,10,0:2:0:0:
58,261,46108,1,2,0:0:0:0:
118,182,46269,6,0,B|172:162|172:162|193:132|193:132|255:110,1,149.240002277222,2|8,3:2|0:2,0:0:0:0:
253,115,46753,1,0,0:0:0:0:
406,67,46914,2,0,P|365:60|316:51,1,74.6200011386109,2|0,3:2|3:2,0:0:0:0:
375,226,47237,2,0,P|331:192|354:133,1,111.930001707916,10|2,0:2|0:2,0:0:0:0:
379,244,47559,6,0,B|298:241|320:304|221:307,1,149.240002277222,6|8,3:2|0:2,0:0:0:0:
75,337,48043,1,2,0:0:0:0:
164,373,48205,2,0,P|152:325|141:275,1,74.6200011386109,2|0,3:2|3:2,0:0:0:0:
23,259,48527,2,0,P|35:211|46:161,1,74.6200011386109,8|0,0:2|0:0,0:0:0:0:
51,58,48850,6,0,B|97:51|122:79|122:79|135:126|194:132,1,149.240002277222,2|8,3:2|0:2,0:0:0:0:
181,132,49334,1,0,0:0:0:0:
291,28,49495,2,0,P|251:36|209:40,1,74.6200011386109,2|0,3:2|3:2,0:0:0:0:
364,155,49817,2,0,P|327:147|290:143,1,74.6200011386109,10|0,0:2|0:0,0:0:0:0:
426,75,50140,6,0,P|469:103|463:196,1,149.240002277222,2|8,3:2|0:2,0:0:0:0:
298,238,50624,1,2,0:0:0:0:
364,155,50785,2,0,P|372:191|381:227,1,74.6200011386109,0|0,3:2|3:2,0:0:0:0:
311,358,51108,1,10,0:2:0:0:
386,323,51269,1,0,0:0:0:0:
292,370,51430,6,0,B|213:390|239:299|142:323,1,149.240002277222,2|0,3:2|3:2,0:0:0:0:
28,190,51914,1,8,0:2:0:0:
93,271,52075,1,2,3:2:0:0:
46,328,52237,1,0,0:0:0:0:
89,384,52398,1,2,3:2:0:0:
199,239,52559,1,8,0:2:0:0:
16,178,52721,6,0,P|65:163|166:134,1,149.240002277222,6|8,3:2|0:2,0:0:0:0:
169,139,53205,1,0,0:0:0:0:
267,7,53366,2,0,P|233:30|229:73,1,74.6200011386109,2|0,3:2|3:2,0:0:0:0:
339,172,53688,2,0,P|293:162|262:153,1,74.6200011386109,8|0,0:2|0:0,0:0:0:0:
412,21,54011,6,0,B|381:13|365:-13|365:-13|373:48|323:91,1,149.240002277222,2|8,3:2|0:2,0:0:0:0:
339,172,54495,1,0,0:0:0:0:
480,206,54656,2,0,P|443:213|407:223,1,74.6200011386109,2|0,3:2|3:2,0:0:0:0:
332,340,54979,1,8,0:2:0:0:
326,357,55301,6,0,P|286:321|221:340,1,111.930001707916,2|0,3:2|0:0,0:0:0:0:
170,373,55624,2,0,P|121:358|20:329,1,149.240002277222,8|0,0:2|3:2,0:0:0:0:
184,207,56108,1,2,3:2:0:0:
128,269,56269,1,10,0:2:0:0:
52,244,56430,1,2,0:0:0:0:
57,140,56592,6,0,B|108:157|108:157|131:188|131:188|210:217,1,149.240002277222,2|8,3:2|0:2,0:0:0:0:
253,159,57075,1,0,0:0:0:0:
193,33,57237,2,0,B|177:69|177:69|193:104,1,74.6200011386109,2|0,3:2|3:2,0:0:0:0:
375,61,57559,2,0,P|317:78|274:82,1,74.6200011386109,10|2,0:2|0:2,0:0:0:0:
253,159,57801,1,2,0:2:0:0:
243,172,57882,6,0,P|259:225|282:333,1,149.240002277222,2|8,3:2|0:2,0:0:0:0:
392,367,58366,1,0,0:0:0:0:
469,320,58527,2,0,P|398:327|365:238,1,149.240002277222,2|8,3:2|0:2,0:0:0:0:
447,196,59011,1,2,0:0:0:0:
312,144,59172,6,0,B|385:129|377:204|468:195,1,149.240002277222,2|8,3:2|0:2,0:0:0:0:
510,139,59656,1,2,0:0:0:0:
413,67,59817,1,2,3:2:0:0:
470,20,59979,1,2,3:2:0:0:
395,69,60140,2,0,P|351:60|277:45,1,111.930001707916,10|0,0:2|0:0,0:0:0:0:
235,111,60463,6,0,B|194:104|169:137|169:137|162:186|102:197,1,149.240002277222,2|8,3:2|0:2,0:0:0:0:
14,276,60946,1,2,0:0:0:0:
82,328,61108,1,2,3:2:0:0:
150,304,61269,1,0,3:2:0:0:
373,384,61430,6,0,P|367:361|362:341,1,43.68,14|0,0:2|0:0,0:0:0:0:
298,259,61753,5,8,0:2:0:0:
229,345,61914,1,8,0:2:0:0:
224,352,61995,1,8,0:2:0:0:
219,362,62075,1,8,0:2:0:0:
312,246,62237,1,8,0:2:0:0:
188,157,62398,5,2,3:0:0:0:
156,136,62479,5,2,3:0:0:0:
141,154,62559,5,2,3:0:0:0:
128,147,62640,5,2,3:0:0:0:
116,154,62721,6,0,P|89:166|52:177,1,37.3100005693054,2|2,3:0|3:0,0:0:0:0:
67,76,62882,6,0,P|50:68|32:61,1,37.3100005693054,2|2,3:0|3:0,0:0:0:0:
217,17,63043,5,6,3:2:0:0:
272,166,63205,1,0,3:2:0:0:
324,103,63366,2,0,P|373:95|411:88,1,65.5200015996094,8|0,0:2|3:2,0:0:0:0:
399,87,63608,1,0,3:2:0:0:
405,84,63688,1,2,3:2:0:0:
476,117,63850,1,2,3:2:0:0:
427,211,64011,1,8,0:2:0:0:
512,355,64172,6,0,P|463:347|425:340,1,65.5200015996094,2|0,0:0|3:2,0:0:0:0:
364,253,64495,1,2,3:2:0:0:
427,211,64656,1,8,0:2:0:0:
366,338,64817,1,2,3:2:0:0:
363,344,64898,1,0,3:2:0:0:
358,350,64979,2,0,P|337:344|306:336,1,32.7600007998047,0|0,3:2|0:0,0:0:0:0:
193,313,65140,1,2,3:2:0:0:
267,202,65301,2,0,P|259:241|253:288,1,65.5200015996094,10|0,0:2|0:0,0:0:0:0:
124,337,65624,5,6,3:2:0:0:
48,295,65785,1,0,3:2:0:0:
120,130,65946,5,8,0:2:0:0:
163,192,66108,1,0,3:2:0:0:
116,257,66269,1,0,3:2:0:0:
136,326,66430,1,0,3:2:0:0:
173,182,66592,5,8,0:2:0:0:
255,214,66753,1,2,0:2:0:0:
358,159,66914,5,2,3:2:0:0:
423,130,67075,1,0,3:2:0:0:
499,279,67237,5,10,0:2:0:0:
416,239,67398,1,2,3:2:0:0:
410,237,67479,1,0,3:2:0:0:
403,235,67559,2,0,P|381:254|374:273,1,32.7600007998047,0|0,3:2|0:0,0:0:0:0:
424,351,67721,1,0,3:2:0:0:
282,300,67882,5,8,0:2:0:0:
252,308,67963,1,8,0:2:0:0:
224,316,68043,1,8,0:2:0:0:
201,323,68124,1,8,0:2:0:0:
191,325,68205,5,6,3:2:0:0:
42,188,68366,1,0,3:2:0:0:
98,239,68527,2,0,P|139:230|182:218,1,65.5200015996094,8|2,0:2|3:2,0:0:0:0:
170,225,68769,1,0,3:2:0:0:
176,229,68850,1,2,3:2:0:0:
224,165,69011,1,2,3:2:0:0:
323,231,69172,1,8,0:2:0:0:
389,108,69334,6,0,P|380:140|373:172,1,65.5200015996094,2|0,0:2|3:2,0:0:0:0:
254,35,69656,2,0,P|261:66|270:98,1,65.5200015996094,2|8,3:2|0:0,0:0:0:0:
144,148,69979,1,2,3:2:0:0:
137,152,70059,1,0,3:0:0:0:
130,156,70140,2,0,P|101:154|81:148,1,32.7600007998047,0|0,3:0|0:0,0:0:0:0:
42,92,70301,1,2,3:2:0:0:
176,229,70463,1,10,0:2:0:0:
389,108,70705,5,0,3:0:0:0:
397,101,70785,2,0,P|464:135|446:201,1,125.579995784363,6|0,3:2|0:0,0:0:0:0:
415,242,71108,2,0,P|363:233|318:223,1,83.7199971895753,10|2,0:2|3:2,0:0:0:0:
318,231,71350,1,0,3:2:0:0:
311,234,71430,1,0,3:2:0:0:
228,168,71592,1,0,3:2:0:0:
111,267,71753,1,10,0:2:0:0:
178,303,71914,2,0,B|196:260|196:260|156:198,1,83.7199971895753,2|0,3:2|3:2,0:0:0:0:
26,160,72237,5,0,3:2:0:0:
113,78,72398,2,0,P|153:86|195:93,1,83.7199971895753,8|0,0:2|3:2,0:0:0:0:
342,33,72721,1,8,0:2:0:0:
354,27,72801,2,0,P|343:56|341:75,1,41.8599985947876,8|0,0:2|3:2,0:0:0:0:
415,242,73043,1,8,0:2:0:0:
426,252,73366,5,14,0:2:0:0:
324,213,73527,1,0,3:2:0:0:
251,178,73688,1,0,3:2:0:0:
70,297,73850,5,10,0:2:0:0:
125,345,74011,1,0,3:2:0:0:
177,294,74172,1,2,3:2:0:0:
117,357,74334,5,10,0:2:0:0:
83,200,74495,1,10,0:2:0:0:
83,200,74656,2,0,P|112:193|143:183,1,41.8599985947876,0|0,3:2|3:2,0:0:0:0:
250,43,74817,5,8,0:2:0:0:
450,175,74979,1,10,0:2:0:0:
469,195,75301,5,10,0:2:0:0:
462,245,75382,1,8,0:2:0:0:
452,294,75463,1,10,0:2:0:0:
445,341,75543,1,8,0:2:0:0:
438,350,75624,6,0,P|407:357|369:369,1,41.8599985947876,8|8,0:2|0:2,0:0:0:0:
287,281,75785,2,0,P|266:276|246:271,1,41.8599985947876,8|8,0:2|0:2,0:0:0:0:
24,144,75946,6,0,B|147:96|105:213|232:179,1,203.840002488281,6|8,3:2|0:2,0:0:0:0:
428,37,76511,1,8,0:2:0:0:
442,30,76592,2,0,P|427:83|414:158,1,101.920001244141,0|0,3:2|3:2,0:0:0:0:
278,88,76914,2,0,P|293:141|306:216,1,101.920001244141,8|0,0:2|0:0,0:0:0:0:
506,260,77237,6,0,P|462:220|407:232,1,101.920001244141,2|0,3:2|3:2,0:0:0:0:
315,381,77559,2,0,B|366:355|366:355|380:323|380:323|436:300,1,152.880001866211,10|8,0:2|0:2,0:0:0:0:
300,372,77882,2,0,P|239:356|179:334,1,101.920001244141,2|0,3:2|3:2,0:0:0:0:
53,306,78205,1,14,0:2:0:0:
153,163,78366,1,8,0:2:0:0:
158,158,78446,1,8,0:2:0:0:
163,154,78527,6,0,P|119:219|104:358,1,203.840002488281,6|8,3:2|0:2,0:0:0:0:
14,158,79011,1,0,0:0:0:0:
128,67,79172,2,0,B|239:36|207:133|331:120,1,203.840002488281,2|8,3:2|0:2,0:0:0:0:
444,40,79656,5,0,0:0:0:0:
451,36,79737,1,8,0:0:0:0:
458,31,79817,1,2,3:2:0:0:
383,158,79979,1,0,3:2:0:0:
457,288,80140,2,0,P|462:235|475:176,1,101.920001244141,10|0,0:2|0:0,0:0:0:0:
345,259,80463,5,8,0:0:0:0:
305,300,80543,1,8,0:0:0:0:
251,289,80624,2,0,P|244:259|236:233,1,50.9600006220703,8|8,0:0|0:0,0:0:0:0:
166,106,80785,5,2,3:0:0:0:
117,143,80866,5,2,3:0:0:0:
82,124,80946,5,2,3:0:0:0:
55,144,81027,5,2,3:0:0:0:
44,138,81108,6,0,P|18:203|5:323,1,180.179999450134,6|0,3:2|0:0,0:0:0:0:
57,365,81430,6,0,P|87:371|97:368,1,38.2199988336182,10|0,0:2|0:2,0:0:0:0:
197,193,81753,6,0,B|238:209|285:215|285:215|297:280|237:292,1,180.179999450134,6|0,3:2|0:0,0:0:0:0:
187,182,82075,6,0,P|180:149|195:121,1,57.3299982504273,10|8,0:2|0:2,0:0:0:0:
400,72,82398,6,0,B|410:42|448:38|448:38|365:44|312:48,1,180.179999450134,2|0,3:2|0:0,0:0:0:0:
262,21,82721,6,0,P|252:47|260:74,1,57.3299982504273,10|8,0:2|0:2,0:0:0:0:
337,145,83043,5,2,3:2:0:0:
300,231,83205,1,0,3:2:0:0:
395,378,83366,5,10,0:2:0:0:
476,254,83527,1,8,0:2:0:0:
479,248,83608,1,8,0:2:0:0:
482,242,83688,6,0,B|427:226|385:259|385:259|365:319|311:320,1,203.840002488281,6|8,3:2|0:2,0:0:0:0:
97,345,84172,1,2,0:2:0:0:
91,343,84253,1,8,0:2:0:0:
84,341,84334,2,0,B|122:321|118:265|118:265|127:348|223:348,1,203.840002488281,2|8,3:2|0:2,0:0:0:0:
189,155,84817,1,2,0:2:0:0:
192,149,84898,1,8,0:2:0:0:
193,142,84979,6,0,P|137:129|86:106,1,101.920001244141,2|0,3:2|3:0,0:0:0:0:
300,231,85301,2,0,P|252:250|203:261,1,101.920001244141,14|0,0:0|0:0,0:0:0:0:
311,61,85624,5,8,0:0:0:0:
350,36,85705,1,8,0:0:0:0:
400,43,85785,1,8,0:0:0:0:
433,78,85866,1,8,0:0:0:0:
439,124,85946,1,8,0:0:0:0:
411,171,86027,1,8,0:0:0:0:
399,215,86108,1,8,0:0:0:0:
405,260,86188,1,8,0:0:0:0:
431,301,86269,6,0,B|338:272|342:362|240:351,1,203.840002488281,6|8,3:2|0:2,0:0:0:0:
105,110,86834,1,8,0:2:0:0:
111,118,86914,2,0,P|159:113|185:154,1,101.920001244141,0|0,3:2|3:2,0:0:0:0:
261,334,87237,1,8,0:2:0:0:
160,289,87398,2,0,L|178:214,1,50.9600006220703
361,176,87559,6,0,B|325:155|325:155|269:170|269:170|253:249|160:246,1,203.840002488281,2|10,3:2|0:2,0:0:0:0:
54,355,88043,1,0,0:0:0:0:
63,348,88124,1,8,0:2:0:0:
64,338,88205,2,0,L|33:230,1,101.920001244141,2|0,3:2|3:2,0:0:0:0:
102,46,88527,1,14,0:2:0:0:
115,40,88608,1,8,0:0:0:0:
131,48,88688,1,8,0:2:0:0:
138,73,88769,1,8,0:2:0:0:
108,104,88850,6,0,B|169:89|244:70|244:70|202:99|202:157,1,203.840002488281,6|8,3:2|0:2,0:0:0:0:
389,222,89334,1,0,0:0:0:0:
397,238,89414,1,8,0:2:0:0:
383,253,89495,2,0,P|305:231|250:233,1,101.920001244141,0|0,3:2|3:2,0:0:0:0:
365,43,89817,1,8,0:2:0:0:
286,142,89979,1,0,0:0:0:0:
405,336,90140,6,0,P|450:317|460:239,1,101.920001244141,2|0,3:2|3:2,0:0:0:0:
380,131,90463,1,10,0:2:0:0:
160,295,90705,1,8,0:0:0:0:
167,306,90785,1,0,3:0:0:0:
259,343,90946,2,0,L|268:278,1,50.9600006220703,0|0,3:0|0:0,0:0:0:0:
215,189,91108,5,14,3:0:0:0:
194,146,91188,1,8,3:0:0:0:
210,104,91269,5,8,3:0:0:0:
196,78,91350,1,8,3:0:0:0:
201,64,91430,6,0,B|191:42|167:30|167:30|208:31|209:66,1,98.2800023994141,6|0,3:2|0:0,0:0:0:0:
296,208,91753,5,10,0:0:0:0:
270,256,91834,1,8,0:0:0:0:
216,273,91914,1,8,0:0:0:0:
163,257,91995,1,8,0:0:0:0:
148,239,92075,6,0,B|123:226|101:232|101:232|123:226|136:199,1,98.2800023994141,14|0,0:0|0:0,0:0:0:0:
284,279,92398,5,10,0:0:0:0:
301,326,92479,1,8,0:0:0:0:
348,354,92559,1,8,0:0:0:0:
413,347,92640,1,8,0:0:0:0:
442,315,92721,6,0,L|435:276,1,32.7600007998047,14|0,0:0|0:0,0:0:0:0:
449,297,92882,2,0,L|432:250,1,32.7600007998047
325,183,93043,5,10,0:0:0:0:
288,142,93124,1,8,0:0:0:0:
299,84,93205,1,8,0:0:0:0:
360,58,93285,1,8,0:0:0:0:
422,93,93365,5,6,3:0:0:0:
418,99,93446,2,0,L|403:153,2,32.7600007998047,4|4|4,3:0|3:0|3:0,0:0:0:0:
395,208,93688,5,6,3:0:0:0:
404,220,93769,1,4,3:0:0:0:
400,231,93850,5,4,3:0:0:0:
407,237,93930,1,4,3:0:0:0:
400,272,94011,6,0,B|407:258|426:254|426:254|392:214|333:240|333:240|315:296|257:298,1,222.039990852234,6|8,3:2|0:0,0:0:0:0:
454,358,94495,1,8,0:0:0:0:
464,342,94576,1,8,0:0:0:0:
456,326,94656,1,0,3:0:0:0:
259,217,94817,1,0,3:0:0:0:
441,76,94979,2,0,B|424:149|290:134|296:77|370:74|368:116|350:136,1,193.829990239884,8|0,0:0|0:0,0:0:0:0:
360,208,95301,6,0,P|328:208|301:191,1,64.609996746628,10|8,0:0|0:0,0:0:0:0:
197,155,95463,2,0,P|185:125|189:93,1,64.609996746628,8|8,0:0|0:0,0:0:0:0:
257,15,95624,6,0,L|301:8,1,37.3100005693054,10|8,0:0|0:0,0:0:0:0:
253,24,95785,2,0,L|209:17,1,37.3100005693054,8|8,0:0|0:0,0:0:0:0:
262,116,95946,5,2,3:0:0:0:
287,159,96027,1,2,3:0:0:0:
283,202,96108,1,2,3:0:0:0:
260,233,96188,1,2,3:0:0:0:
233,257,96269,5,2,3:0:0:0:
218,285,96350,1,2,3:0:0:0:
222,310,96430,1,2,3:0:0:0:
237,326,96511,1,2,3:0:0:0:
288,346,96592,6,0,P|338:332|387:324,1,101.920001244141,6|0,3:2|3:2,0:0:0:0:
201,241,96914,2,0,P|147:235|100:223,1,101.920001244141,8|0,0:2|3:2,0:0:0:0:
42,277,97237,5,8,0:2:0:0:
102,338,97398,1,0,3:2:0:0:
214,228,97559,5,12,0:2:0:0:
47,165,97721,2,0,B|38:84|110:113|93:7,1,152.880001866211,12|0,0:2|0:0,0:0:0:0:
82,43,98043,6,0,L|102:124,1,50.9600006220703,12|0,0:2|0:0,0:0:0:0:
240,158,98205,2,0,L|255:226,1,50.9600006220703,12|0,0:2|0:0,0:0:0:0:
205,272,98366,1,2,3:2:0:0:
193,284,98446,1,2,3:2:0:0:
169,281,98527,5,8,0:2:0:0:
325,161,98688,1,2,3:2:0:0:
155,142,98850,5,8,0:2:0:0:
264,219,99011,1,2,3:2:0:0:
404,85,99172,6,0,B|410:62|437:52|437:52|367:32|370:102|280:84,1,203.840002488281,6|8,3:2|0:2,0:0:0:0:
137,35,99656,1,0,3:2:0:0:
215,218,99817,2,0,L|192:96,1,101.920001244141,8|0,0:2|3:2,0:0:0:0:
240,232,100140,5,12,0:2:0:0:
43,277,100301,2,0,B|128:257|104:332|196:318,1,152.880001866211,12|0,0:2|0:0,0:0:0:0:
143,346,100624,6,0,P|168:344|189:331,1,50.9600006220703,12|0,0:2|0:0,0:0:0:0:
318,235,100785,2,0,P|318:209|307:187,1,50.9600006220703,12|0,0:2|0:0,0:0:0:0:
249,131,100946,1,2,3:2:0:0:
241,111,101027,1,2,3:2:0:0:
259,86,101108,5,8,0:2:0:0:
407,167,101269,1,2,3:2:0:0:
467,76,101430,5,8,0:2:0:0:
375,141,101592,1,2,3:2:0:0:
491,303,101753,6,0,P|435:275|382:270,1,101.920001244141,8|0,0:2|3:2,0:0:0:0:
192,225,102075,2,0,P|244:215|288:191,1,101.920001244141,8|0,0:2|3:2,0:0:0:0:
342,118,102398,5,8,0:2:0:0:
261,81,102559,1,0,3:2:0:0:
375,193,102721,5,12,0:2:0:0:
242,298,102882,2,0,B|197:261|136:270|136:270|161:279|175:315,1,152.880001866211,12|0,0:2|0:0,0:0:0:0:
134,363,103205,6,0,L|143:312,1,50.9600006220703,12|0,0:2|0:0,0:0:0:0:
278,173,103366,2,0,L|287:223,1,50.9600006220703,12|0,0:2|0:0,0:0:0:0:
336,282,103527,1,2,3:2:0:0:
320,300,103608,1,2,3:2:0:0:
292,300,103688,5,8,0:2:0:0:
465,161,103850,1,2,3:2:0:0:
326,106,104011,5,8,0:2:0:0:
420,223,104172,1,2,3:2:0:0:
208,227,104334,6,0,B|187:216|187:216|176:157|176:157|200:125|200:125|192:66|192:66|169:57,1,203.840002488281,8|8,0:2|0:2,0:0:0:0:
275,171,104817,1,0,3:2:0:0:
356,121,104979,1,8,0:2:0:0:
157,148,105140,5,0,3:2:0:0:
375,224,105301,1,12,0:2:0:0:
375,224,105624,5,0,3:2:0:0:
392,235,105705,1,0,3:2:0:0:
398,254,105785,1,0,3:2:0:0:
389,273,105866,1,0,3:2:0:0:
353,286,105946,5,10,0:2:0:0:
328,245,106027,1,8,0:0:0:0:
347,200,106108,1,0,3:2:0:0:
399,184,106188,1,0,3:2:0:0:
414,174,106269,6,0,P|408:148|405:123,1,50.9600006220703,2|2,3:2|3:2,0:0:0:0:
335,85,106430,2,0,P|340:63|343:34,1,50.9600006220703,2|2,3:2|3:2,0:0:0:0:
269,14,106592,5,8,0:0:0:0:
220,43,106672,1,8,0:0:0:0:
176,32,106753,5,8,0:0:0:0:
151,48,106834,1,8,0:0:0:0:
108,35,106914,6,0,P|120:120|123:183,1,149.240002277222,6|8,3:2|0:2,0:0:0:0:
212,136,107398,1,0,0:0:0:0:
81,271,107559,2,0,P|84:239|84:197,1,74.6200011386109,2|0,3:2|0:0,0:0:0:0:
253,280,107882,2,0,P|252:317|255:354,1,74.6200011386109,8|0,0:2|0:0,0:0:0:0:
181,326,108205,6,0,B|261:310|239:335|346:320,2,149.240002277222,2|8|2,3:2|0:2|3:2,0:0:0:0:
487,357,109172,1,4,0:0:0:0:
487,357,109495,6,0,P|488:301|495:208,1,149.240002277222,2|8,3:2|0:2,0:0:0:0:
396,137,109979,1,0,0:0:0:0:
501,64,110140,1,0,3:2:0:0:
485,108,110301,1,2,0:0:0:0:
396,137,110463,5,10,0:2:0:0:
367,33,110624,1,2,0:0:0:0:
217,125,110785,6,0,P|253:133|291:139,1,74.6200011386109,0|0,3:2|0:0,0:0:0:0:
450,238,111108,2,0,P|411:246|376:251,1,74.6200011386109,8|0,0:2|0:0,0:0:0:0:
249,330,111430,1,6,3:2:0:0:
262,37,111753,1,2,3:2:0:0:
262,37,112075,6,0,P|190:32|142:85,1,149.240002277222,6|8,3:2|0:2,0:0:0:0:
198,159,112559,1,0,0:0:0:0:
81,304,112721,2,0,P|78:270|67:230,1,74.6200011386109,2|0,3:2|0:0,0:0:0:0:
277,112,113043,2,0,P|280:146|290:185,1,74.6200011386109,8|0,0:2|0:0,0:0:0:0:
97,238,113366,6,0,P|104:203|106:163,1,74.6200011386109,2|0,3:2|0:0,0:0:0:0:
252,254,113688,2,0,P|245:289|242:328,1,74.6200011386109,8|0,0:2|0:0,0:0:0:0:
27,174,114011,2,0,B|13:92|55:119|33:22,1,149.240002277222,2|6,3:2|0:0,0:0:0:0:
34,27,114656,6,0,P|68:77|172:60,1,149.240002277222,2|10,3:2|0:2,0:0:0:0:
293,142,115140,2,0,P|293:112|299:67,1,74.6200011386109,2|0,0:0|3:2,0:0:0:0:
210,172,115463,1,0,0:0:0:0:
263,236,115624,5,8,0:2:0:0:
229,19,115785,1,8,0:2:0:0:
229,19,116108,5,2,0:0:0:0:
247,28,116269,1,2,0:0:0:0:
252,51,116430,1,2,0:0:0:0:
240,73,116592,2,0,B|193:64|193:64|213:85,1,76.4399976672364,2|2,0:0|0:0,0:0:0:0:
212,84,117237,6,0,B|276:73|276:73|299:51|299:51|388:35,1,167.439994379151,6|8,3:2|0:2,0:0:0:0:
479,155,117721,1,0,0:0:0:0:
360,212,117882,2,0,L|301:198,2,41.8599985947876,2|0|0,3:2|0:0|0:0,0:0:0:0:
432,98,118205,2,0,P|439:170|449:222,1,125.579995784363,8|0,0:2|0:0,0:0:0:0:
485,298,118527,6,0,P|448:257|397:273,1,83.7199971895753,2|0,3:2|0:0,0:0:0:0:
261,292,118850,1,8,0:2:0:0:
411,345,119011,1,2,0:0:0:0:
308,212,119172,1,2,3:2:0:0:
312,192,119253,1,0,0:0:0:0:
316,169,119334,5,0,0:0:0:0:
161,325,119495,2,0,B|236:312|218:344|305:326,1,125.579995784363,8|0,0:2|0:0,0:0:0:0:
264,365,119817,6,0,B|240:361|240:361|226:238|226:238|206:232,1,167.439994379151,6|8,3:2|0:2,0:0:0:0:
115,90,120301,2,0,L|104:193,1,83.7199971895753,0|0,0:0|3:2,0:0:0:0:
44,224,120543,1,0,0:0:0:0:
51,239,120624,1,0,0:0:0:0:
124,284,120785,1,10,0:2:0:0:
25,122,120946,1,2,0:0:0:0:
195,35,121108,6,0,B|220:68|220:68|208:108,1,83.7199971895753,2|0,3:2|0:0,0:0:0:0:
55,331,121430,2,0,B|30:298|30:298|41:257,1,83.7199971895753,8|0,0:2|0:0,0:0:0:0:
95,200,121672,1,0,0:0:0:0:
91,189,121753,2,0,L|143:208,1,41.8599985947876,2|0,3:2|0:0,0:0:0:0:
232,293,121914,1,0,0:0:0:0:
314,241,122075,2,0,P|272:252|232:259,1,83.7199971895753,10|0,0:2|0:0,0:0:0:0:
468,346,122398,6,0,P|420:313|429:188,1,167.439994379151,6|8,3:2|0:2,0:0:0:0:
510,99,122882,1,2,0:0:0:0:
409,42,123043,2,0,L|419:102,2,41.8599985947876,2|0|0,3:2|0:0|0:0,0:0:0:0:
495,181,123366,1,8,0:2:0:0:
335,121,123527,1,2,0:0:0:0:
381,316,123688,6,0,B|314:308|322:345|240:341,1,125.579995784363,2|0,3:2|0:0,0:0:0:0:
220,318,124011,1,8,0:2:0:0:
338,237,124172,2,0,P|330:214|331:195,2,41.8599985947876,2|0|2,0:0|0:0|3:2,0:0:0:0:
432,202,124495,1,2,0:0:0:0:
226,165,124656,2,0,P|239:111|240:40,1,125.579995784363,10|0,0:2|0:0,0:0:0:0:
166,8,124979,6,0,P|167:63|267:72,1,167.439994379151,6|10,3:2|0:2,0:0:0:0:
42,161,125463,1,14,0:2:0:0:
162,285,125785,5,0,0:0:0:0:
61,144,125946,2,0,P|101:150|117:216,1,83.7199971895753,10|2,0:2|0:0,0:0:0:0:
301,339,126269,6,0,B|398:321|372:349|483:318,1,152.880001866211,14|0,0:2|0:0,0:0:0:0:
447,354,126592,1,10,0:2:0:0:
398,347,126672,1,8,0:2:0:0:
382,310,126753,1,8,0:2:0:0:
401,271,126834,1,8,0:2:0:0:
427,258,126914,6,0,L|433:208,3,37.3100005693054,2|2|2|2,3:0|3:0|3:0|3:0,0:0:0:0:
320,156,127237,2,0,L|323:193,3,37.3100005693054,2|2|2|2,3:0|3:0|3:0|3:0,0:0:0:0:
441,114,127559,5,6,3:2:0:0:
354,87,127721,1,2,3:2:0:0:
454,87,127882,2,0,B|388:101|420:109|333:132,1,125.579995784363,10|0,0:2|3:0,0:0:0:0:
249,104,128205,6,0,P|241:72|236:21,1,83.7199971895753,2|2,3:2|3:2,0:0:0:0:
110,182,128527,2,0,P|162:180|194:240,1,125.579995784363,8|0,0:2|3:2,0:0:0:0:
166,271,128850,5,2,3:2:0:0:
280,338,129011,1,2,3:2:0:0:
129,363,129172,6,0,B|156:353|145:354|194:339,1,41.8599985947876,8|0,0:2|0:0,0:0:0:0:
278,304,129334,2,0,B|340:281|340:281|312:303,1,101.920001244141,6|0,3:2|0:0,0:0:0:0:
129,280,129656,5,2,3:2:0:0:
379,359,129817,2,0,P|403:331|394:285,1,50.9600006220703,10|0,0:2|0:0,0:0:0:0:
426,310,129979,2,0,P|424:284|410:264,1,50.9600006220703,2|0,0:0|3:2,0:0:0:0:
337,204,130140,5,6,3:2:0:0:
373,116,130301,1,2,3:2:0:0:
354,219,130463,2,0,B|333:146|356:171|330:94,1,125.579995784363,8|0,0:2|3:0,0:0:0:0:
377,35,130785,6,0,P|413:38|443:96,1,83.7199971895753,2|2,3:2|3:2,0:0:0:0:
266,153,131108,1,8,0:2:0:0:
365,234,131269,5,2,3:2:0:0:
365,234,131350,1,0,3:2:0:0:
365,234,131430,2,0,P|312:273|273:258,1,83.7199971895753,2|0,3:2|3:2,0:0:0:0:
197,226,131753,1,10,0:2:0:0:
298,130,131914,6,0,L|307:28,1,101.920001244141,2|8,3:2|0:2,0:0:0:0:
304,23,132237,5,2,3:2:0:0:
301,33,132398,5,2,3:2:0:0:
312,32,132559,5,2,3:2:0:0:
107,88,132721,5,6,3:2:0:0:
144,164,132882,1,0,3:2:0:0:
88,104,133043,2,0,P|147:115|170:187,1,125.579995784363,10|0,0:2|3:2,0:0:0:0:
208,303,133366,6,0,P|173:289|164:224,1,83.7199971895753,2|2,3:2|3:2,0:0:0:0:
252,113,133688,1,8,0:2:0:0:
88,209,133850,5,0,3:2:0:0:
88,209,133930,1,0,3:2:0:0:
88,209,134011,2,0,P|91:168|124:144,1,83.7199971895753,2|0,3:2|3:2,0:0:0:0:
303,194,134334,1,10,0:2:0:0:
137,350,134495,2,0,B|220:333|195:363|293:336,1,152.880001866211,6|0,0:0|0:0,0:0:0:0:
321,364,134817,5,2,3:2:0:0:
321,364,134898,1,2,3:2:0:0:
321,364,134979,2,0,P|337:335|319:289,1,50.9600006220703,14|0,0:2|0:0,0:0:0:0:
223,209,135140,2,0,L|208:89,1,101.920001244141,2|0,0:0|0:0,0:0:0:0:
210,107,135463,5,10,0:2:0:0:
424,209,135624,1,10,0:2:0:0:
424,209,135785,1,0,3:2:0:0:
395,122,135946,5,10,0:2:0:0:
177,274,136108,1,10,0:2:0:0:
177,274,136269,2,0,L|185:234,1,23.6599998555908,0|0,3:2|3:2,0:0:0:0:
360,278,136430,6,0,B|321:257|321:257|260:280|260:280|252:340|187:353,1,193.829990239884,14|0,0:2|0:0,0:0:0:0:
135,349,136753,2,0,P|161:355|184:361,1,50.9600006220703,10|0,0:2|0:0,0:0:0:0:
274,250,136914,2,0,P|264:223|256:197,1,55.5099977130586,10|0,0:2|0:0,0:0:0:0:
109,196,137075,2,0,P|87:222|68:239,1,60.0599998167114,10|0,0:2|0:0,0:0:0:0:
177,274,137237,5,8,0:2:0:0:
213,247,137317,1,8,0:2:0:0:
219,198,137398,1,8,0:2:0:0:
186,162,137479,1,8,0:2:0:0:
176,168,137559,5,8,0:2:0:0:
146,131,137640,1,8,0:2:0:0:
154,81,137721,1,8,0:2:0:0:
200,48,137801,1,8,0:2:0:0:
210,62,137882,6,0,B|352:34|352:34|314:66|313:105,1,203.840002488281,6|8,3:2|0:2,0:0:0:0:
499,255,138446,1,8,0:2:0:0:
488,270,138527,2,0,P|484:225|475:168,1,101.920001244141,2|0,3:2|3:2,0:0:0:0:
263,161,138850,1,8,0:2:0:0:
394,102,139011,1,0,0:0:0:0:
345,300,139172,6,0,P|286:297|267:233,1,101.920001244141,2|0,3:2|3:2,0:0:0:0:
99,172,139495,2,0,B|134:109|194:117|194:117|173:146|185:182,1,152.880001866211,10|8,0:2|0:2,0:0:0:0:
84,190,139817,2,0,P|80:146|65:89,1,101.920001244141,2|0,3:2|3:2,0:0:0:0:
186,33,140140,1,14,0:2:0:0:
156,243,140301,1,8,0:2:0:0:
150,253,140382,1,8,0:2:0:0:
140,259,140463,6,0,B|231:239|213:322|328:303,1,152.880001866211,6|0,3:2|0:0,0:0:0:0:
355,264,140785,1,8,0:2:0:0:
192,352,140946,1,0,0:0:0:0:
356,181,141108,6,0,B|272:197|304:242|224:260,1,152.880001866211,2|0,3:2|0:0,0:0:0:0:
157,224,141430,1,8,0:2:0:0:
358,326,141592,2,0,L|344:259,1,50.9600006220703,0|8,0:0|0:0,0:0:0:0:
222,177,141753,5,2,3:2:0:0:
392,106,141914,1,0,3:2:0:0:
195,71,142075,2,0,B|188:65|169:59|169:59|238:44|219:117|320:104,1,152.880001866211,10|0,0:2|0:0,0:0:0:0:
375,32,142398,5,8,0:0:0:0:
337,52,142479,1,8,0:0:0:0:
316,91,142559,1,8,0:0:0:0:
325,138,142640,1,8,0:0:0:0:
360,168,142721,5,2,3:0:0:0:
398,205,142801,5,2,3:0:0:0:
376,248,142882,5,2,3:0:0:0:
394,271,142963,5,2,3:0:0:0:
387,289,143043,6,0,B|339:285|288:311|288:311|246:282|273:223,1,180.179999450134,6|0,3:2|0:0,0:0:0:0:
202,194,143366,6,0,P|220:172|247:163,1,57.3299982504273,10|8,0:2|0:2,0:0:0:0:
143,117,143688,6,0,P|178:225|178:293,1,180.179999450134,6|0,3:2|0:0,0:0:0:0:
144,360,144011,6,0,P|113:343|106:310,1,57.3299982504273,10|8,0:2|0:2,0:0:0:0:
250,330,144334,6,0,B|358:303|334:386|435:375,1,180.179999450134,2|0,3:2|0:0,0:0:0:0:
431,304,144656,6,0,P|401:306|376:321,1,57.3299982504273,10|8,0:2|0:2,0:0:0:0:
318,376,144979,5,2,3:2:0:0:
179,290,145140,1,0,3:2:0:0:
346,198,145301,1,10,0:2:0:0:
368,174,145382,1,0,0:0:0:0:
369,136,145463,1,8,0:2:0:0:
343,98,145543,1,8,0:2:0:0:
274,85,145624,6,0,B|236:99|188:106|188:106|201:148|206:181,1,166.529993139176,6|0,3:2|0:0,0:0:0:0:
177,206,145946,1,8,0:2:0:0:
119,50,146108,1,2,0:2:0:0:
293,170,146269,2,0,L|278:270,1,101.920001244141,2|0,3:2|3:2,0:0:0:0:
197,309,146592,1,8,0:2:0:0:
356,344,146753,5,2,0:2:0:0:
152,219,146914,2,0,B|95:204|75:255|75:255|104:223|147:230,1,152.880001866211,2|0,3:2|0:0,0:0:0:0:
173,193,147237,2,0,B|195:102|90:134|112:30,1,180.179999450134,14|0,0:0|0:0,0:0:0:0:
119,37,147559,5,8,0:0:0:0:
144,29,147640,1,8,0:0:0:0:
181,38,147720,1,8,0:0:0:0:
197,62,147801,1,8,0:0:0:0:
229,92,147882,5,8,0:0:0:0:
269,79,147963,1,8,0:0:0:0:
323,77,148044,5,8,0:0:0:0:
369,60,148124,1,8,0:0:0:0:
382,75,148205,6,0,B|326:62|293:118|293:118|304:183|239:221,1,203.840002488281,6|8,3:2|0:2,0:0:0:0:
468,370,148769,1,8,0:2:0:0:
483,363,148850,2,0,P|485:320|417:308,1,101.920001244141,0|0,3:2|3:2,0:0:0:0:
256,365,149172,1,8,0:2:0:0:
141,325,149334,2,0,P|184:312|220:296,1,50.9600006220703
354,228,149495,6,0,B|311:219|303:165|303:165|317:254|246:277,1,203.840002488281,2|10,3:2|0:2,0:0:0:0:
85,183,149979,1,2,0:0:0:0:
78,181,150059,1,8,0:2:0:0:
73,177,150140,2,0,P|130:187|185:190,1,101.920001244141,2|0,3:2|3:2,0:0:0:0:
307,25,150463,2,0,P|325:51|325:97,1,50.9600006220703,14|0,0:2|0:0,0:0:0:0:
198,41,150624,1,8,0:2:0:0:
188,35,150705,1,8,0:2:0:0:
176,30,150785,6,0,B|135:31|103:-5|103:-5|155:54|135:141,1,203.840002488281,6|8,3:2|0:2,0:0:0:0:
37,255,151269,1,0,0:0:0:0:
33,261,151350,1,8,0:2:0:0:
31,268,151430,2,0,P|73:303|122:285,1,101.920001244141,0|0,3:2|3:2,0:0:0:0:
220,191,151753,1,8,0:2:0:0:
128,282,151914,1,0,0:0:0:0:
283,360,152075,5,2,3:2:0:0:
374,260,152237,1,0,3:2:0:0:
279,283,152398,2,0,B|288:229|288:229|322:204|322:204|340:126,1,152.880001866211,10|8,0:2|0:0,0:0:0:0:
290,81,152721,5,0,3:0:0:0:
446,20,152882,2,0,P|419:22|367:42,1,50.9600006220703,0|0,3:0|0:0,0:0:0:0:
271,97,153043,5,14,3:0:0:0:
237,88,153124,1,8,3:0:0:0:
200,120,153205,5,8,3:0:0:0:
170,131,153285,1,8,3:0:0:0:
158,123,153366,6,0,B|140:115|128:101|128:101|141:142|125:172,1,98.2800023994141,6|0,3:2|0:0,0:0:0:0:
73,309,153688,5,10,0:0:0:0:
110,328,153769,1,8,0:0:0:0:
151,319,153850,1,8,0:0:0:0:
182,277,153930,1,8,0:0:0:0:
172,262,154011,6,0,B|125:249|125:249|191:228,1,98.2800023994141,14|0,0:0|0:0,0:0:0:0:
396,291,154334,5,10,0:0:0:0:
341,318,154414,1,8,0:0:0:0:
285,304,154495,1,8,0:0:0:0:
258,254,154575,1,8,0:0:0:0:
250,212,154656,6,0,P|265:194|274:169,1,32.7600007998047,14|0,0:0|0:0,0:0:0:0:
249,188,154817,2,0,P|257:173|268:161,1,32.7600007998047
462,118,154979,5,10,0:0:0:0:
413,103,155059,1,8,0:0:0:0:
362,94,155140,1,8,0:0:0:0:
301,81,155221,1,8,0:0:0:0:
276,68,155301,5,6,3:0:0:0:
262,59,155382,2,0,P|246:68|219:83,2,32.7600007998047,4|4|4,3:0|3:0|3:0,0:0:0:0:
123,34,155624,5,6,3:0:0:0:
136,53,155705,1,4,3:0:0:0:
126,75,155785,5,4,3:0:0:0:
121,94,155866,1,4,3:0:0:0:
163,122,155946,6,0,B|91:209|244:230|153:331,1,203.840002488281,6|8,3:2|0:0,0:0:0:0:
14,294,156430,1,0,0:0:0:0:
7,293,156511,1,8,0:0:0:0:
1,291,156592,2,0,P|49:281|108:264,1,101.920001244141,0|0,3:0|3:0,0:0:0:0:
247,349,156914,1,8,0:0:0:0:
359,294,157075,1,0,0:0:0:0:
369,291,157156,1,0,3:0:0:0:
378,283,157237,6,0,P|361:232|294:237,1,101.920001244141,2|0,3:2|3:2,0:0:0:0:
234,340,157559,1,8,0:0:0:0:
295,237,157721,1,0,0:0:0:0:
227,157,157882,1,2,3:2:0:0:
270,76,158043,1,0,3:2:0:0:
117,39,158205,5,8,0:0:0:0:
86,89,158285,1,8,0:0:0:0:
101,136,158366,2,0,P|127:122|184:111,1,50.9600006220703,8|8,0:0|0:0,0:0:0:0:
367,127,158527,5,6,3:2:0:0:
388,116,158850,5,8,0:0:0:0:
401,114,159011,1,8,0:0:0:0:
427,121,159172,1,8,0:0:0:0:
462,154,159334,1,8,0:0:0:0:
480,229,159495,1,8,0:0:0:0:
436,315,159656,1,8,0:0:0:0:
339,343,159817,1,8,0:0:0:0:
247,275,159979,1,8,0:0:0:0:
133,222,160140,1,8,0:0:0:0:
29,302,160301,1,8,0:0:0:0:
147,377,160463,1,8,0:0:0:0:
270,261,160624,1,8,0:0:0:0:
231,104,160785,1,8,0:0:0:0:
99,63,160946,1,8,0:0:0:0:
280,242,161108,6,0,B|208:238|134:222|134:222|190:257|183:318,1,240.239999266846,14|0,0:0|3:0,0:0:0:0:
344,384,161592,2,0,B|420:296|244:251|342:148,1,240.239999266846,14|0,0:0|3:0,0:0:0:0:
486,112,162075,6,0,B|519:98|519:98|480:87,1,70.9799995667725,14|0,0:0|0:0,0:0:0:0:
405,67,162398,5,2,3:2:0:0:
334,131,162559,5,0,3:0:0:0:
264,87,162721,5,0,3:0:0:0:
205,129,162882,5,0,3:0:0:0:
140,88,163043,5,0,3:0:0:0:
128,83,163205,1,0,3:0:0:0:
117,82,163366,1,0,3:0:0:0:
112,84,163527,1,0,3:0:0:0:
50,135,163688,6,0,P|34:188|27:246,1,112.839995523316,6|0,3:2|3:0,0:0:0:0:
25,252,164172,1,0,0:0:0:0:
135,348,164334,2,0,P|179:349|199:314,1,84.6299966424867,8|0,0:0|0:0,0:0:0:0:
171,247,164656,2,0,P|145:240|132:238,3,28.2099988808289,8|8|8|8,0:0|0:0|0:0|0:0,0:0:0:0:
261,176,164979,6,0,P|292:167|335:153,1,56.4199977616578,0|0,3:2|3:0,0:0:0:0:
389,263,165301,2,0,P|416:270|443:279,1,56.4199977616578,0|0,3:0|3:0,0:0:0:0:
440,114,165624,2,0,P|408:134|419:190,1,84.6299966424867,8|0,0:0|0:0,0:0:0:0:
485,203,165946,2,0,P|511:196|524:194,3,28.2099988808289,8|8|8|8,0:0|0:0|0:0|0:0,0:0:0:0:
431,101,166269,6,0,B|365:100|389:69|307:74,2,112.839995523316,0|0|8,3:2|3:0|0:0,0:0:0:0:
440,114,167075,1,0,0:0:0:0:
254,112,167237,2,0,P|245:97|245:69,3,28.2099988808289,8|8|8|8,0:0|0:0|0:0|0:0,0:0:0:0:
218,187,167559,6,0,P|189:200|144:163,1,84.6299966424867,0|0,3:2|0:0,0:0:0:0:
104,111,167882,2,0,P|72:108|40:96,1,56.4199977616578,0|0,3:0|3:0,0:0:0:0:
6,247,168205,2,0,P|26:221|82:226,1,84.6299966424867,8|0,0:0|0:0,0:0:0:0:
117,291,168527,5,8,0:0:0:0:
184,364,168688,1,8,0:0:0:0:
272,299,168850,6,0,B|232:319|232:319|219:342|219:342|172:370,1,112.839995523316,6|0,3:2|3:0,0:0:0:0:
168,366,169334,1,0,3:0:0:0:
284,285,169495,2,0,P|307:260|281:208,1,84.6299966424867,8|0,0:0|0:0,0:0:0:0:
216,207,169817,2,0,P|180:229|174:230,3,28.2099988808289,8|8|8|8,0:0|0:0|0:0|0:0,0:0:0:0:
259,112,170140,6,0,P|300:118|334:125,1,56.4199977616578,0|0,3:2|3:0,0:0:0:0:
339,18,170463,2,0,P|366:13|394:9,1,56.4199977616578,0|0,3:0|3:0,0:0:0:0:
471,161,170785,2,0,P|423:138|427:95,1,84.6299966424867,8|0,0:0|0:0,0:0:0:0:
474,59,171108,2,0,P|491:56|506:48,3,28.2099988808289,8|8|8|8,0:0|0:0|0:0|0:0,0:0:0:0:
483,177,171430,6,0,B|456:234|494:235|461:297,1,112.839995523316,0|0,3:2|3:0,0:0:0:0:
458,298,171914,1,0,3:0:0:0:
283,299,172075,2,0,P|316:269|359:286,1,84.6299966424867,8|0,0:0|0:0,0:0:0:0:
378,350,172398,2,0,L|369:381,3,28.2099988808289,8|8|8|8,0:0|0:0|0:0|0:0,0:0:0:0:
268,292,172721,6,0,B|235:290|220:263|220:263|234:306|207:334,2,112.839995523316,0|0|8,3:2|3:0|0:0,0:0:0:0:
284,297,173527,1,0,0:0:0:0:
147,286,173688,5,8,0:0:0:0:
42,223,173850,1,8,0:0:0:0:
55,113,174011,6,0,P|75:160|87:233,1,112.839995523316,6|0,3:2|3:0,0:0:0:0:
93,227,174495,1,0,3:0:0:0:
178,141,174656,2,0,P|214:165|256:147,1,84.6299966424867,8|0,0:0|0:0,0:0:0:0:
303,98,174979,2,0,P|291:69|286:47,3,28.2099988808289,8|8|8|8,0:0|0:0|0:0|0:0,0:0:0:0:
374,199,175301,6,0,B|441:183|423:222|496:214,2,112.839995523316,0|0|8,3:2|3:0|0:0,0:0:0:0:
365,209,176108,1,0,0:0:0:0:
281,315,176269,2,0,P|274:327|269:340,3,28.2099988808289,8|8|8|8,0:0|0:0|0:0|0:0,0:0:0:0:
414,337,176592,6,0,P|369:344|342:352,1,56.4199977616578,0|0,3:2|3:0,0:0:0:0:
503,254,176914,2,0,P|475:250|447:244,1,56.4199977616578,0|0,3:0|3:0,0:0:0:0:
336,139,177237,2,0,P|366:167|357:219,1,84.6299966424867,8|0,0:0|0:0,0:0:0:0:
287,232,177559,2,0,L|256:226,3,28.2099988808289,8|8|8|8,0:0|0:0|0:0|0:0,0:0:0:0:
196,148,177882,6,0,P|189:116|177:80,1,56.4199977616578,0|0,3:2|3:0,0:0:0:0:
56,86,178205,2,0,P|64:59|69:31,1,56.4199977616578,0|0,3:0|3:0,0:0:0:0:
51,200,178527,2,0,P|74:170|132:178,1,84.6299966424867,8|0,0:0|0:0,0:0:0:0:
171,229,178850,5,8,0:0:0:0:
131,355,179011,1,8,0:0:0:0:
239,325,179172,6,0,P|191:338|115:359,1,112.839995523316,0|0,3:2|3:0,0:0:0:0:
115,345,179656,1,0,3:0:0:0:
250,311,179817,2,0,P|236:278|271:237,1,84.6299966424867,8|0,0:0|0:0,0:0:0:0:
331,277,180140,2,0,P|364:284|371:285,3,28.2099988808289,8|8|8|8,0:0|0:0|0:0|0:0,0:0:0:0:
453,247,180463,6,0,B|436:182|473:197|449:122,2,112.839995523316,0|0|8,3:2|3:0|0:0,0:0:0:0:
86,60,181430,6,0,B|48:49|48:49|90:40,1,76.4399976672364,8|0,0:0|3:2,0:0:0:0:
91,77,182075,6,0,P|80:113|109:147,1,70.9799995667725,8|0,0:0|0:0,0:0:0:0:
88,67,182398,6,0,P|62:99|86:166,1,98.2800023994141,8|0,0:0|0:0,0:0:0:0:
84,56,182721,6,0,P|44:80|35:163,1,125.579995784363,8|0,0:0|0:0,0:0:0:0:
81,42,183043,6,0,P|26:56|-4:150,1,152.880001866211,8|0,0:0|0:0,0:0:0:0:
99,290,183366,6,0,P|115:288|129:285,1,30.0300009164429,12|0,0:0|0:0,0:0:0:0:
134,289,183688,5,0,3:0:0:0:
221,259,183850,5,0,3:0:0:0:
257,189,184011,5,0,3:0:0:0:
245,118,184172,5,0,3:0:0:0:
202,88,184334,6,0,P|211:190|212:255,1,167.439994379151,6|0,3:2|3:0,0:0:0:0:
169,321,184817,1,0,3:0:0:0:
312,355,184979,1,8,0:0:0:0:
312,355,185301,2,0,P|311:317|314:271,1,83.7199971895753,0|0,3:0|3:0,0:0:0:0:
386,249,185624,6,0,P|454:205|448:126,1,167.439994379151,2|2,3:2|3:2,0:0:0:0:
387,69,186108,1,0,3:2:0:0:
246,76,186269,2,0,P|246:142|344:184,1,167.439994379151,10|0,0:2|3:0,0:0:0:0:
373,94,186753,1,0,3:0:0:0:
186,22,186914,6,0,P|105:33|19:39,1,167.439994379151,6|0,3:2|3:0,0:0:0:0:
154,112,187398,1,0,3:0:0:0:
89,236,187559,2,0,B|106:146|56:163|79:69,1,167.439994379151,8|0,0:0|3:0,0:0:0:0:
14,203,188043,6,0,P|9:232|4:258,1,56.4199977616578,0|2,3:0|3:2,0:0:0:0:
149,329,188366,2,0,P|153:300|159:274,1,56.4199977616578,0|2,3:2|3:2,0:0:0:0:
70,328,188688,1,0,3:2:0:0:
46,129,188850,1,10,0:2:0:0:
46,129,189172,1,8,0:0:0:0:
115,181,189334,1,2,3:2:0:0:
241,147,189495,6,0,P|318:153|358:232,1,167.439994379151,6|0,3:2|3:0,0:0:0:0:
283,262,189979,1,0,3:0:0:0:
407,308,190140,2,0,P|408:234|413:140,1,167.439994379151,8|0,0:0|3:0,0:0:0:0:
489,62,190624,1,0,3:0:0:0:
487,50,190705,1,0,0:0:0:0:
484,35,190785,5,2,3:2:0:0:
396,62,190946,1,0,3:2:0:0:
305,44,191108,5,2,3:2:0:0:
394,76,191269,1,0,3:2:0:0:
232,94,191430,2,0,B|154:86|184:112|78:108,1,125.579995784363,10|0,0:2|0:0,0:0:0:0:
82,90,191753,1,0,3:0:0:0:
110,21,191914,1,0,3:0:0:0:
130,201,192075,6,0,P|104:143|-10:126,1,167.439994379151,6|0,3:2|3:0,0:0:0:0:
0,222,192559,1,0,3:0:0:0:
156,325,192721,2,0,P|204:290|204:179,1,167.439994379151,8|0,0:0|3:0,0:0:0:0:
259,125,193205,6,0,L|323:117,1,56.4199977616578,0|2,3:0|3:2,0:0:0:0:
387,166,193527,2,0,L|446:172,1,56.4199977616578,0|2,3:2|3:2,0:0:0:0:
485,234,193850,1,0,3:2:0:0:
438,92,194011,5,10,0:2:0:0:
425,285,194172,1,0,3:0:0:0:
512,345,194334,2,0,P|483:344|456:349,1,56.4199977616578,0|0,3:0|3:0,0:0:0:0:
262,294,194656,5,6,3:2:0:0:
276,220,194979,1,2,3:2:0:0:
238,156,195301,1,2,3:2:0:0:
164,132,195624,1,0,3:2:0:0:
164,132,195785,1,2,0:0:0:0:
330,125,195946,5,2,3:2:0:0:
238,156,196269,1,2,3:2:0:0:
175,240,196592,1,2,3:2:0:0:
169,360,196914,1,0,3:2:0:0:
207,351,197075,1,2,0:0:0:0:
87,334,197237,5,6,3:2:0:0:
287,343,197559,1,2,3:2:0:0:
104,251,197882,5,2,3:2:0:0:
273,234,198205,1,2,3:2:0:0:
81,168,198527,5,0,3:2:0:0:
221,118,198850,1,0,3:2:0:0:
23,109,199172,5,2,3:2:0:0:
322,164,199495,2,0,L|426:144,1,83.7199971895753,0|2,3:2|0:0,0:0:0:0:
495,44,199817,6,0,B|425:30|448:57|342:44,1,125.579995784363,6|0,3:2|0:0,0:0:0:0:
306,4,200140,2,0,P|325:65|334:118,1,83.7199971895753,0|0,3:2|0:0,0:0:0:0:
173,146,200463,2,0,P|163:114|155:64,1,83.7199971895753,0|0,3:2|0:0,0:0:0:0:
356,91,200785,6,0,P|348:142|338:172,1,83.7199971895753,0|0,3:2|0:0,0:0:0:0:
107,100,201108,2,0,P|115:49|124:18,1,83.7199971895753,2|0,3:2|0:0,0:0:0:0:
242,96,201430,1,0,3:2:0:0:
227,71,201753,5,2,3:2:0:0:
253,270,201914,2,0,L|349:254,1,83.7199971895753,2|0,0:0|3:2,0:0:0:0:
176,241,202237,1,2,0:0:0:0:
382,331,202398,6,0,P|417:285|397:196,1,125.579995784363,6|0,3:2|0:0,0:0:0:0:
442,183,202721,2,0,L|341:165,1,83.7199971895753,2|2,3:2|0:0,0:0:0:0:
212,32,203043,2,0,L|250:137,1,83.7199971895753,0|0,3:2|0:0,0:0:0:0:
196,332,203366,2,0,L|246:237,1,83.7199971895753,0|0,3:2|0:0,0:0:0:0:
347,81,203688,5,0,3:2:0:0:
159,177,203850,1,0,0:0:0:0:
332,283,204011,1,2,3:2:0:0:
280,181,204172,1,0,0:0:0:0:
468,174,204334,6,0,P|459:221|451:269,1,83.7199971895753,2|0,3:2|0:0,0:0:0:0:
48,188,204656,2,0,P|56:152|62:105,1,83.7199971895753,10|2,0:0|0:0,0:0:0:0:
10,51,204979,1,0,3:2:0:0:
129,204,205140,5,8,0:0:0:0:
294,71,205301,2,0,B|230:58|244:78|181:67,1,101.920001244141,8|0,0:0|3:2,0:0:0:0:
131,31,205543,1,0,3:2:0:0:
145,62,205624,5,8,0:0:0:0:
328,281,205785,1,8,0:0:0:0:
391,197,205946,2,0,L|318:213,1,50.9600006220703,0|0,3:2|3:2,0:0:0:0:
60,240,206108,6,0,B|143:258|143:258|77:277,1,152.880001866211,12|0,0:0|0:0,0:0:0:0:
71,286,206430,6,0,L|-10:270,1,50.9600006220703,8|0,0:0|0:0,0:0:0:0:
179,152,206592,2,0,L|167:68,1,50.9600006220703,8|0,0:0|0:0,0:0:0:0:
349,281,206753,2,0,L|339:347,1,50.9600006220703,8|0,0:0|0:0,0:0:0:0:
249,322,206914,5,8,0:0:0:0:
261,278,206995,1,8,0:0:0:0:
257,235,207075,1,8,0:0:0:0:
271,194,207156,1,8,0:0:0:0:
268,153,207237,1,8,0:0:0:0:
283,110,207317,1,8,0:0:0:0:
279,70,207398,1,8,0:0:0:0:
297,35,207479,1,8,0:0:0:0:
297,35,209495,5,14,0:0:0:0:
128,179,209656,1,14,0:0:0:0:
322,282,209817,1,14,0:0:0:0:
482,142,209979,1,14,0:0:0:0:
256,192,210140,12,6,211430,3:2:0:0:
103,31,212075,5,2,3:2:0:0:
312,266,212721,5,6,3:2:0:0:
312,266,213366,2,0,P|278:271|247:276,1,65.5200015996094,2|0,3:2|0:0,0:0:0:0:
115,225,213688,2,0,P|147:231|180:236,1,65.5200015996094,2|0,3:2|0:0,0:0:0:0:
38,257,214011,5,6,3:2:0:0:
305,41,214656,5,6,3:2:0:0:
473,351,215301,5,6,3:2:0:0:
401,316,215463,1,0,0:0:0:0:
473,351,215624,2,0,P|474:293|484:220,1,131.040003199219,2|0,3:2|3:2,0:0:0:0:
428,162,216269,2,0,P|437:203|438:235,1,65.5200015996094,2|0,3:2|0:0,0:0:0:0:
180,314,216592,6,0,B|161:318|144:332|144:332|160:274|240:269|257:297,1,152.880001866211,6|0,3:2|0:0,0:0:0:0:
239,287,216914,1,10,0:0:0:0:
215,290,216995,1,8,0:0:0:0:
193,276,217075,1,8,0:0:0:0:
186,243,217156,1,8,0:0:0:0:
200,214,217237,1,10,0:0:0:0:
241,198,217317,1,8,0:0:0:0:
291,210,217398,1,8,0:0:0:0:
324,252,217479,1,8,0:0:0:0:
324,310,217559,2,0,L|314:368,3,50.9600006220703,10|8|8|8,0:0|0:0|0:0|0:0,0:0:0:0:
417,182,217882,6,0,B|405:103|361:134|350:29,1,152.880001866211,14|0,0:0|0:0,0:0:0:0:
352,46,218205,1,10,0:0:0:0:
360,40,218285,1,8,0:0:0:0:
378,36,218366,1,8,0:0:0:0:
403,45,218446,1,8,0:0:0:0:
417,81,218527,1,10,0:0:0:0:
394,118,218608,1,8,0:0:0:0:
344,130,218688,1,8,0:0:0:0:
287,110,218769,1,8,0:0:0:0:
261,47,218850,5,2,3:0:0:0:
262,38,218930,1,2,3:0:0:0:
249,31,219011,5,2,3:0:0:0:
247,20,219092,1,2,3:0:0:0:
207,51,219172,6,0,L|105:39,1,101.920001244141,14|0,0:0|3:3,0:0:0:0:
301,153,219495,1,8,0:0:0:0:
139,281,219656,2,0,L|120:219,1,50.9600006220703,10|8,0:0|0:0,0:0:0:0:
54,187,219817,1,2,3:2:0:0:
224,253,219979,1,0,3:0:0:0:
26,357,220140,1,8,0:0:0:0:
108,269,220301,5,2,0:0:0:0:
301,350,220463,1,10,0:0:0:0:
347,356,220543,1,8,0:0:0:0:
385,338,220624,1,8,0:0:0:0:
397,295,220705,1,8,0:0:0:0:
367,240,220785,5,14,0:0:0:0:
95,137,221753,6,0,B|145:125|145:125|178:143|178:143|193:202|250:210,1,180.179999450134,6|0,3:2|0:0,0:0:0:0:
272,277,222075,5,8,0:2:0:0:
427,170,222237,1,0,3:2:0:0:
359,136,222398,5,10,0:2:0:0:
452,321,222559,1,0,3:2:0:0:
483,252,222721,5,8,0:2:0:0:
297,350,222882,2,0,P|289:320|279:292,1,60.0599998167114,2|0,3:2|3:2,0:0:0:0:
122,213,223043,6,0,B|38:234|38:234|-8:299|73:339,1,180.179999450134,14|0,0:2|0:0,0:0:0:0:
109,347,223366,5,10,0:2:0:0:
259,278,223527,1,2,3:2:0:0:
211,342,223688,5,10,0:2:0:0:
116,194,223850,1,0,3:2:0:0:
165,130,224011,5,10,0:2:0:0:
97,30,224172,2,0,B|124:38|124:38|127:43|127:43|169:54,1,60.0599998167114,0|0,3:2|3:2,0:0:0:0:
295,165,224334,6,0,B|255:145|250:107|250:107|266:198|179:208,1,180.179999450134,14|0,0:2|0:0,0:0:0:0:
170,261,224656,5,8,0:2:0:0:
308,159,224817,1,0,3:2:0:0:
382,195,224979,5,14,0:2:0:0:
512,152,225140,1,0,3:2:0:0:
445,118,225301,5,8,0:2:0:0:
494,291,225463,1,0,3:2:0:0:
500,304,225543,1,0,3:2:0:0:
506,316,225624,6,0,B|406:329|438:255|316:270,1,180.179999450134,14|0,0:2|0:0,0:0:0:0:
294,336,225946,5,10,0:2:0:0:
153,271,226108,1,0,3:2:0:0:
232,257,226269,5,8,0:2:0:0:
123,345,226430,1,0,3:2:0:0:
109,200,226592,6,0,P|127:157|139:94,1,92.8200005665283,10|0,0:2|3:2,0:0:0:0:
162,87,226834,1,0,3:2:0:0:
172,78,226914,6,0,P|201:72|223:62,1,43.68,14|0,0:2|0:0,0:0:0:0:
289,156,227237,6,0,P|326:162|365:179,1,50.9600006220703,8|8,0:2|0:2,0:0:0:0:
374,53,227398,2,0,P|399:49|423:42,1,50.9600006220703,8|8,0:2|0:2,0:0:0:0:
344,181,227559,6,0,P|323:175|301:172,1,43.68,14|0,0:2|0:0,0:0:0:0:
200,288,227882,6,0,P|196:255|180:209,1,50.9600006220703,8|8,0:2|0:2,0:0:0:0:
362,380,228043,2,0,P|366:347|382:301,1,50.9600006220703,8|8,0:2|0:2,0:0:0:0:
179,232,228205,6,0,P|184:256|188:281,1,43.68,14|0,0:2|0:0,0:0:0:0:
30,365,228527,6,0,P|71:352|102:338,1,50.9600006220703,8|8,0:2|0:2,0:0:0:0:
66,160,228688,2,0,P|89:168|114:175,1,50.9600006220703,8|8,0:2|0:2,0:0:0:0:
94,359,228850,6,0,P|70:367|48:375,1,43.68,14|0,0:2|0:0,0:0:0:0:
200,288,229172,5,8,0:2:0:0:
242,261,229253,1,8,0:2:0:0:
295,270,229334,1,8,0:2:0:0:
327,314,229414,1,8,0:2:0:0:
337,319,229495,6,0,P|357:312|378:304,1,43.68,14|0,0:2|0:0,0:0:0:0:
448,206,229817,5,10,0:2:0:0:
452,199,229898,1,8,0:2:0:0:
443,187,229979,1,8,0:2:0:0:
451,169,230059,1,8,0:2:0:0:
439,151,230140,1,10,0:2:0:0:
454,127,230221,1,8,0:2:0:0:
434,94,230301,2,0,P|401:87|371:73,1,46.4100002832642,8|8,0:2|0:2,0:0:0:0:
301,4,230463,5,10,0:2:0:0:
268,17,230543,1,8,0:2:0:0:
243,52,230624,1,8,0:2:0:0:
253,90,230705,1,8,0:2:0:0:
262,99,230785,6,0,P|274:132|282:169,1,46.4100002832642,10|8,0:0|0:0,0:0:0:0:
368,227,230946,2,0,P|356:260|348:297,1,46.4100002832642,8|8,0:0|0:0,0:0:0:0:
241,354,231108,5,10,0:0:0:0:
194,373,231188,1,8,0:0:0:0:
136,356,231269,1,8,0:0:0:0:
117,303,231350,1,8,0:0:0:0:
125,289,231430,5,2,3:0:0:0:
141,281,231511,1,2,3:0:0:0:
155,284,231592,1,2,3:0:0:0:
162,291,231672,1,2,3:0:0:0:
166,297,231753,2,0,L|182:335,3,28.2099988808289,2|2|2|2,3:0|3:0|3:0|3:0,0:0:0:0:
150,180,232075,6,0,B|193:128|259:156|259:156|229:183|231:226,1,180.179999450134,6|0,3:2|0:0,0:0:0:0:
133,171,232398,2,0,P|77:157|18:136,1,101.920001244141,10|2,0:0|3:2,0:0:0:0:
23,125,232640,1,0,3:2:0:0:
17,114,232721,1,2,3:2:0:0:
141,27,232882,1,0,3:2:0:0:
259,157,233043,6,0,P|251:134|248:110,1,43.68,10|0,0:0|0:0,0:0:0:0:
283,45,233366,6,0,P|347:27|391:76,1,139.230000849792,6|0,3:2|0:0,0:0:0:0:
302,268,233688,6,0,P|235:230|267:152,1,166.529993139176,6|0,3:2|0:0,0:0:0:0:
481,281,234011,6,0,B|438:263|438:263|393:286|393:286|383:345|320:361,1,193.829990239884,6|0,3:2|0:0,0:0:0:0:
85,214,234334,6,0,B|138:215|161:158|161:158|122:254|217:317,1,221.130005398682,6|0,3:2|0:0,0:0:0:0:
331,354,234656,5,6,3:2:0:0:
342,367,234979,1,8,0:0:0:0:
331,354,235140,1,8,0:0:0:0:
326,378,235301,1,10,0:0:0:0:
368,288,235463,1,8,0:0:0:0:
420,384,235624,1,8,0:0:0:0:
356,266,235785,1,8,0:0:0:0:
442,155,235946,1,10,0:0:0:0:
508,293,236108,1,8,0:0:0:0:
423,167,236269,1,8,0:0:0:0:
284,225,236430,1,8,0:0:0:0:
155,135,236592,1,10,0:0:0:0:
297,42,236753,1,8,0:0:0:0:
362,214,236914,1,8,0:0:0:0:
240,372,237075,1,8,0:0:0:0:
369,199,237237,6,0,B|470:161|470:161|538:187|494:264,1,207.479997467285,14|0,0:0|0:0,0:0:0:0:
448,304,237559,1,0,3:2:0:0:
223,365,237721,6,0,B|143:284|315:252|206:154,1,207.479997467285,14|0,0:0|0:0,0:0:0:0:
155,135,238043,1,2,3:2:0:0:
15,238,238205,6,0,B|80:204|80:204|98:165|98:165|179:121,1,180.179999450134,14|0,0:0|0:0,0:0:0:0:
182,61,238527,1,2,3:2:0:0:
347,171,238688,5,14,0:0:0:0:
437,100,238850,1,2,3:2:0:0:
403,23,239011,1,2,3:2:0:0:
338,185,239172,5,0,3:2:0:0:
351,206,239253,1,0,3:2:0:0:
345,222,239334,1,0,3:2:0:0:
354,236,239414,1,0,3:2:0:0:
349,241,239495,6,0,B|340:263|340:263|331:239,1,43.68,10|0,0:0|0:0,0:0:0:0:
283,323,239817,6,0,P|232:314|183:300,1,101.920001244141,6|0,3:2|3:2,0:0:0:0:
201,143,240139,2,0,P|151:155|100:160,1,101.920001244141,8|0,0:2|3:2,0:0:0:0:
65,336,240462,5,8,0:2:0:0:
123,241,240623,1,0,3:2:0:0:
17,93,240784,5,12,0:2:0:0:
45,231,240946,2,0,B|36:150|108:179|91:73,1,152.880001866211,12|0,0:2|0:0,0:0:0:0:
95,8,241269,6,0,P|119:19|149:21,1,50.9600006220703,12|0,0:2|0:0,0:0:0:0:
201,143,241430,2,0,P|225:132|255:130,1,50.9600006220703,12|0,0:2|0:0,0:0:0:0:
360,50,241591,1,2,3:2:0:0:
367,41,241671,1,2,3:2:0:0:
377,36,241752,5,8,0:2:0:0:
423,118,241913,1,2,3:2:0:0:
361,237,242075,5,8,0:2:0:0:
335,330,242236,1,2,3:2:0:0:
168,262,242398,6,0,B|218:231|262:266|262:266|283:334|360:330,1,203.840002488281,6|8,3:2|0:2,0:0:0:0:
405,379,242881,1,0,3:2:0:0:
361,237,243043,2,0,L|338:115,1,101.920001244141,8|0,0:2|3:2,0:0:0:0:
481,16,243365,5,12,0:2:0:0:
430,77,243527,2,0,B|372:61|372:61|353:34|353:34|275:11,1,152.880001866211,12|0,0:2|0:0,0:0:0:0:
207,37,243850,6,0,P|185:73|191:110,1,50.9600006220703,12|0,0:2|0:0,0:0:0:0:
341,193,244011,2,0,P|320:168|288:160,1,50.9600006220703,12|0,0:2|0:0,0:0:0:0:
164,198,244171,1,2,3:2:0:0:
155,217,244252,1,2,3:2:0:0:
158,235,244333,5,8,0:2:0:0:
335,209,244494,1,2,3:2:0:0:
226,303,244655,5,8,0:2:0:0:
386,340,244817,1,2,3:2:0:0:
292,383,244979,6,0,P|307:331|313:260,1,101.920001244141,8|0,0:2|3:2,0:0:0:0:
158,235,245301,2,0,P|143:186|137:135,1,101.920001244141,8|0,0:2|3:2,0:0:0:0:
238,43,245623,5,8,0:2:0:0:
132,5,245784,1,0,3:2:0:0:
0,140,245946,5,12,0:2:0:0:
74,58,246108,2,0,P|49:119|26:217,1,152.880001866211,12|0,0:2|0:0,0:0:0:0:
61,279,246430,6,0,P|111:266|141:244,1,50.9600006220703,12|0,0:2|0:0,0:0:0:0:
200,359,246592,2,0,P|250:372|280:394,1,50.9600006220703,12|0,0:2|0:0,0:0:0:0:
398,262,246752,1,2,3:2:0:0:
406,249,246833,1,0,3:0:0:0:
397,234,246913,5,8,0:2:0:0:
260,174,247075,2,0,P|276:200|293:258,1,50.9600006220703,2|0,3:2|3:0,0:0:0:0:
314,293,247236,5,8,0:2:0:0:
445,170,247398,2,0,P|453:113|469:47,1,101.920001244141,8|0,0:2|3:0,0:0:0:0:
266,6,247721,5,8,0:0:0:0:
141,93,247882,1,8,0:0:0:0:
141,93,248043,2,0,P|102:83|72:59,1,50.9600006220703,0|0,3:0|3:0,0:0:0:0:
236,281,248205,5,8,0:0:0:0:
61,163,248366,1,8,0:0:0:0:
61,163,248527,2,0,P|75:194|81:238,1,50.9600006220703,0|0,3:0|3:0,0:0:0:0:
180,19,248688,5,8,0:0:0:0:
260,174,248850,1,8,0:0:0:0:
260,174,249011,2,0,P|299:164|329:140,1,50.9600006220703,0|0,3:0|3:0,0:0:0:0:
491,19,249172,5,12,0:0:0:0:
440,167,249334,2,0,P|432:110|416:44,1,101.920001244141,12|0,0:0|3:0,0:0:0:0:
250,187,249656,5,14,0:0:0:0:
415,332,249817,1,14,0:0:0:0:
512,113,249979,1,14,0:0:0:0:
